osu file format v14

[General]
AudioFilename: Kashokusei Idol Shoukougun -GigaP Remix-.mp3
AudioLeadIn: 0
PreviewTime: 103269
Countdown: 0
SampleSet: Soft
StackLeniency: 0.7
Mode: 0
LetterboxInBreaks: 1
EpilepsyWarning: 1
WidescreenStoryboard: 1

[Editor]
DistanceSpacing: 0.9
BeatDivisor: 2
GridSize: 4
TimelineZoom: 1

[Metadata]
Title:Kashokusei: Idol Shoukougun -GigaP Remix-
TitleUnicode:過食性:アイドル症候群 -GigaP Remix-
Artist:Suzumu feat. Soraru
ArtistUnicode:スズム feat.そらる
Creator:On_WanWan
Version:Normal
Source:Danganronpa The Animation ED Single - Zetsubousei: Hero Chiryouyaku
Tags:happy623 ギガP vocaloid megpoid gumi mayu
BeatmapID:700673
BeatmapSetID:312999

[Difficulty]
HPDrainRate:3
CircleSize:3
OverallDifficulty:3
ApproachRate:5
SliderMultiplier:0.999999999999999
SliderTickRate:2

[Events]
//Background and Video events
0,0,"Background.jpg",0,0
//Break Periods
2,125069,133269
//Storyboard Layer 0 (Background)
//Storyboard Layer 1 (Fail)
//Storyboard Layer 2 (Pass)
//Storyboard Layer 3 (Foreground)
//Storyboard Sound Samples

[TimingPoints]
69,300,4,1,1,70,1,0
7269,-100,4,2,1,5,0,0
9669,-100,4,1,1,70,0,0
19269,-100,4,1,1,40,0,0
27069,-100,4,1,9,40,0,0
27219,-100,4,1,1,40,0,0
28869,-100,4,2,9,70,0,0
28944,-100,4,1,1,40,0,0
38469,-100,4,2,9,70,0,0
38544,-100,4,1,1,50,0,0
45669,-100,4,2,1,60,0,0
46869,-100,4,3,1,60,0,0
47469,-100,4,1,1,60,0,0
48069,-100,4,1,1,70,0,0
48669,-100,4,1,9,70,0,0
48819,-100,4,1,1,70,0,0
49869,-100,4,1,9,70,0,0
50019,-100,4,1,1,70,0,0
51069,-100,4,1,9,70,0,0
51219,-100,4,1,1,70,0,0
53469,-100,4,1,9,70,0,0
53619,-100,4,1,1,70,0,0
54669,-100,4,1,9,70,0,0
54819,-100,4,1,1,70,0,0
55869,-100,4,1,9,70,0,0
56019,-100,4,1,1,70,0,0
58269,-100,4,1,9,70,0,0
58419,-100,4,1,1,70,0,0
59469,-100,4,1,9,70,0,0
59619,-100,4,1,1,70,0,0
60669,-100,4,1,9,70,0,0
60819,-100,4,1,1,70,0,0
63069,-100,4,1,9,70,0,0
63219,-100,4,1,1,70,0,0
64269,-100,4,1,9,70,0,0
64419,-100,4,1,1,70,0,0
65469,-100,4,1,9,70,0,0
65619,-100,4,1,1,70,0,0
66069,-100,4,3,1,70,0,0
66969,-100,4,1,1,70,0,0
76869,-100,4,2,9,70,0,0
76944,-100,4,1,1,40,0,0
84669,-100,4,1,9,40,0,0
84744,-100,4,1,1,40,0,0
86019,-100,4,1,1,40,0,0
86469,-100,4,2,9,70,0,0
86544,-100,4,1,1,40,0,0
96069,-100,4,1,1,50,0,0
103269,-100,4,2,1,60,0,0
104469,-100,4,3,1,60,0,0
105669,-100,4,1,1,80,0,1
115194,-100,4,1,1,80,0,0
115269,-100,4,1,1,80,0,1
123444,-100,4,1,1,80,0,1
123519,-100,4,3,1,70,0,0
124869,-100,4,1,1,70,0,1
124944,-100,4,1,1,70,0,0
134469,-100,4,3,2,60,0,0
138069,-100,4,2,1,60,0,0
139269,-100,4,3,2,60,0,0
142869,-100,4,2,1,60,0,0
144069,-100,4,3,2,60,0,0
147669,-100,4,2,1,60,0,0
148869,-100,4,3,2,60,0,0
152469,-100,4,2,1,60,0,0
153669,-100,4,1,1,50,0,0
157869,-100,4,3,1,70,0,0
158169,-100,4,3,1,70,0,0
158469,-100,4,1,1,70,0,0
177669,-100,4,2,9,70,0,0
186069,-100,4,2,1,30,0,0
187269,-100,4,2,1,5,0,0
188469,-100,4,1,1,70,0,0
196869,-100,4,3,1,50,0,0
198069,-100,4,1,1,80,0,1
206169,-100,4,1,9,80,0,1
206244,-100,4,1,1,80,0,1
207669,-100,4,1,1,60,0,0
208869,-100,4,3,1,50,0,0
210069,-100,4,1,1,70,0,1
210144,-100,4,1,1,70,0,0
219669,-100,4,3,1,80,0,1
229269,-100,4,2,9,70,0,0
238869,-100,4,2,9,40,0,0
238944,-100,4,2,9,20,0,0
241269,-100,4,2,9,5,0,0

[Colours]
Combo1 : 179,79,200
Combo2 : 255,199,6
Combo3 : 177,255,91
Combo4 : 79,220,236
Combo5 : 60,44,107
Combo6 : 255,9,95

[HitObjects]
456,140,7269,70,0,P|312:64|340:236,1,400
364,148,8769,69,0,0:0:0:0:
416,224,9069,2,0,L|480:248,2,50
368,300,9669,38,0,P|324:324|252:304,1,99.9999999999999,4|0,0:0|0:0,0:0:0:0:
220,248,10269,2,0,L|208:140,1,99.9999999999999,8|0,0:0|0:0,0:0:0:0:
140,92,10869,2,0,L|68:72,2,50
224,60,11469,2,0,B|240:44|268:44|268:44|304:64|352:60,1,99.9999999999999,8|0,0:0|0:0,0:0:0:0:
408,56,12069,6,0,P|480:80|488:124,1,99.9999999999999
504,184,12669,2,0,P|447:234|405:219,1,99.9999999999999,8|0,0:0|0:0,0:0:0:0:
352,184,13269,2,0,L|332:128,2,50
296,256,13869,2,0,B|256:256|256:256|236:264|236:264|180:264,1,99.9999999999999,8|0,0:0|0:0,0:0:0:0:
116,308,14469,70,0,P|104:256|124:212,1,99.9999999999999
200,168,15069,2,0,L|224:64,1,99.9999999999999,8|0,0:0|0:0,0:0:0:0:
312,64,15669,2,0,L|300:112,2,50
400,44,16269,2,0,P|472:80|480:108,1,99.9999999999999,8|0,0:0|0:0,0:0:0:0:
492,184,16869,6,0,P|456:256|428:264,1,99.9999999999999
352,276,17469,2,0,P|280:240|272:212,1,99.9999999999999,8|0,0:0|0:0,0:0:0:0:
300,140,18069,2,0,L|332:96,2,50
212,160,18669,2,0,B|176:160|176:160|152:164|152:164|108:164,1,99.9999999999999,8|0,0:0|0:0,0:0:0:0:
36,212,19269,6,0,P|16:264|36:304,1,99.9999999999999
124,300,19869,2,0,P|176:288|216:308,1,99.9999999999999,8|0,0:0|0:0,0:0:0:0:
300,344,20469,2,0,P|364:336|420:264,1,150
404,232,21069,1,8,0:0:0:0:
444,152,21369,1,0,0:0:0:0:
400,76,21669,6,0,L|280:56,1,99.9999999999999
212,60,22269,2,0,L|60:88,1,150,8|0,0:0|0:0,0:0:0:0:
36,124,22869,2,0,P|16:188|40:272,1,150
68,300,23469,1,8,0:0:0:0:
156,276,23769,1,0,0:0:0:0:
228,332,24069,70,0,L|344:332,1,99.9999999999999
408,292,24669,2,0,P|428:244|396:200,1,99.9999999999999,8|0,0:0|0:0,0:0:0:0:
332,152,25269,1,0,0:0:0:0:
288,152,25419,2,0,B|232:152|232:152|200:168|200:168|108:168,1,150,0|8,0:0|0:0,0:0:0:0:
60,208,26169,1,0,0:0:0:0:
100,288,26469,6,0,P|144:280|196:304,1,99.9999999999999
228,328,26919,2,0,P|304:336|364:304,1,99.9999999999999
416,316,27519,1,0,0:0:0:0:
448,284,27669,2,0,L|456:180,1,99.9999999999999
420,156,28119,2,0,L|428:52,1,99.9999999999999
340,36,28719,1,0,0:0:0:0:
296,24,28869,22,0,P|236:28|200:64,1,99.9999999999999,2|0,0:0|0:0,0:0:0:0:
164,132,29469,2,0,P|168:192|204:228,1,99.9999999999999,8|0,0:0|0:0,0:0:0:0:
276,248,30069,2,0,B|328:248|328:248|372:260|372:260|432:260,1,150
452,296,30669,1,8,0:0:0:0:
384,352,30969,1,0,0:0:0:0:
296,324,31269,54,0,P|232:316|200:276,1,99.9999999999999
208,204,31869,2,0,P|246:173|295:172,1,99.9999999999999,8|0,0:0|0:0,0:0:0:0:
384,148,32469,1,0,0:0:0:0:
424,164,32619,2,0,L|452:48,1,99.9999999999999
408,44,33069,2,0,P|304:52|292:68,1,99.9999999999999,8|0,0:0|0:0,0:0:0:0:
228,64,33669,22,0,L|112:64,1,99.9999999999999
124,152,34269,2,0,L|8:152,1,99.9999999999999,8|0,0:0|0:0,0:0:0:0:
24,240,34869,2,0,B|80:240|80:240|112:256|112:256|180:256,1,150
216,256,35469,1,8,0:0:0:0:
296,300,35769,1,0,0:0:0:0:
376,344,36069,54,0,P|392:292|368:248,1,99.9999999999999
376,164,36669,2,0,P|392:112|368:68,1,99.9999999999999,8|0,0:0|0:0,0:0:0:0:
293,28,37269,22,0,P|277:80|301:124,1,99.9999999999999,8|0,0:0|0:0,0:0:0:0:
293,208,37869,2,0,P|277:260|301:304,1,99.9999999999999,8|0,0:0|0:0,0:0:0:0:
332,324,38319,1,8,0:0:0:0:
376,328,38469,6,0,P|436:280|368:176,2,200,2|8|0,0:0|0:0|0:0,0:0:0:0:
260,260,40119,1,0,0:0:0:0:
268,216,40269,2,0,L|288:84,1,99.9999999999999,8|0,0:0|0:0,0:0:0:0:
220,52,40869,38,0,B|176:36|128:44|128:44|92:76|20:60,2,200,0|8|0,0:0|0:0|0:0,0:0:0:0:
256,76,42219,2,0,P|348:88|372:80,1,99.9999999999999
396,76,42669,1,8,0:0:0:0:
464,136,42969,1,0,0:0:0:0:
392,192,43269,38,0,B|316:192|316:192|268:212|268:212|176:212,2,200,0|8|0,0:0|0:0|0:0,0:0:0:0:
468,304,44919,1,0,0:0:0:0:
436,336,45069,2,0,P|380:352|340:328,1,99.9999999999999,8|0,0:0|0:0,0:0:0:0:
312,252,45669,38,0,L|312:92,1,150
228,68,46419,2,0,L|228:228,1,150,0|8,0:0|0:0,0:0:0:0:
200,304,47169,1,4,0:0:0:0:
112,324,47469,1,4,0:0:0:0:
20,168,48069,6,0,P|76:144|132:164,1,99.9999999999999
152,172,48519,2,0,P|228:208|304:192,1,150
344,124,49269,1,0,0:0:0:0:
428,96,49569,1,0,0:0:0:0:
464,124,49719,2,0,L|440:276,1,150
368,324,50469,6,0,P|308:332|260:320,1,99.9999999999999
228,304,50919,2,0,P|178:295|129:303,1,99.9999999999999
56,252,51519,1,0,0:0:0:0:
56,164,51819,1,0,0:0:0:0:
56,72,52119,1,0,0:0:0:0:
92,44,52269,2,0,L|200:64,1,99.9999999999999,10|2,0:0|0:0,0:0:0:0:
280,80,52869,70,0,P|320:56|388:68,1,99.9999999999999,4|0,0:0|0:0,0:0:0:0:
408,84,53319,2,0,P|420:156|364:208,1,150
288,244,54069,1,0,0:0:0:0:
204,280,54369,1,0,0:0:0:0:
172,248,54519,2,0,P|140:168|176:116,1,150
224,48,55269,5,0,0:0:0:0:
268,36,55419,2,0,L|412:36,2,99.9999999999999
268,124,56319,1,0,0:0:0:0:
268,168,56469,2,0,L|312:288,1,99.9999999999999,2|2,0:0|0:0,0:0:0:0:
216,288,57069,2,0,L|172:168,1,99.9999999999999,10|2,0:0|0:0,0:0:0:0:
116,132,57669,70,0,P|52:120|16:140,1,99.9999999999999,4|0,0:0|0:0,0:0:0:0:
8,176,58119,2,0,L|62:322,1,150
148,324,58869,1,0,0:0:0:0:
240,324,59169,1,0,0:0:0:0:
284,324,59319,2,0,B|340:324|340:324|376:316|376:316|440:316,1,150
472,236,60069,6,0,P|488:176|460:136,1,99.9999999999999
432,120,60519,2,0,P|360:128|340:176,1,99.9999999999999
284,212,61119,1,0,0:0:0:0:
196,212,61419,1,0,0:0:0:0:
108,212,61719,1,0,0:0:0:0:
76,180,61869,2,0,L|76:72,1,99.9999999999999,10|2,0:0|0:0,0:0:0:0:
164,80,62469,70,0,L|164:188,1,99.9999999999999,4|0,0:0|0:0,0:0:0:0:
196,212,62919,2,0,P|236:192|308:272,1,150
324,340,63669,1,0,0:0:0:0:
396,288,63969,1,0,0:0:0:0:
428,260,64119,2,0,L|428:100,1,150
352,60,64869,6,0,P|260:48|244:64,1,99.9999999999999
224,72,65319,2,0,P|176:82|133:58,1,99.9999999999999
48,84,65919,1,0,0:0:0:0:
48,128,66069,2,0,B|60:176|60:176|48:224|48:224|60:276,2,150,0|8|4,0:0|0:0|0:0,0:0:0:0:
136,104,67269,6,0,P|176:64|240:68,1,99.9999999999999,4|0,0:0|0:0,0:0:0:0:
296,104,67869,2,0,P|310:158|275:212,1,99.9999999999999,8|0,0:0|0:0,0:0:0:0:
216,244,68469,2,0,L|156:260,2,50
296,288,69069,2,0,B|332:288|332:288|356:300|356:300|424:300,1,99.9999999999999,8|0,0:0|0:0,0:0:0:0:
452,232,69669,6,0,L|464:124,1,99.9999999999999
372,140,70269,2,0,L|383:40,1,99.9999999999999,8|0,0:0|0:0,0:0:0:0:
292,36,70869,2,0,P|252:32|232:40,2,50
256,120,71469,2,0,P|188:108|164:68,1,99.9999999999999,8|0,0:0|0:0,0:0:0:0:
84,60,72069,70,0,P|36:104|36:156,1,99.9999999999999
40,224,72669,2,0,L|56:336,1,99.9999999999999,8|0,0:0|0:0,0:0:0:0:
144,328,73269,2,0,P|176:336|196:352,2,50
164,240,73869,2,0,P|216:256|260:296,1,99.9999999999999,8|0,0:0|0:0,0:0:0:0:
332,328,74469,6,0,L|448:328,1,99.9999999999999
448,240,75069,2,0,L|332:240,1,99.9999999999999,8|0,0:0|0:0,0:0:0:0:
296,168,75669,1,0,0:0:0:0:
352,96,75969,1,0,0:0:0:0:
304,20,76269,1,8,0:0:0:0:
216,44,76569,1,0,0:0:0:0:
212,132,76869,6,0,B|172:132|172:132|148:140|148:140|96:140,1,99.9999999999999,2|0,0:0|0:0,0:0:0:0:
44,196,77469,2,0,P|28:256|52:292,1,99.9999999999999,8|0,0:0|0:0,0:0:0:0:
124,332,78069,2,0,L|296:332,1,150
320,332,78669,1,8,0:0:0:0:
396,280,78969,1,0,0:0:0:0:
468,224,79269,6,0,P|487:179|469:133,1,99.9999999999999
388,96,79869,2,0,P|339:101|309:140,1,99.9999999999999,8|0,0:0|0:0,0:0:0:0:
256,212,80469,2,0,B|184:232|184:232|104:208,1,150
68,196,81069,1,8,0:0:0:0:
68,108,81369,1,0,0:0:0:0:
144,56,81669,70,0,P|208:36|248:52,1,99.9999999999999
308,104,82269,2,0,P|356:113|401:93,1,99.9999999999999,8|0,0:0|0:0,0:0:0:0:
484,56,82869,2,0,L|468:228,1,150
464,252,83469,1,8,0:0:0:0:
376,228,83769,1,0,0:0:0:0:
300,276,84069,6,0,P|228:292|192:272,1,99.9999999999999
168,260,84519,2,0,P|92:232|12:272,1,150
28,300,85119,1,0,0:0:0:0:
144,56,86019,2,0,B|200:56|200:56|240:64|240:64|296:64,1,150,0|2,0:0|0:0,0:0:0:0:
384,64,86769,21,0,0:0:0:0:
444,132,87069,1,8,0:0:0:0:
384,200,87369,1,0,0:0:0:0:
432,276,87669,2,0,P|388:292|332:272,1,99.9999999999999
256,240,88269,2,0,P|209:225|162:241,1,99.9999999999999,8|0,0:0|0:0,0:0:0:0:
112,316,88869,54,0,P|76:276|84:212,1,99.9999999999999
132,160,89469,2,0,L|168:44,1,99.9999999999999,8|0,0:0|0:0,0:0:0:0:
248,44,90069,1,0,0:0:0:0:
292,36,90219,2,0,P|360:28|428:92,1,150,0|8,0:0|0:0,0:0:0:0:
424,168,90969,1,0,0:0:0:0:
424,256,91269,22,0,L|424:360,1,99.9999999999999
336,356,91869,2,0,L|336:252,1,99.9999999999999,8|0,0:0|0:0,0:0:0:0:
272,192,92469,2,0,P|204:184|136:248,1,150
120,272,93069,1,8,0:0:0:0:
36,240,93369,1,0,0:0:0:0:
52,152,93669,54,0,L|68:50,1,99.9999999999999
156,48,94269,2,0,L|140:146,1,99.9999999999999,8|0,0:0|0:0,0:0:0:0:
232,140,94869,2,0,L|248:38,1,99.9999999999999,8|0,0:0|0:0,0:0:0:0:
336,36,95469,2,0,L|320:134,1,99.9999999999999,8|0,0:0|0:0,0:0:0:0:
364,132,95919,1,8,0:0:0:0:
408,128,96069,38,0,P|460:200|384:296,2,200,0|8|0,0:0|0:0|0:0,0:0:0:0:
272,120,97719,1,0,0:0:0:0:
228,120,97869,2,0,L|108:120,1,99.9999999999999,8|0,0:0|0:0,0:0:0:0:
124,208,98469,38,0,B|204:208|204:208|244:220|244:220|344:224,2,200,0|8|0,0:0|0:0|0:0,0:0:0:0:
84,228,99819,2,0,P|68:288|104:344,1,99.9999999999999
120,340,100269,1,8,0:0:0:0:
208,312,100569,1,8,0:0:0:0:
292,344,100869,38,0,B|384:308|384:308|384:200,2,200,0|8|0,0:0|0:0|0:0,0:0:0:0:
156,344,102519,1,0,0:0:0:0:
112,344,102669,2,0,P|96:284|120:244,1,99.9999999999999,8|0,0:0|0:0,0:0:0:0:
192,212,103269,38,0,L|332:208,1,99.9999999999999
292,120,103869,2,0,L|116:128,1,150
96,128,104469,1,8,0:0:0:0:
44,204,104769,1,8,0:0:0:0:
108,268,105069,1,4,0:0:0:0:
56,344,105369,1,4,0:0:0:0:
144,352,105669,6,0,L|280:352,1,99.9999999999999,4|8,0:0|0:0,0:0:0:0:
284,332,106119,2,0,P|352:304|424:344,1,150,0|8,0:0|0:0,0:0:0:0:
484,276,106869,2,0,P|500:220|476:180,1,99.9999999999999,0|8,0:0|0:0,0:0:0:0:
444,160,107319,2,0,L|288:196,1,150,0|8,0:0|0:0,0:0:0:0:
224,248,108069,6,0,L|96:276,1,99.9999999999999,0|8,0:0|0:0,0:0:0:0:
84,280,108519,2,0,P|56:208|88:144,1,150,0|8,0:0|0:0,0:0:0:0:
100,56,109269,1,0,0:0:0:0:
172,112,109569,1,8,0:0:0:0:
184,24,109869,2,0,B|220:24|220:24|248:32|248:32|316:32,1,99.9999999999999,2|10,0:0|0:0,0:0:0:0:
372,36,110469,70,0,P|432:44|452:104,1,99.9999999999999,4|8,0:0|0:0,0:0:0:0:
456,120,110919,2,0,L|456:292,1,150,0|8,0:0|0:0,0:0:0:0:
380,316,111669,2,0,B|344:316|344:316|320:308|320:308|260:308,1,99.9999999999999,0|8,0:0|0:0,0:0:0:0:
236,312,112119,2,0,P|180:296|100:332,1,150,0|8,0:0|0:0,0:0:0:0:
28,276,112869,6,0,P|12:224|40:176,1,99.9999999999999,0|8,0:0|0:0,0:0:0:0:
120,180,113469,2,0,P|138:134|122:88,1,99.9999999999999,0|8,0:0|0:0,0:0:0:0:
196,36,114069,1,2,0:0:0:0:
280,68,114369,1,10,0:0:0:0:
364,100,114669,1,2,0:0:0:0:
448,132,114969,1,10,0:0:0:0:
448,224,115269,70,0,L|448:332,1,99.9999999999999,4|8,0:0|0:0,0:0:0:0:
404,336,115719,2,0,B|372:324|336:328|336:328|296:352|252:336,1,150,0|8,0:0|0:0,0:0:0:0:
212,260,116469,2,0,P|152:248|104:272,1,99.9999999999999,0|8,0:0|0:0,0:0:0:0:
76,276,116919,2,0,P|48:204|84:136,1,150,0|8,0:0|0:0,0:0:0:0:
156,100,117669,6,0,L|260:100,1,99.9999999999999,0|8,0:0|0:0,0:0:0:0:
300,100,118119,2,0,B|376:80|376:80|436:120,1,150,0|8,0:0|0:0,0:0:0:0:
508,172,118869,1,0,0:0:0:0:
440,232,119169,1,8,0:0:0:0:
368,284,119469,2,0,B|336:284|336:284|304:296|304:296|268:296,1,99.9999999999999,2|10,0:0|0:0,0:0:0:0:
180,300,120069,70,0,P|108:332|56:304,1,99.9999999999999,0|8,0:0|0:0,0:0:0:0:
56,300,120519,2,0,P|48:224|116:184,1,150,0|8,0:0|0:0,0:0:0:0:
192,168,121269,2,0,L|300:168,1,99.9999999999999,0|8,0:0|0:0,0:0:0:0:
328,196,121719,2,0,L|488:196,1,150,0|8,0:0|0:0,0:0:0:0:
480,108,122469,5,0,0:0:0:0:
404,56,122769,1,8,0:0:0:0:
320,88,123069,1,0,0:0:0:0:
244,36,123369,1,8,0:0:0:0:
152,36,123669,2,0,P|56:76|76:188,1,200,0|2,0:0|0:0,0:0:0:0:
136,124,124569,1,4,0:0:0:0:
136,212,124869,1,4,0:0:0:0:
120,332,134469,6,0,P|160:316|216:336,1,99.9999999999999,4|8,0:0|0:0,0:0:0:0:
256,256,135069,1,0,0:0:0:0:
304,332,135369,1,12,0:0:0:0:
392,328,135669,22,0,P|376:288|396:232,1,99.9999999999999,4|8,0:0|0:0,0:0:0:0:
316,192,136269,1,0,0:0:0:0:
392,144,136569,1,12,0:0:0:0:
392,52,136869,54,0,P|352:68|296:48,1,99.9999999999999,4|8,0:0|0:0,0:0:0:0:
256,128,137469,1,0,0:0:0:0:
208,52,137769,1,12,0:0:0:0:
120,52,138069,38,0,L|60:140,1,99.9999999999999,2|2,0:0|0:0,0:0:0:0:
100,216,138669,2,0,L|40:304,1,99.9999999999999,2|2,0:0|0:0,0:0:0:0:
112,356,139269,38,0,B|148:356|148:356|172:364|172:364|216:364,1,99.9999999999999,4|8,0:0|0:0,0:0:0:0:
296,340,139869,1,0,0:0:0:0:
384,360,140169,1,12,0:0:0:0:
400,272,140469,22,0,B|364:272|364:272|340:280|340:280|296:280,1,99.9999999999999,4|8,0:0|0:0,0:0:0:0:
216,256,141069,1,0,0:0:0:0:
128,276,141369,1,12,0:0:0:0:
112,188,141669,54,0,B|148:188|148:188|172:196|172:196|216:196,1,99.9999999999999,4|8,0:0|0:0,0:0:0:0:
296,172,142269,1,0,0:0:0:0:
384,192,142569,1,12,0:0:0:0:
408,104,142869,38,0,L|292:80,1,99.9999999999999
224,108,143469,2,0,L|108:84,1,99.9999999999999
36,92,144069,37,4,0:0:0:0:
24,180,144369,1,8,0:0:0:0:
60,260,144669,2,0,P|52:316|76:352,1,99.9999999999999,0|12,0:0|0:0,0:0:0:0:
140,292,145269,21,4,0:0:0:0:
128,204,145569,1,8,0:0:0:0:
164,124,145869,2,0,P|156:68|180:32,1,99.9999999999999,0|12,0:0|0:0,0:0:0:0:
244,92,146469,53,4,0:0:0:0:
232,180,146769,1,8,0:0:0:0:
268,260,147069,2,0,P|260:316|284:352,1,99.9999999999999,0|12,0:0|0:0,0:0:0:0:
372,336,147669,38,0,L|448:248,1,99.9999999999999,2|2,0:0|0:0,0:0:0:0:
368,200,148269,2,0,L|444:116,1,99.9999999999999,2|2,0:0|0:0,0:0:0:0:
368,64,148869,37,4,0:0:0:0:
280,40,149169,1,8,0:0:0:0:
256,128,149469,2,0,L|152:128,1,99.9999999999999,0|12,0:0|0:0,0:0:0:0:
76,172,150069,21,4,0:0:0:0:
99,260,150369,1,8,0:0:0:0:
187,236,150669,2,0,L|239:326,1,99.9999999999999,0|12,0:0|0:0,0:0:0:0:
320,360,151269,53,4,0:0:0:0:
384,296,151569,1,8,0:0:0:0:
319,231,151869,2,0,L|370:140,1,99.9999999999999,0|12,0:0|0:0,0:0:0:0:
332,60,152469,37,2,0:0:0:0:
256,108,152769,1,2,0:0:0:0:
180,60,153069,1,2,0:0:0:0:
256,192,153669,12,2,157869,0:0:0:0:
