osu file format v14

[General]
AudioFilename: [Eng Sub] On the Eighth Day, Before the Rain Stops. [Suzumu feat. Hatsune Miku].mp3
AudioLeadIn: 0
PreviewTime: 93563
Countdown: 0
SampleSet: Soft
StackLeniency: 0.7
Mode: 0
LetterboxInBreaks: 1
WidescreenStoryboard: 1

[Editor]
DistanceSpacing: 1.5
BeatDivisor: 4
GridSize: 4
TimelineZoom: 2.1

[Metadata]
Title:Youka-me, Ame ga Yamu mae ni.
TitleUnicode:Youka-me, Ame ga Yamu mae ni.
Artist:Suzumu
ArtistUnicode:スズム
Creator:Gunsillie
Version:Anew
Source:Youka-me, Ame ga Yamu mae ni.
Tags:Hatsune Miku Eighth Day Before Rain Stops
BeatmapID:651828
BeatmapSetID:289116

[Difficulty]
HPDrainRate:6.7
CircleSize:4.3
OverallDifficulty:8
ApproachRate:9.2
SliderMultiplier:1.4
SliderTickRate:1

[Events]
//Background and Video events
0,0,"ss+(2015-02-11+at+10.21.48).jpg",0,0
//Break Periods
2,63403,155171
//Storyboard Layer 0 (Background)
//Storyboard Layer 1 (Fail)
//Storyboard Layer 2 (Pass)
//Storyboard Layer 3 (Foreground)
//Storyboard Sound Samples

[TimingPoints]
17243.8368902439,480,4,2,0,30,1,0
30683,-66.6666666666667,4,2,0,60,0,0
44123,-125,4,2,0,30,0,0
46043,240,4,1,0,100,1,0
46043,-76.9230769230769,4,1,0,100,0,1
46763,-133.333333333333,4,1,0,100,0,1
47963,480,4,1,0,60,1,0
47963,-58.8235294117647,4,1,0,60,0,0
63323,-100,4,2,0,60,0,0
94043,-100,4,2,0,68,0,1
108923,-100,4,1,0,60,0,0
109403,-100,4,1,0,60,0,1
122843,-100,4,2,0,68,0,0
124763,326.086956521739,4,1,0,75,1,0
135197,-100,4,1,0,75,0,0
145143,-76.9230769230769,4,1,0,75,0,0
166502,-125,4,1,0,75,0,0
171719,-100,4,1,0,50,0,0
175632,-117.647058823529,4,1,0,65,0,0
176284,-80,4,1,0,80,0,0
176936,-66.6666666666667,4,1,0,100,0,1
186067,-100,4,1,0,100,0,0
187371,-100,4,1,0,100,0,1
197806,480,4,1,0,100,1,0
213166,-66.6666666666667,4,2,0,100,0,0
241966,-100,4,1,0,100,0,1
245806,-100,4,1,0,100,0,0
246286,-100,4,1,0,100,0,1
260686,-100,4,1,0,100,0,0
261166,-100,4,1,0,100,0,1
276526,-100,4,1,0,100,0,0

[Colours]
Combo1 : 0,255,64
Combo2 : 0,128,192
Combo3 : 255,255,40
Combo4 : 187,187,187

[HitObjects]
316,312,17243,6,0,L|440:236,1,140,0|8,0:0|0:0,0:0:0:0:
435,238,18683,1,8,0:0:0:0:
168,336,19163,6,0,P|136:268|140:204,1,140,0|8,0:0|0:0,0:0:0:0:
139,204,20603,1,8,0:0:0:0:
368,280,21083,6,0,L|516:336,1,140,0|8,0:0|0:0,0:0:0:0:
498,329,22523,1,8,0:0:0:0:
416,144,23003,6,0,P|376:84|308:64,1,140,0|8,0:0|0:0,0:0:0:0:
313,63,24203,1,8,0:0:0:0:
416,144,24443,1,8,0:0:0:0:
232,300,24923,6,0,P|168:316|88:272,1,140,0|8,0:0|0:0,0:0:0:0:
52,148,25883,2,0,P|120:142|178:180,1,140,0|8,0:0|0:0,0:0:0:0:
177,179,26603,1,0,0:0:0:0:
244,260,26843,6,0,L|392:260,1,140,0|8,0:0|0:0,0:0:0:0:
304,180,27803,2,0,P|246:154|176:179,1,140,0|8,0:0|0:0,0:0:0:0:
177,178,28523,1,0,0:0:0:0:
304,180,28763,2,0,L|424:100,1,140,0|8,0:0|0:0,0:0:0:0:
348,264,29963,5,0,0:0:0:0:
228,332,30203,1,8,0:0:0:0:
244,192,30443,1,0,0:0:0:0:
298,325,30683,6,0,L|400:348,1,105
424,192,31043,2,0,L|348:264,1,105.000004005432
495,175,31403,2,0,P|466:133|416:120,1,105.000004005432
288,136,31883,1,8,0:0:0:0:
288,136,32123,1,8,0:0:0:0:
112,100,32603,6,0,L|48:4,1,105.000004005432
140,232,33083,1,8,0:0:0:0:
176,220,33203,1,0,0:0:0:0:
208,208,33323,1,0,0:0:0:0:
240,196,33443,1,0,0:0:0:0:
272,180,33563,2,0,L|248:63,1,105.000004005432
296,304,34043,5,8,0:0:0:0:
432,208,34283,1,0,0:0:0:0:
436,192,34363,1,0,0:0:0:0:
440,176,34443,1,0,0:0:0:0:
444,160,34523,2,0,L|472:56,1,105.000004005432
296,304,35003,5,8,0:0:0:0:
88,344,35243,2,0,P|26:316|12:240,1,105.000004005432
136,116,35723,1,8,0:0:0:0:
296,304,35963,1,8,0:0:0:0:
324,328,36083,1,0,0:0:0:0:
360,332,36203,1,0,0:0:0:0:
392,316,36323,1,0,0:0:0:0:
416,284,36443,6,0,B|424:204|424:204|376:232,1,105.000004005432
244,312,36923,1,8,0:0:0:0:
40,360,37163,1,0,0:0:0:0:
40,360,37283,1,0,0:0:0:0:
40,360,37403,2,0,B|5:295|64:232,1,105.000004005432
244,312,37883,1,8,0:0:0:0:
388,156,38123,1,0,0:0:0:0:
384,144,38203,1,0,0:0:0:0:
380,132,38283,1,0,0:0:0:0:
376,120,38363,6,0,B|344:80|280:92,1,105.000004005432
76,144,38843,2,0,P|108:196|172:220,1,105.000004005432,8|0,0:0|0:0,0:0:0:0:
145,216,39203,1,0,0:0:0:0:
145,216,39323,1,0,0:0:0:0:
352,252,39563,1,8,0:0:0:0:
176,368,39803,1,8,0:0:0:0:
288,168,40043,1,0,0:0:0:0:
284,156,40123,1,0,0:0:0:0:
276,144,40203,1,0,0:0:0:0:
268,132,40283,6,0,P|232:96|168:88,1,105.000004005432
340,52,40763,2,0,P|388:64|472:56,1,105.000004005432,8|0,0:0|0:0,0:0:0:0:
268,132,41243,2,0,P|232:176|224:232,1,105.000004005432
392,240,41723,2,0,P|424:192|432:128,1,105.000004005432,8|0,0:0|0:0,0:0:0:0:
428,132,42043,1,0,0:0:0:0:
420,116,42123,1,0,0:0:0:0:
408,100,42203,6,0,L|312:48,1,105.000004005432
144,172,42683,1,8,0:0:0:0:
244,356,42923,1,0,0:0:0:0:
244,356,43043,1,0,0:0:0:0:
243,355,43163,6,0,P|296:328|320:264,1,105.000004005432
300,76,43643,1,8,0:0:0:0:
240,276,43883,1,0,0:0:0:0:
328,160,44123,6,0,P|380:120|384:60,1,112
387,77,45403,5,0,0:0:0:0:
387,77,45483,1,0,0:0:0:0:
387,77,45563,2,0,L|384:156,1,74.6666666666667
344,228,46043,6,0,B|320:248|320:248|296:236|296:236|280:256|280:256|264:268|232:288|156:304,1,181.999991668702,4|0,0:0|0:0,0:0:0:0:
8,280,46403,6,0,B|32:260|32:260|56:272|56:272|72:252|72:252|88:240|120:220|196:204,1,181.999991668702,4|0,0:0|0:0,0:0:0:0:
388,77,46763,6,0,B|364:97|364:97|340:85|340:85|324:105|324:105|308:117|280:89|196:141,1,210.000008010865,4|0,0:0|0:0,0:0:0:0:
144,168,47363,5,0,0:0:0:0:
88,224,47483,2,0,P|56:236|36:260,1,52.5000020027161
104,300,47723,2,0,P|88:328|88:356,1,52.5000020027161
176,348,47963,6,0,P|252:360|300:296,1,119.000002269745,4|0,0:0|0:0,0:0:0:0:
303,313,48323,1,0,0:0:0:0:
316,293,48443,1,8,0:0:0:0:
414,144,48683,1,0,0:0:0:0:
414,144,48803,2,0,P|369:106|310:102,1,119.000002269745
294,116,49163,1,0,0:0:0:0:
461,54,49403,1,8,0:0:0:0:
232,56,49643,1,0,0:0:0:0:
232,56,49763,1,0,0:0:0:0:
231,55,49883,6,0,P|184:90|180:148,1,119.000002269745
336,164,50243,2,0,L|281:143,1,59.5000011348725,0|8,0:0|0:0,0:0:0:0:
120,80,50603,1,0,0:0:0:0:
120,80,50723,1,0,0:0:0:0:
12,292,50963,1,0,0:0:0:0:
12,292,51083,2,0,P|64:336|140:324,1,119.000002269745,0|8,0:0|0:0,0:0:0:0:
160,168,51563,2,0,L|104:232,1,59.5000011348725
160,280,51803,6,0,P|164:324|264:348,1,119.000002269745
256,360,52163,1,0,0:0:0:0:
288,340,52283,1,8,0:0:0:0:
424,144,52523,1,0,0:0:0:0:
424,144,52643,2,0,L|304:96,1,119.000002269745
380,80,53003,2,0,P|452:72|492:112,1,119.000002269745
372,312,53483,1,8,0:0:0:0:
212,152,53723,5,0,0:0:0:0:
212,152,53843,1,8,0:0:0:0:
316,336,54083,1,0,0:0:0:0:
316,336,54203,2,0,P|372:312|400:240,1,119.000002269745,8|0,0:0|0:0,0:0:0:0:
396,236,54563,1,0,0:0:0:0:
384,208,54683,1,8,0:0:0:0:
73,122,54923,2,0,L|100:176,1,59.5000011348725,8|8,0:0|0:0,0:0:0:0:
196,256,55163,2,0,L|176:200,1,59.5000011348725,8|0,0:0|0:0,0:0:0:0:
196,88,55403,2,0,L|156:132,1,59.5000011348725
120,240,55643,6,0,P|112:316|164:368,1,119.000002269745,4|0,0:0|0:0,0:0:0:0:
242,221,56003,2,0,P|242:185|226:161,1,59.5000011348725,0|8,0:0|0:0,0:0:0:0:
112,28,56363,1,0,0:0:0:0:
112,28,56483,2,0,P|72:52|48:156,1,119.000002269745
40,152,56843,1,0,0:0:0:0:
208,332,57083,2,0,P|238:276|240:212,1,119.000002269745,8|0,0:0|0:0,0:0:0:0:
296,58,57563,6,0,P|292:130|320:190,1,119.000002269745
472,332,58043,1,8,0:0:0:0:
260,224,58283,1,0,0:0:0:0:
260,224,58403,1,0,0:0:0:0:
260,224,58523,2,0,P|212:196|120:208,1,119.000002269745
297,58,59003,1,8,0:0:0:0:
448,188,59243,1,0,0:0:0:0:
268,127,59483,6,0,P|226:85|234:17,1,119.000002269745
227,29,59843,1,0,0:0:0:0:
227,29,59963,1,8,0:0:0:0:
372,268,60203,1,0,0:0:0:0:
372,268,60323,2,0,P|424:220|428:128,1,119.000002269745
404,88,60683,2,0,P|356:124|343:185,1,119.000002269745
436,340,61163,1,4,0:0:0:0:
343,179,61403,5,0,0:0:0:0:
216,60,61643,2,0,P|136:48|68:168,1,178.500003404617,8|0,0:0|0:0,0:0:0:0:
69,111,62123,1,0,0:0:0:0:
56,288,62363,2,0,P|152:264|185:187,1,178.500003404617,8|0,0:0|0:0,0:0:0:0:
240,128,62843,2,0,P|256:100|324:64,1,59.5000011348725
324,160,63083,2,0,P|336:192|332:260,1,59.5000011348725
356,232,155741,5,0,0:0:0:0:
356,196,155822,1,0,0:0:0:0:
344,160,155904,1,0,0:0:0:0:
320,132,155985,1,0,0:0:0:0:
288,112,156067,6,0,P|236:100|180:112,1,90.9999958343508,4|0,0:0|0:0,0:0:0:0:
148,229,156393,1,0,0:0:0:0:
288,112,156556,1,0,0:0:0:0:
235,236,156719,2,0,P|190:240|147:228,1,90.9999958343508,2|0,0:2|0:0,0:0:0:0:
344,161,157045,1,0,0:0:0:0:
230,325,157208,1,0,0:0:0:0:
195,148,157371,6,0,L|138:62,1,90.9999958343508,2|0,0:2|0:0,0:0:0:0:
148,229,157697,1,0,0:0:0:0:
230,325,157860,2,0,B|278:291|278:291|350:313|388:244,1,181.999991668702
308,146,158349,1,0,0:0:0:0:
316,115,158431,1,0,0:0:0:0:
333,88,158513,1,0,0:0:0:0:
361,75,158594,1,0,0:0:0:0:
392,69,158676,6,0,L|487:80,1,90.9999958343508,4|0,0:2|0:0,0:0:0:0:
500,214,159002,1,0,0:0:0:0:
383,142,159165,1,0,0:0:0:0:
268,72,159328,2,0,P|220:44|168:45,1,90.9999958343508,2|0,0:2|0:0,0:0:0:0:
53,106,159654,1,0,0:0:0:0:
144,208,159817,6,0,P|172:172|184:129,1,90.9999958343508
241,256,160143,2,0,P|213:291|201:335,2,90.9999958343508
312,139,160632,1,2,0:2:0:0:
377,258,160795,1,0,0:0:0:0:
241,256,160958,2,0,L|117:328,1,136.499993751526
183,291,161284,6,0,P|136:199|56:208,1,181.999991668702
100,276,161773,1,0,0:0:0:0:
241,257,161936,2,0,L|339:202,1,90.9999958343508,2|0,0:2|0:0,0:0:0:0:
195,155,162263,1,0,0:0:0:0:
100,276,162426,1,0,0:0:0:0:
195,155,162589,6,0,P|173:130|88:140,1,90.9999958343508,2|0,0:2|0:0,0:0:0:0:
246,74,162915,2,0,P|280:105|294:177,1,90.9999958343508
257,277,163241,1,2,0:2:0:0:
195,155,163404,1,0,0:0:0:0:
257,277,163567,1,0,0:0:0:0:
228,292,163648,1,0,0:0:0:0:
196,300,163730,1,0,0:0:0:0:
164,298,163811,1,0,0:0:0:0:
133,289,163893,6,0,L|105:189,1,90.9999958343508,4|0,0:2|0:0,0:0:0:0:
108,201,164219,1,0,0:0:0:0:
304,90,164545,1,2,0:2:0:0:
198,61,164708,1,0,0:0:0:0:
329,64,164871,2,0,P|305:150|228:194,1,181.999991668702
329,64,165523,6,0,L|475:125,1,136.499993751526
390,140,165849,2,0,P|434:211|414:316,1,181.999991668702
304,244,166502,6,0,P|228:216|192:136,1,168
390,268,167154,2,0,P|328:322|248:312,1,168,2|0,0:2|0:0,0:0:0:0:
248,312,167806,2,0,P|216:280|212:264,1,56
200,96,168295,1,0,0:0:0:0:
200,96,168377,1,0,0:0:0:0:
200,96,168458,6,0,P|240:56|308:48,1,112,2|0,0:2|0:0,0:0:0:0:
328,52,168947,1,0,0:0:0:0:
368,68,169110,2,0,P|380:120|352:168,1,112,4|0,0:2|0:0,0:0:0:0:
316,260,169599,1,0,0:0:0:0:
316,260,169763,2,0,B|328:240|328:240|400:252|436:168,1,112,2|0,0:2|0:0,0:0:0:0:
350,167,170252,2,0,L|320:120,1,56
316,260,170578,1,0,0:0:0:0:
88,268,170904,1,0,0:0:0:0:
88,268,170985,1,0,0:0:0:0:
88,268,171067,2,0,P|80:212|104:152,1,112
97,160,171719,6,0,L|140:92,1,70
184,192,172045,2,0,L|264:144,1,70
236,260,172371,2,0,L|324:260,1,70
252,348,172697,2,0,L|332:392,1,70
424,300,173023,6,0,L|464:300,3,35
400,236,173349,2,0,L|440:212,3,35
352,180,173676,2,0,L|372:144,3,35
280,160,174002,2,0,L|284:116,3,35
212,188,174328,6,0,L|176:216,1,35
156,144,174491,2,0,L|120:144,1,35
152,76,174654,2,0,L|100:56,1,35
196,28,174817,2,0,L|164:-12,1,35
260,32,174980,2,0,L|272:80,1,35
320,52,175143,2,0,L|336:88,1,35
376,80,175306,2,0,L|404:108,1,35
432,104,175469,2,0,L|464:120,1,35
492,132,175632,5,0,0:0:0:0:
501,160,175713,1,0,0:0:0:0:
501,189,175795,1,0,0:0:0:0:
487,216,175876,1,0,0:0:0:0:
465,235,175958,1,0,0:0:0:0:
441,252,176039,1,0,0:0:0:0:
428,278,176121,1,0,0:0:0:0:
415,305,176202,1,0,0:0:0:0:
400,332,176284,1,0,0:0:0:0:
381,371,176365,1,0,0:0:0:0:
354,362,176447,1,0,0:0:0:0:
319,336,176528,1,0,0:0:0:0:
279,318,176610,1,0,0:0:0:0:
237,306,176691,1,0,0:0:0:0:
194,302,176773,1,0,0:0:0:0:
150,310,176855,1,0,0:0:0:0:
111,327,176936,6,0,B|51:355|51:355|23:315|127:319|79:187,1,210.000008010865,4|0,0:0|0:0,0:0:0:0:
44,60,177426,1,0,0:0:0:0:
