osu file format v14

[General]
AudioFilename: Sincerity Nature Drastic Measures of Ignorance.mp3
AudioLeadIn: 0
PreviewTime: 47526
Countdown: 0
SampleSet: Normal
StackLeniency: 0.7
Mode: 0
LetterboxInBreaks: 1
WidescreenStoryboard: 1

[Editor]
Bookmarks: 57092
DistanceSpacing: 0.9
BeatDivisor: 4
GridSize: 4
TimelineZoom: 1.2

[Metadata]
Title:Sekishinsei: Kamatoto Araryouzi
TitleUnicode:赤心性:カマトト荒療治
Artist:Suzumu
ArtistUnicode:スズム
Creator:DoKito
Version:DoKo
Source:
Tags:kagamine len rin angelhoney vocaloid
BeatmapID:742016
BeatmapSetID:335186

[Difficulty]
HPDrainRate:6
CircleSize:4
OverallDifficulty:8
ApproachRate:10
SliderMultiplier:2.2
SliderTickRate:1

[Events]
//Background and Video events
0,0,"2000.jpg",0,0
//Break Periods
2,95195,99228
2,150805,155423
//Storyboard Layer 0 (Background)
//Storyboard Layer 1 (Fail)
//Storyboard Layer 2 (Pass)
//Storyboard Layer 3 (Foreground)
//Storyboard Sound Samples

[TimingPoints]
166,292.682926829268,4,1,1,70,1,0
12751,-66.6666666666667,4,1,1,70,0,0
13044,-100,4,1,1,70,0,0
22409,-133.333333333333,4,1,1,30,0,0
24165,-100,4,1,1,70,0,0
32946,-83.3333333333333,4,1,1,70,0,0
33531,-76.9230769230769,4,1,1,70,0,0
33824,-71.4285714285714,4,1,1,70,0,0
34117,-62.5,4,1,1,70,0,0
43483,-133.333333333333,4,1,1,25,0,0
44653,-133.333333333333,4,1,1,15,0,0
45678,-133.333333333333,4,1,1,80,0,0
45897,-133.333333333333,4,2,1,15,0,0
46702,-133.333333333333,4,2,1,80,0,0
46995,-133.333333333333,4,2,1,80,0,0
47580,-200,4,2,1,80,0,0
48165,-71.4285714285714,4,1,1,80,0,1
51678,-100,4,1,1,80,0,1
52556,-71.4285714285714,4,1,1,80,0,1
66897,-100,4,1,1,70,0,0
75092,-200,4,2,1,70,0,0
76263,-125,4,2,1,70,0,0
85629,-62.5,4,1,1,70,0,0
99678,-125,4,1,1,70,0,0
102019,-111.111111111111,4,1,1,70,0,0
102605,-90.9090909090909,4,1,1,70,0,0
102897,-83.3333333333333,4,1,1,70,0,0
103190,-76.9230769230769,4,1,1,70,0,0
104361,-71.4285714285714,4,1,1,80,0,1
107873,-100,4,1,1,80,0,1
108751,-83.3333333333333,4,1,1,80,0,1
109044,-71.4285714285714,4,1,1,80,0,1
113726,-100,4,1,1,80,0,1
114019,-71.4285714285714,4,1,1,80,0,1
117239,-100,4,1,1,80,0,1
118117,-83.3333333333333,4,1,1,80,0,1
118409,-71.4285714285714,4,1,1,80,0,1
121922,-100,4,1,1,80,0,1
123092,-100,4,1,1,70,0,0
132458,-100,4,1,1,70,0,0
135970,-83.3333333333333,4,1,1,70,0,0
136556,-71.4285714285714,4,1,1,70,0,0
137141,-100,4,1,1,70,0,0
140653,-83.3333333333333,4,1,1,70,0,0
141824,-100,4,1,1,70,0,0
145336,-83.3333333333333,4,1,1,70,0,0
145922,-71.4285714285714,4,1,1,70,0,0
146507,-100,4,1,1,70,0,0
155873,-83.3333333333333,4,1,1,80,0,0
163483,-76.9230769230769,4,1,1,80,0,0
164068,-71.4285714285714,4,1,1,80,0,0
165239,-100,4,1,1,80,0,0
165531,-71.4285714285714,4,1,1,80,0,0
172263,-62.5,4,1,1,80,0,0
173873,-83.3333333333333,4,1,1,70,0,0
174605,-133.333333333333,4,1,1,70,0,0
179287,-133.333333333333,4,1,1,20,0,0
181629,-100,4,1,1,50,0,0
182800,-100,4,1,1,5,0,0
183970,-76.9230769230769,4,1,1,25,0,0
185141,-62.5,4,1,1,80,0,1
188653,-83.3333333333333,4,1,1,80,0,1
189531,-71.4285714285714,4,1,1,80,0,1
189824,-62.5,4,1,1,80,0,1
194507,-100,4,1,1,80,0,1
194800,-76.9230769230769,4,1,1,80,0,1
195092,-62.5,4,1,1,80,0,1
198019,-83.3333333333333,4,1,1,80,0,1
198897,-71.4285714285714,4,1,1,80,0,1
199190,-62.5,4,1,1,80,0,1
203873,-100,4,1,1,70,0,0
206214,-83.3333333333333,4,1,1,70,0,0
213678,-71.4285714285714,4,1,1,70,0,0
214117,-62.5,4,1,1,70,0,0
222605,-62.5,4,1,1,70,0,0
223044,-55.5555555555556,4,1,1,70,0,0
223483,-50,4,1,1,70,0,0
224946,-100,4,1,1,70,0,0

[Colours]
Combo1 : 128,128,128
Combo2 : 250,169,61
Combo3 : 128,128,255
Combo4 : 128,255,0
Combo5 : 255,0,128

[HitObjects]
176,72,12605,5,0,0:0:0:0:
176,72,12678,1,0,0:0:0:0:
176,72,12751,1,0,0:0:0:0:
176,72,13044,6,0,P|192:136|168:184,1,110
88,248,13336,1,0,0:0:0:0:
192,280,13483,1,0,0:0:0:0:
256,368,13629,2,0,L|368:344,1,110
488,192,13922,1,0,0:0:0:0:
304,272,14068,2,0,L|280:160,1,110
248,16,14361,5,0,0:0:0:0:
192,184,14507,1,0,0:0:0:0:
344,64,14653,1,0,0:0:0:0:
160,88,14800,1,0,0:0:0:0:
344,160,14946,1,0,0:0:0:0:
344,160,15019,1,0,0:0:0:0:
344,160,15092,1,0,0:0:0:0:
248,16,15239,1,0,0:0:0:0:
160,88,15385,6,0,P|112:128|64:128,1,110
360,184,15678,2,0,P|408:224|456:224,1,110
136,280,15970,5,0,0:0:0:0:
360,184,16117,1,0,0:0:0:0:
160,88,16263,1,0,0:0:0:0:
328,8,16409,1,0,0:0:0:0:
384,88,16556,5,0,0:0:0:0:
360,184,16702,1,0,0:0:0:0:
336,232,16775,1,0,0:0:0:0:
288,264,16848,1,0,0:0:0:0:
232,272,16922,1,0,0:0:0:0:
184,248,16995,1,0,0:0:0:0:
152,200,17068,1,0,0:0:0:0:
144,144,17141,5,0,0:0:0:0:
256,176,17287,1,0,0:0:0:0:
232,272,17434,1,0,0:0:0:0:
144,336,17580,1,0,0:0:0:0:
32,320,17726,6,0,P|88:192|40:160,1,220
112,72,18165,2,0,B|168:112|192:168|192:168|224:128|272:128,1,220
472,104,18605,1,0,0:0:0:0:
272,216,18751,2,0,L|392:200,1,110
480,240,19044,5,0,0:0:0:0:
368,104,19190,1,0,0:0:0:0:
368,296,19336,1,0,0:0:0:0:
264,128,19483,1,0,0:0:0:0:
472,104,19629,1,0,0:0:0:0:
472,104,19702,1,0,0:0:0:0:
472,104,19775,1,0,0:0:0:0:
264,304,19922,1,0,0:0:0:0:
288,48,20068,6,0,P|232:48|192:88,1,110
336,192,20361,1,0,0:0:0:0:
120,72,20507,2,0,P|136:136|176:160,1,110
384,88,20800,1,0,0:0:0:0:
120,224,20946,2,0,P|184:240|232:216,1,110
424,168,21239,5,0,0:0:0:0:
256,24,21385,1,0,0:0:0:0:
168,312,21531,1,0,0:0:0:0:
360,232,21678,1,0,0:0:0:0:
208,104,21824,1,0,0:0:0:0:
288,352,21970,1,0,0:0:0:0:
320,136,22117,1,0,0:0:0:0:
96,136,22263,1,0,0:0:0:0:
208,280,22409,6,0,L|208:368,3,82.5000031471254
304,280,23287,6,0,L|304:368,3,82.5000031471254
256,192,24019,5,0,0:0:0:0:
208,88,24165,1,0,0:0:0:0:
176,136,24239,1,0,0:0:0:0:
144,184,24312,2,0,L|104:248,1,55
196,336,24458,2,0,L|212:280,1,55
300,283,24605,2,0,L|316:336,1,55
400,232,24751,5,0,0:0:0:0:
456,140,24897,1,0,0:0:0:0:
400,44,25044,2,0,P|284:24|252:112,1,220
280,208,25483,1,0,0:0:0:0:
244,312,25629,1,0,0:0:0:0:
136,328,25775,6,0,L|24:136,1,220
92,16,26214,2,0,L|148:112,1,110
256,280,26507,1,0,0:0:0:0:
360,96,26653,1,0,0:0:0:0:
152,96,26800,1,0,0:0:0:0:
256,292,26946,1,0,0:0:0:0:
352,212,27092,5,0,0:0:0:0:
360,96,27239,1,0,0:0:0:0:
260,140,27385,2,0,L|96:104,1,165
44,96,27678,2,0,P|92:132|84:232,1,165
48,268,27970,1,0,0:0:0:0:
144,320,28117,2,0,L|368:356,1,220
472,372,28556,5,0,0:0:0:0:
432,124,28702,1,0,0:0:0:0:
256,264,28848,1,0,0:0:0:0:
496,208,28995,1,0,0:0:0:0:
264,176,29141,1,0,0:0:0:0:
452,284,29287,1,0,0:0:0:0:
316,104,29434,6,0,P|264:88|208:112,1,110
148,196,29726,2,0,L|40:216,1,110
108,304,30019,2,0,B|224:280|224:280|328:308,1,220
432,304,30458,2,0,P|468:196|404:124,1,220
300,92,30897,5,0,0:0:0:0:
100,84,31044,1,0,0:0:0:0:
192,248,31190,1,0,0:0:0:0:
232,32,31336,1,0,0:0:0:0:
236,264,31483,1,0,0:0:0:0:
188,48,31629,1,0,0:0:0:0:
312,180,31775,6,0,P|368:152|388:104,1,110
472,44,32068,2,0,L|504:156,1,110
428,232,32361,2,0,L|396:344,1,110
292,364,32653,1,0,0:0:0:0:
180,356,32800,1,0,0:0:0:0:
64,344,32946,6,0,B|44:240|44:240|108:204|108:204|92:120,1,263.99999194336
172,12,33385,1,0,0:0:0:0:
296,100,33531,6,0,P|380:140|480:80,1,214.49999018097
504,12,33824,6,0,L|508:168,1,153.999995300293
388,296,34117,5,0,0:0:0:0:
316,324,34190,1,0,0:0:0:0:
236,320,34263,1,0,0:0:0:0:
168,276,34336,1,0,0:0:0:0:
140,200,34409,2,0,P|136:112|80:48,1,176
240,48,34702,6,0,L|328:64,1,88
356,136,34848,2,0,L|444:152,1,88
488,220,34995,2,0,P|500:308|440:360,1,176
300,284,35287,5,0,0:0:0:0:
232,244,35361,1,0,0:0:0:0:
164,204,35434,1,0,0:0:0:0:
100,248,35507,1,0,0:0:0:0:
32,292,35580,2,0,B|28:204|28:204|40:112,1,176
184,56,35873,6,0,P|300:56|360:104,1,176
328,328,36165,2,0,P|212:328|152:280,1,176
272,88,36458,5,0,0:0:0:0:
336,44,36531,1,0,0:0:0:0:
416,40,36605,1,0,0:0:0:0:
484,80,36678,1,0,0:0:0:0:
500,156,36751,2,0,P|492:240|508:332,1,176
348,336,37044,6,0,L|252:348,1,88
84,272,37190,2,0,L|180:260,1,88
376,296,37336,2,0,P|280:300|240:240,1,176
244,80,37629,5,0,0:0:0:0:
192,140,37702,1,0,0:0:0:0:
144,200,37775,1,0,0:0:0:0:
88,256,37848,1,0,0:0:0:0:
32,316,37922,2,0,P|136:324|180:380,1,176
336,368,38214,5,0,0:0:0:0:
464,108,38361,1,0,0:0:0:0:
128,136,38507,1,0,0:0:0:0:
448,288,38653,1,0,0:0:0:0:
116,340,38800,5,0,0:0:0:0:
52,296,38873,1,0,0:0:0:0:
40,216,38946,1,0,0:0:0:0:
68,144,39019,1,0,0:0:0:0:
140,108,39092,2,0,P|232:72|256:0,1,176
404,68,39385,6,0,L|448:160,1,88
328,180,39531,2,0,L|284:272,1,88
384,308,39678,2,0,P|314:377|243:369,1,176
116,276,39970,6,0,L|168:108,1,176
412,36,40263,2,0,L|360:204,1,176
260,344,40556,5,0,0:0:0:0:
280,60,40702,1,0,0:0:0:0:
260,344,40848,1,0,0:0:0:0:
280,60,40994,1,0,0:0:0:0:
260,344,41141,5,0,0:0:0:0:
184,368,41214,1,0,0:0:0:0:
108,344,41287,1,0,0:0:0:0:
64,276,41361,1,0,0:0:0:0:
72,196,41434,2,0,L|108:112,1,88
244,36,41580,2,0,L|280:120,1,88
316,188,41726,5,0,0:0:0:0:
392,220,41800,1,0,0:0:0:0:
468,192,41873,1,0,0:0:0:0:
496,116,41946,1,0,0:0:0:0:
468,40,42019,2,0,L|380:0,1,88
278,116,42165,2,0,L|190:156,1,88
120,184,42312,5,0,0:0:0:0:
304,352,42458,1,0,0:0:0:0:
396,124,42605,1,0,0:0:0:0:
135,255,42751,1,0,0:0:0:0:
379,304,42897,5,0,0:0:0:0:
340,61,43044,1,0,0:0:0:0:
132,79,43190,1,0,0:0:0:0:
171,322,43337,1,0,0:0:0:0:
256,192,43483,2,0,P|276:152|268:108,7,82.5000031471254
256,192,44653,2,0,P|236:232|244:276,6,82.5000031471254
256,192,45678,5,0,0:0:0:0:
256,192,45824,2,0,P|276:152|268:108,6,82.5000031471254
256,192,46848,5,0,0:0:0:0:
256,312,46995,1,0,0:0:0:0:
48,248,47214,5,0,0:0:0:0:
48,248,47287,2,0,P|32:168|48:120,1,123.750004720688
68,100,47580,6,0,P|136:112|176:72,1,110
224,24,48165,5,0,0:0:0:0:
360,52,48312,1,0,0:0:0:0:
384,116,48385,1,0,0:0:0:0:
412,180,48458,1,0,0:0:0:0:
228,336,48605,1,0,0:0:0:0:
132,208,48751,1,0,0:0:0:0:
300,200,48897,2,0,P|376:192|432:136,1,153.999995300293
316,64,49190,5,0,0:0:0:0:
204,352,49336,1,0,0:0:0:0:
136,72,49483,1,0,0:0:0:0:
460,192,49629,1,0,0:0:0:0:
92,224,49775,1,0,0:0:0:0:
460,192,49922,2,0,P|472:272|292:312,1,307.999990600586
208,204,50361,1,0,0:0:0:0:
80,156,50507,6,0,P|44:232|80:300,1,153.999995300293
364,160,50800,2,0,P|400:84|364:16,1,153.999995300293
236,8,51092,1,0,0:0:0:0:
212,144,51239,1,0,0:0:0:0:
212,144,51312,1,0,0:0:0:0:
212,144,51385,1,0,0:0:0:0:
264,272,51531,1,0,0:0:0:0:
376,268,51678,6,0,B|424:268|452:236|452:236|516:288,1,165
496,176,51970,2,0,L|376:56,1,165
328,112,52263,2,0,P|268:132|172:72,1,165
120,56,52556,1,0,0:0:0:0:
52,76,52629,1,0,0:0:0:0:
28,140,52702,1,0,0:0:0:0:
44,208,52775,1,0,0:0:0:0:
104,240,52848,6,0,L|240:312,2,153.999995300293
256,64,53287,1,0,0:0:0:0:
496,192,53434,2,0,L|360:264,2,153.999995300293
436,48,53873,1,0,0:0:0:0:
356,352,54019,1,0,0:0:0:0:
256,152,54165,1,0,0:0:0:0:
492,312,54312,1,0,0:0:0:0:
336,72,54458,1,0,0:0:0:0:
220,312,54605,2,0,P|140:340|52:172,1,307.999990600586
120,60,55044,5,0,0:0:0:0:
256,152,55190,1,0,0:0:0:0:
256,152,55336,1,0,0:0:0:0:
392,60,55483,1,0,0:0:0:0:
392,60,55629,1,0,0:0:0:0:
104,52,55775,5,0,0:0:0:0:
256,168,55922,1,0,0:0:0:0:
408,52,56068,1,0,0:0:0:0:
172,108,56214,1,0,0:0:0:0:
384,172,56361,5,0,0:0:0:0:
424,228,56434,1,0,0:0:0:0:
428,296,56507,2,0,L|416:372,1,76.9999976501466
272,348,56653,1,0,0:0:0:0:
204,356,56726,1,0,0:0:0:0:
136,364,56800,2,0,L|60:372,1,76.9999976501466
8,216,56946,2,0,L|84:208,1,76.9999976501466
296,240,57092,2,0,L|220:248,1,76.9999976501466
168,104,57238,2,0,L|244:96,3,76.9999976501466
304,128,57531,6,0,P|412:136|468:40,1,230.99999295044
488,108,57824,2,0,L|512:264,1,153.999995300293
416,360,58117,1,0,0:0:0:0:
368,232,58263,1,0,0:0:0:0:
368,232,58336,1,0,0:0:0:0:
368,232,58409,2,0,P|296:196|224:216,1,153.999995300293
288,340,58702,5,0,0:0:0:0:
396,72,58848,1,0,0:0:0:0:
104,120,58995,1,0,0:0:0:0:
292,360,59141,1,0,0:0:0:0:
404,56,59287,1,0,0:0:0:0:
88,112,59434,1,0,0:0:0:0:
88,112,59507,1,0,0:0:0:0:
88,112,59580,1,0,0:0:0:0:
260,192,59726,5,0,0:0:0:0:
416,32,59873,2,0,P|492:36|532:108,1,153.999995300293
296,268,60165,2,0,P|220:264|180:192,1,153.999995300293
264,24,60458,1,0,0:0:0:0:
392,208,60605,1,0,0:0:0:0:
416,272,60678,1,0,0:0:0:0:
396,336,60751,1,0,0:0:0:0:
184,360,60897,1,0,0:0:0:0:
72,200,61044,6,0,P|80:80|176:84,1,230.99999295044
184,148,61336,2,0,B|256:240|256:240|328:148,1,230.99999295044
343,78,61629,2,0,P|447:95|440:200,1,230.99999295044
404,260,61922,1,0,0:0:0:0:
380,324,61995,1,0,0:0:0:0:
324,360,62068,1,0,0:0:0:0:
256,352,62141,1,0,0:0:0:0:
212,296,62214,6,0,P|152:248|76:256,2,153.999995300293
112,376,62653,1,0,0:0:0:0:
68,164,62800,2,0,L|36:12,2,153.999995300293
88,268,63239,1,0,0:0:0:0:
208,48,63385,1,0,0:0:0:0:
308,272,63531,1,0,0:0:0:0:
392,96,63678,1,0,0:0:0:0:
248,344,63824,1,0,0:0:0:0:
101,105,63970,2,0,B|241:49|241:49|397:97,1,307.999990600586
512,192,64409,5,0,0:0:0:0:
364,352,64556,2,0,L|260:372,2,102.666663533529
332,272,64848,2,0,P|368:184|424:160,1,153.999995300293
256,100,65141,1,0,0:0:0:0:
204,272,65287,1,0,0:0:0:0:
204,272,65361,1,0,0:0:0:0:
204,272,65434,1,0,0:0:0:0:
132,152,65580,1,0,0:0:0:0:
24,76,65726,5,0,0:0:0:0:
488,76,65873,1,0,0:0:0:0:
488,76,66897,6,0,P|504:152|396:228,1,220
304,200,67336,2,0,P|232:192|192:216,1,110
388,356,67629,1,0,0:0:0:0:
456,284,67775,1,0,0:0:0:0:
444,184,67922,2,0,L|412:76,1,110
112,40,68214,5,0,0:0:0:0:
340,136,68361,1,0,0:0:0:0:
80,212,68507,1,0,0:0:0:0:
248,32,68653,1,0,0:0:0:0:
280,264,68800,1,0,0:0:0:0:
312,300,68873,1,0,0:0:0:0:
360,316,68946,1,0,0:0:0:0:
452,280,69092,1,0,0:0:0:0:
396,196,69239,6,0,L|368:76,1,110
140,88,69531,2,0,L|116:196,1,110
256,360,69824,1,0,0:0:0:0:
256,360,69970,1,0,0:0:0:0:
256,160,70117,1,0,0:0:0:0:
256,160,70263,1,0,0:0:0:0:
376,264,70409,5,0,0:0:0:0:
468,228,70556,1,0,0:0:0:0:
492,184,70629,1,0,0:0:0:0:
496,136,70702,1,0,0:0:0:0:
488,88,70775,1,0,0:0:0:0:
460,48,70848,2,0,L|412:8,1,55
340,24,70995,1,0,0:0:0:0:
192,200,71141,5,0,0:0:0:0:
320,200,71287,1,0,0:0:0:0:
180,200,71434,1,0,0:0:0:0:
332,200,71580,6,0,P|400:216|460:96,1,220
376,52,72019,2,0,B|276:24|276:24|160:52,1,220
72,92,72458,1,0,0:0:0:0:
140,164,72605,2,0,P|144:220|104:268,1,110
28,308,72897,1,0,0:0:0:0:
108,364,73044,1,0,0:0:0:0:
208,368,73190,1,0,0:0:0:0:
284,304,73336,1,0,0:0:0:0:
292,204,73483,1,0,0:0:0:0:
292,204,73556,1,0,0:0:0:0:
292,204,73629,1,0,0:0:0:0:
340,116,73775,1,0,0:0:0:0:
436,96,73922,6,0,L|548:120,1,110
396,312,74214,1,0,0:0:0:0:
256,92,74361,2,0,L|368:116,1,110
216,308,74653,1,0,0:0:0:0:
72,96,74800,2,0,L|184:120,1,110
32,312,75092,6,0,L|32:372,5,55
112,348,75970,2,0,L|112:372,6,13.75
196,368,76263,6,0,P|232:376|288:360,1,88
340,312,76556,2,0,L|404:140,1,176
401,147,77287,2,0,B|324:120|324:120|288:32,1,176
212,48,77726,1,0,0:0:0:0:
212,48,77873,1,0,0:0:0:0:
200,128,78019,1,0,0:0:0:0:
200,128,78165,1,0,0:0:0:0:
136,80,78312,2,0,P|84:76|44:96,1,88
51,89,78897,6,0,L|72:236,1,132
108,228,79190,2,0,L|129:375,1,132
164,376,79483,1,0,0:0:0:0:
224,324,79629,2,0,P|276:300|344:328,1,132
380,316,79922,2,0,L|420:232,1,88
312,184,80214,2,0,L|352:100,1,88
220,104,80507,2,0,L|228:56,1,44
144,124,80653,2,0,L|152:76,1,44
68,148,80800,2,0,L|76:100,1,44
8,192,80946,6,0,P|8:268|88:312,1,176
256,256,81531,1,0,0:0:0:0:
423,311,81824,1,0,0:0:0:0:
423,311,81970,2,0,L|476:132,1,176
432,16,82409,1,0,0:0:0:0:
328,128,82556,1,0,0:0:0:0:
500,64,82702,1,0,0:0:0:0:
500,64,82848,1,0,0:0:0:0:
256,80,82995,2,0,P|240:128|252:176,1,88
246,163,83580,6,0,L|98:183,1,132
80,204,83873,2,0,P|60:256|92:332,1,132
108,356,84165,1,0,0:0:0:0:
176,312,84312,2,0,P|228:296|268:300,1,88
336,324,84605,1,0,0:0:0:0:
376,256,84751,1,0,0:0:0:0:
416,188,84897,1,0,0:0:0:0:
456,120,85044,2,0,P|400:48|324:60,1,176
324,59,85629,6,0,L|148:83,1,176
28,256,85922,1,0,0:0:0:0:
28,256,86068,1,0,0:0:0:0:
200,356,86214,1,0,0:0:0:0:
280,360,86287,1,0,0:0:0:0:
352,328,86361,1,0,0:0:0:0:
400,264,86434,1,0,0:0:0:0:
412,188,86507,2,0,P|404:116|472:40,1,176
308,52,86800,6,0,L|216:64,1,88
16,144,86946,2,0,L|108:156,1,88
260,208,87092,2,0,B|320:272|320:272|416:296,1,176
452,64,87385,1,0,0:0:0:0:
60,64,87531,1,0,0:0:0:0:
424,144,87678,1,0,0:0:0:0:
88,144,87824,1,0,0:0:0:0:
252,344,87970,5,0,0:0:0:0:
256,72,88117,1,0,0:0:0:0:
256,72,88190,1,0,0:0:0:0:
256,72,88263,2,0,P|332:28|408:72,1,176
456,216,88556,2,0,L|380:380,1,176
130,375,88848,2,0,L|56:216,1,176
204,32,89141,5,0,0:0:0:0:
224,108,89214,1,0,0:0:0:0:
248,184,89287,1,0,0:0:0:0:
328,184,89361,1,0,0:0:0:0:
408,184,89434,2,0,L|472:352,1,176
256,368,89726,5,0,0:0:0:0:
440,52,89873,1,0,0:0:0:0:
72,52,90019,1,0,0:0:0:0:
72,52,90165,1,0,0:0:0:0:
72,52,90312,5,0,0:0:0:0:
36,124,90385,1,0,0:0:0:0:
44,204,90458,1,0,0:0:0:0:
88,268,90531,1,0,0:0:0:0:
160,300,90605,2,0,B|256:288|256:288|344:320,1,176
512,376,90897,1,0,0:0:0:0:
500,300,90970,1,0,0:0:0:0:
488,224,91043,1,0,0:0:0:0:
476,148,91116,1,0,0:0:0:0:
464,72,91190,2,0,P|380:24|308:56,1,176
308,232,91483,6,0,L|152:324,1,176
76,320,91702,1,0,0:0:0:0:
32,256,91775,2,0,B|12:168|12:168|28:84,1,176
180,32,92068,1,0,0:0:0:0:
464,72,92214,1,0,0:0:0:0:
308,232,92361,1,0,0:0:0:0:
24,272,92507,1,0,0:0:0:0:
272,320,92653,6,0,P|360:312|404:236,1,176
400,164,92873,1,0,0:0:0:0:
432,92,92946,2,0,L|264:36,1,176
20,108,93239,2,0,L|116:132,1,88
140,200,93385,2,0,L|236:224,1,88
272,288,93531,2,0,P|356:316|448:280,1,176
480,136,93824,5,0,0:0:0:0:
372,20,93970,1,0,0:0:0:0:
256,128,94117,1,0,0:0:0:0:
140,20,94263,1,0,0:0:0:0:
32,136,94409,2,0,B|60:224|60:224|24:260|16:360|108:408|184:360,1,352
488,300,94995,5,0,0:0:0:0:
320,324,99678,5,0,0:0:0:0:
320,324,99970,1,0,0:0:0:0:
368,260,100117,2,0,L|384:168,1,88
232,48,100556,1,0,0:0:0:0:
52,152,100848,5,0,0:0:0:0:
52,152,101141,1,0,0:0:0:0:
92,220,101287,2,0,P|100:268|84:308,1,88
256,356,101726,1,0,0:0:0:0:
256,356,102019,6,0,P|312:360|372:164,1,296.99999093628
320,84,102605,6,0,L|192:48,1,121.000003692627
20,200,102897,2,0,L|148:164,1,121.000003692627
256,280,103190,6,0,L|352:280,2,95.3333289693199
384,212,103483,2,0,L|480:212,2,95.3333289693199
336,148,103775,6,0,P|260:80|128:172,1,285.99998690796
256,360,104361,5,0,0:0:0:0:
392,344,104507,1,0,0:0:0:0:
444,300,104580,1,0,0:0:0:0:
460,232,104653,1,0,0:0:0:0:
436,96,104800,1,0,0:0:0:0:
324,176,104946,2,0,P|232:200|176:160,2,153.999995300293
256,52,105385,5,0,0:0:0:0:
120,304,105531,1,0,0:0:0:0:
348,84,105678,1,0,0:0:0:0:
256,308,105824,1,0,0:0:0:0:
164,84,105970,1,0,0:0:0:0:
392,304,106117,2,0,P|464:276|416:84,1,307.999990600586
296,56,106556,5,0,0:0:0:0:
176,124,106702,2,0,B|104:152|104:152|24:128,1,153.999995300293
240,8,106995,2,0,P|300:64|296:144,1,153.999995300293
176,320,107287,1,0,0:0:0:0:
396,228,107434,1,0,0:0:0:0:
104,184,107580,1,0,0:0:0:0:
88,116,107653,1,0,0:0:0:0:
116,52,107726,1,0,0:0:0:0:
180,24,107800,1,0,0:0:0:0:
248,40,107873,6,0,B|304:56|304:56|416:36,1,165
408,112,108165,2,0,P|380:172|432:256,1,165
368,304,108458,2,0,L|352:364,3,55
304,244,108751,2,0,L|284:312,3,65.9999979858399
252,176,109044,6,0,P|176:192|112:140,2,153.999995300293
388,16,109483,1,0,0:0:0:0:
412,240,109629,2,0,B|424:312|424:312|480:372,2,153.999995300293
388,16,110068,5,0,0:0:0:0:
252,176,110214,1,0,0:0:0:0:
468,72,110361,1,0,0:0:0:0:
208,88,110507,1,0,0:0:0:0:
476,176,110653,2,0,P|496:252|460:324,1,153.999995300293
404,348,110873,1,0,0:0:0:0:
336,344,110946,1,0,0:0:0:0:
284,296,111019,1,0,0:0:0:0:
216,316,111092,2,0,L|136:340,1,76.9999976501466
16,236,111239,2,0,L|96:212,1,76.9999976501466
248,336,111385,6,0,P|172:360|128:292,1,153.999995300293
264,47,111678,2,0,P|331:21|382:73,1,153.999995300293
196,276,111970,1,0,0:0:0:0:
392,160,112117,1,0,0:0:0:0:
196,108,112263,2,0,L|44:64,1,153.999995300293
48,319,112556,5,0,0:0:0:0:
116,300,112629,1,0,0:0:0:0:
184,280,112702,2,0,L|260:256,1,76.9999976501466
464,204,112848,1,0,0:0:0:0:
396,185,112921,1,0,0:0:0:0:
328,165,112994,2,0,L|252:141,1,76.9999976501466
52,92,113141,5,0,0:0:0:0:
120,73,113214,1,0,0:0:0:0:
188,53,113287,2,0,L|264:29,1,76.9999976501466
460,24,113434,1,0,0:0:0:0:
488,88,113507,1,0,0:0:0:0:
488,156,113580,1,0,0:0:0:0:
464,220,113653,1,0,0:0:0:0:
412,264,113726,6,0,P|348:276|300:364,1,165
228,356,114019,6,0,L|144:216,1,153.999995300293
88,88,114312,1,0,0:0:0:0:
260,100,114458,1,0,0:0:0:0:
260,100,114531,1,0,0:0:0:0:
260,100,114605,1,0,0:0:0:0:
424,88,114751,5,0,0:0:0:0:
256,280,114897,1,0,0:0:0:0:
88,88,115044,1,0,0:0:0:0:
344,24,115190,1,0,0:0:0:0:
136,164,115336,1,0,0:0:0:0:
344,304,115483,2,0,P|424:292|460:228,1,153.999995300293
440,96,115775,1,0,0:0:0:0:
304,132,115922,5,0,0:0:0:0:
200,44,116068,2,0,P|108:32|64:80,1,153.999995300293
52,136,116287,1,0,0:0:0:0:
76,204,116361,2,0,B|108:276|108:276|84:348,1,153.999995300293
148,372,116580,1,0,0:0:0:0:
212,348,116653,2,0,L|368:320,1,153.999995300293
472,236,116946,1,0,0:0:0:0:
412,112,117092,1,0,0:0:0:0:
280,64,117239,6,0,B|200:88|200:88|116:88,1,165
104,160,117531,2,0,L|168:320,1,165
240,312,117824,2,0,L|284:352,3,55
348,312,118117,2,0,L|412:332,3,65.9999979858399
464,280,118409,6,0,P|436:200|464:136,2,153.999995300293
256,80,118848,1,0,0:0:0:0:
50,139,118995,2,0,P|76:210|48:280,2,153.999995300293
64,16,119434,5,0,0:0:0:0:
220,232,119580,1,0,0:0:0:0:
164,20,119726,1,0,0:0:0:0:
52,140,119873,1,0,0:0:0:0:
148,260,120019,1,0,0:0:0:0:
256,80,120165,2,0,P|328:52|456:208,1,307.999990600586
452,272,120531,5,0,0:0:0:0:
420,336,120605,1,0,0:0:0:0:
356,360,120678,1,0,0:0:0:0:
288,352,120751,2,0,L|200:332,1,76.9999976501466
168,284,120897,2,0,L|80:264,1,76.9999976501466
16,160,121044,2,0,L|104:140,1,76.9999976501466
136,92,121190,2,0,L|224:72,1,76.9999976501466
348,40,121336,2,0,P|424:152|556:84,1,307.999990600586
456,52,121775,5,0,0:0:0:0:
376,184,121922,2,0,P|332:232|352:328,1,165
288,364,122214,2,0,B|252:300|252:300|160:268,1,165
92,266,122507,2,0,L|120:48,1,220
124,32,123092,5,0,0:0:0:0:
124,32,124263,2,0,L|136:72,1,27.5
380,58,125141,6,0,L|388:32,6,27.5
396,128,125434,1,0,0:0:0:0:
396,128,126605,6,0,L|380:172,1,27.5
256,352,127336,5,0,0:0:0:0:
208,264,127483,1,0,0:0:0:0:
120,224,127629,1,0,0:0:0:0:
24,240,127775,2,0,P|4:120|256:72,1,440
258,69,128946,2,0,P|455:43|488:240,1,440
488,240,130117,6,0,B|380:260|340:300|340:300|316:368,1,220
191,354,130702,2,0,B|172:300|172:300|132:260|24:240,1,220
120,124,131287,6,0,P|128:60|168:28,1,110
352,31,131580,2,0,P|389:70|392:124,1,110
256,280,131873,2,0,L|256:60,1,220
256,60,132312,1,0,0:0:0:0:
256,60,132458,6,0,L|420:36,1,165
468,28,132751,1,0,0:0:0:0:
436,120,132897,1,0,0:0:0:0:
456,216,133044,1,0,0:0:0:0:
456,216,133190,1,0,0:0:0:0:
456,216,133336,2,0,P|404:268|360:264,1,110
296,224,133629,2,0,B|192:180|192:180|124:188,1,165
76,204,133922,1,0,0:0:0:0:
28,116,134068,1,0,0:0:0:0:
64,24,134214,2,0,L|176:4,1,110
264,44,134507,2,0,P|280:104|372:120,1,165
420,104,134800,5,0,0:0:0:0:
480,180,134946,1,0,0:0:0:0:
480,180,135019,1,0,0:0:0:0:
480,180,135092,2,0,L|480:300,1,110
384,292,135385,1,0,0:0:0:0:
128,292,135531,1,0,0:0:0:0:
344,200,135678,1,0,0:0:0:0:
184,368,135824,1,0,0:0:0:0:
160,184,135970,6,0,P|132:120|160:60,1,131.99999597168
392,140,136263,2,0,P|420:204|392:264,1,131.99999597168
136,176,136556,6,0,P|108:112|144:32,1,153.999995300293
416,148,136848,2,0,P|444:212|408:292,1,153.999995300293
120,264,137141,6,0,P|56:260|24:168,1,165
52,136,137434,2,0,B|80:84|80:84|72:32,1,110
168,52,137726,1,0,0:0:0:0:
260,96,137873,1,0,0:0:0:0:
356,76,138019,1,0,0:0:0:0:
424,4,138165,1,0,0:0:0:0:
460,96,138312,2,0,B|436:188|436:188|448:268,1,165
452,308,138605,2,0,P|408:352|360:348,1,110
160,236,138897,1,0,0:0:0:0:
368,264,139044,1,0,0:0:0:0:
120,312,139190,2,0,P|80:264|108:168,1,165
144,140,139483,5,0,0:0:0:0:
252,24,139629,1,0,0:0:0:0:
300,40,139702,1,0,0:0:0:0:
348,56,139775,2,0,L|456:88,1,110
484,232,140068,1,0,0:0:0:0:
404,288,140214,1,0,0:0:0:0:
272,152,140361,1,0,0:0:0:0:
476,308,140507,1,0,0:0:0:0:
248,312,140653,6,0,P|172:236|204:156,1,197.99999395752
240,120,140946,2,0,B|296:80|296:80|372:104|424:52,1,197.99999395752
420,120,141239,2,0,L|448:252,1,131.99999597168
472,352,141531,1,0,0:0:0:0:
472,352,141678,1,0,0:0:0:0:
472,352,141824,6,0,B|384:336|384:336|304:348,1,165
260,356,142117,1,0,0:0:0:0:
160,368,142263,1,0,0:0:0:0:
76,312,142409,2,0,L|48:204,1,110
152,28,142702,2,0,L|180:136,1,110
260,328,142995,2,0,P|264:240|320:192,1,165
364,176,143287,1,0,0:0:0:0:
464,160,143434,1,0,0:0:0:0:
404,84,143580,2,0,L|300:40,1,110
128,100,143873,2,0,P|184:128|216:228,1,165
212,268,144165,5,0,0:0:0:0:
284,336,144312,1,0,0:0:0:0:
284,336,144385,1,0,0:0:0:0:
284,336,144458,2,0,P|348:352|388:336,1,110
476,144,144751,1,0,0:0:0:0:
336,264,144897,1,0,0:0:0:0:
264,60,145044,1,0,0:0:0:0:
488,228,145190,1,0,0:0:0:0:
200,120,145336,6,0,P|136:144|116:204,1,131.99999597168
332,344,145629,2,0,P|396:320|416:260,1,131.99999597168
48,144,145922,6,0,P|40:224|92:296,1,153.999995300293
464,240,146214,2,0,P|472:160|420:88,1,153.999995300293
256,84,146507,6,0,B|200:100|200:100|88:64,1,165
52,52,146800,1,0,0:0:0:0:
24,148,146946,1,0,0:0:0:0:
72,232,147092,2,0,P|88:288|72:344,1,110
172,364,147385,1,0,0:0:0:0:
172,364,147678,2,0,L|344:316,1,165
380,308,147970,1,0,0:0:0:0:
456,244,148117,1,0,0:0:0:0:
476,148,148263,1,0,0:0:0:0:
296,36,148409,1,0,0:0:0:0:
392,176,148556,1,0,0:0:0:0:
392,176,148848,5,0,0:0:0:0:
256,284,148995,1,0,0:0:0:0:
256,284,149068,1,0,0:0:0:0:
256,284,149141,2,0,P|196:296|148:272,1,110
48,68,149434,1,0,0:0:0:0:
212,212,149580,1,0,0:0:0:0:
12,328,149726,1,0,0:0:0:0:
168,64,149873,1,0,0:0:0:0:
304,352,150019,6,0,L|376:368,2,73.3333333333333
380,284,150312,2,0,L|452:300,2,73.3333333333333
372,188,150605,1,0,0:0:0:0:
160,200,155873,6,0,P|136:136|160:72,1,131.99999597168
372,124,156165,1,0,0:0:0:0:
232,272,156312,2,0,P|160:304|92:276,1,131.99999597168
32,80,156605,1,0,0:0:0:0:
260,172,156751,2,0,P|316:208|340:268,1,131.99999597168
160,360,157044,1,0,0:0:0:0:
40,200,157190,6,0,L|92:72,2,131.99999597168
192,148,157629,2,0,L|244:20,2,131.99999597168
472,184,158068,2,0,L|420:312,2,131.99999597168
320,236,158507,2,0,L|268:364,2,131.99999597168
392,76,158946,2,0,P|304:24|160:160,1,329.9999899292
172,216,159385,5,0,0:0:0:0:
160,276,159458,1,0,0:0:0:0:
112,312,159531,1,0,0:0:0:0:
52,304,159605,1,0,0:0:0:0:
16,260,159678,2,0,L|0:188,3,65.9999979858399
80,176,159970,2,0,L|64:104,3,65.9999979858399
148,104,160263,2,0,L|132:32,3,65.9999979858399
228,68,160556,5,0,0:0:0:0:
282,44,160629,1,0,0:0:0:0:
341,40,160702,1,0,0:0:0:0:
397,57,160775,1,0,0:0:0:0:
441,96,160848,1,0,0:0:0:0:
464,151,160922,1,0,0:0:0:0:
461,210,160995,1,0,0:0:0:0:
446,267,161068,1,0,0:0:0:0:
401,306,161141,5,0,0:0:0:0:
349,276,161214,1,0,0:0:0:0:
297,245,161287,1,0,0:0:0:0:
245,214,161361,1,0,0:0:0:0:
193,184,161434,1,0,0:0:0:0:
189,243,161507,1,0,0:0:0:0:
156,292,161580,1,0,0:0:0:0:
101,314,161653,1,0,0:0:0:0:
41,316,161726,6,0,L|21:249,1,65.9999979858399
102,177,161873,2,0,L|122:110,1,65.9999979858399
244,36,162019,2,0,L|262:99,1,65.9999979858399
301,269,162165,2,0,L|321:202,1,65.9999979858399
385,56,162312,5,0,0:0:0:0:
441,75,162385,1,0,0:0:0:0:
473,124,162458,1,0,0:0:0:0:
482,182,162531,1,0,0:0:0:0:
465,239,162605,1,0,0:0:0:0:
419,276,162678,1,0,0:0:0:0:
367,304,162751,1,0,0:0:0:0:
308,296,162824,1,0,0:0:0:0:
254,269,162897,6,0,L|189:253,3,65.9999979858399
293,191,163190,2,0,L|358:175,3,65.9999979858399
208,75,163483,6,0,P|167:54|131:52,3,71.4999967269899
78,162,163775,2,0,P|119:141|155:139,3,71.4999967269899
155,277,164068,6,0,B|192:286|192:286|218:322,3,76.9999976501466
297,317,164361,2,0,B|320:286|320:286|357:277,1,76.9999976501466
429,283,164507,2,0,B|524:212|468:44|336:84|336:84|328:76|328:76|320:84|320:84|312:76|312:76|304:84|304:84|296:76|296:76|268:88|268:88|248:20|144:-16|92:36,1,615.999981201173
24,124,165239,6,0,B|52:200|52:200|36:288,1,165
76,372,165531,5,0,0:0:0:0:
140,344,165605,1,0,0:0:0:0:
208,336,165678,1,0,0:0:0:0:
276,344,165751,1,0,0:0:0:0:
340,368,165824,1,0,0:0:0:0:
408,356,165897,1,0,0:0:0:0:
460,308,165970,1,0,0:0:0:0:
484,240,166044,1,0,0:0:0:0:
480,172,166117,2,0,L|450:102,1,76.9999976501466
256,38,166263,2,0,L|286:108,1,76.9999976501466
363,247,166409,5,0,0:0:0:0:
363,317,166483,1,0,0:0:0:0:
308,360,166556,1,0,0:0:0:0:
239,371,166629,1,0,0:0:0:0:
183,330,166702,1,0,0:0:0:0:
170,261,166775,1,0,0:0:0:0:
191,195,166848,1,0,0:0:0:0:
231,138,166922,1,0,0:0:0:0:
215,70,166995,1,0,0:0:0:0:
160,27,167068,1,0,0:0:0:0:
90,26,167141,1,0,0:0:0:0:
32,64,167214,1,0,0:0:0:0:
12,130,167287,1,0,0:0:0:0:
36,195,167361,1,0,0:0:0:0:
100,221,167434,1,0,0:0:0:0:
168,210,167507,1,0,0:0:0:0:
237,212,167580,5,0,0:0:0:0:
237,212,167653,1,0,0:0:0:0:
237,212,167726,2,0,L|311:237,1,76.9999976501466
489,313,167873,1,0,0:0:0:0:
489,313,167946,1,0,0:0:0:0:
489,313,168019,2,0,L|415:338,1,76.9999976501466
282,359,168165,1,0,0:0:0:0:
212,365,168239,1,0,0:0:0:0:
147,340,168312,1,0,0:0:0:0:
107,283,168385,1,0,0:0:0:0:
94,215,168458,1,0,0:0:0:0:
112,148,168531,1,0,0:0:0:0:
161,98,168605,1,0,0:0:0:0:
226,77,168678,1,0,0:0:0:0:
294,81,168751,6,0,P|376:112|472:22,1,230.99999295044
473,93,169044,2,0,B|462:173|462:173|491:324,1,230.99999295044
427,290,169336,2,0,B|344:251|344:251|292:292|292:292|220:246|150:293,1,307.999990600586
34,368,169775,5,0,0:0:0:0:
28,64,169922,1,0,0:0:0:0:
256,352,170068,1,0,0:0:0:0:
256,352,170141,1,0,0:0:0:0:
256,352,170214,1,0,0:0:0:0:
484,64,170361,1,0,0:0:0:0:
478,368,170507,1,0,0:0:0:0:
408,376,170580,1,0,0:0:0:0:
348,340,170653,2,0,L|272:312,1,76.9999976501466
140,200,170800,2,0,L|288:160,1,153.999995300293
488,108,171092,5,0,0:0:0:0:
188,36,171239,1,0,0:0:0:0:
128,72,171312,1,0,0:0:0:0:
104,136,171385,1,0,0:0:0:0:
256,352,171531,1,0,0:0:0:0:
484,200,171678,1,0,0:0:0:0:
484,200,171751,1,0,0:0:0:0:
484,200,171824,1,0,0:0:0:0:
288,28,171970,2,0,P|184:8|108:112,1,230.99999295044
124,172,172263,5,0,0:0:0:0:
120,252,172336,1,0,0:0:0:0:
152,324,172409,1,0,0:0:0:0:
228,344,172483,1,0,0:0:0:0:
308,336,172556,1,0,0:0:0:0:
352,272,172629,1,0,0:0:0:0:
368,196,172702,1,0,0:0:0:0:
340,124,172775,1,0,0:0:0:0:
368,52,172848,1,0,0:0:0:0:
444,32,172922,1,0,0:0:0:0:
508,80,172995,1,0,0:0:0:0:
512,160,173068,1,0,0:0:0:0:
488,236,173141,2,0,P|456:324|256:252,1,352
232,108,173580,1,0,0:0:0:0:
232,108,173873,5,0,0:0:0:0:
232,108,174165,5,0,0:0:0:0:
232,108,174239,1,0,0:0:0:0:
232,108,174312,1,0,0:0:0:0:
232,108,174605,5,0,0:0:0:0:
232,108,175483,6,0,B|304:76|304:76|392:92,1,165.000006294251
416,276,176946,5,0,0:0:0:0:
288,352,177239,1,0,0:0:0:0:
144,324,177531,1,0,0:0:0:0:
84,188,177824,1,0,0:0:0:0:
108,40,178117,2,0,L|72:20,1,41.2500015735627
108,40,179287,6,0,P|208:20|248:64,1,165.000006294251
404,344,179873,2,0,P|304:364|264:320,1,165.000006294251
44,207,180458,6,0,P|93:118|152:115,1,165.000006294251
467,176,181044,2,0,P|418:265|359:268,1,165.000006294251
256,88,181629,5,0,0:0:0:0:
360,192,181775,1,0,0:0:0:0:
256,296,181922,1,0,0:0:0:0:
152,192,182068,1,0,0:0:0:0:
256,76,182214,5,0,0:0:0:0:
272,72,182287,1,0,0:0:0:0:
288,68,182361,1,0,0:0:0:0:
304,64,182434,1,0,0:0:0:0:
320,60,182507,1,0,0:0:0:0:
336,56,182580,1,0,0:0:0:0:
352,52,182653,1,0,0:0:0:0:
368,48,182726,1,0,0:0:0:0:
384,44,182800,6,0,L|432:144,1,110
340,368,183092,2,0,L|292:268,1,110
400,20,183385,2,0,L|448:120,1,110
356,344,183677,2,0,L|308:244,1,110
128,44,183970,6,0,L|56:192,1,142.99999345398
172,368,184263,2,0,L|244:220,1,142.99999345398
112,20,184556,2,0,L|40:168,1,142.99999345398
156,344,184848,2,0,L|228:196,1,142.99999345398
312,24,185141,5,0,0:0:0:0:
476,188,185287,1,0,0:0:0:0:
476,188,185361,1,0,0:0:0:0:
476,188,185434,1,0,0:0:0:0:
380,312,185580,1,0,0:0:0:0:
224,288,185726,2,0,P|144:248|60:268,2,176
356,376,186165,5,0,0:0:0:0:
480,96,186312,1,0,0:0:0:0:
256,360,186458,1,0,0:0:0:0:
32,96,186605,2,0,P|8:184|48:260,1,176
280,344,186897,2,0,P|324:268|148:152,1,352
24,232,187336,5,0,0:0:0:0:
232,252,187483,1,0,0:0:0:0:
4,136,187629,1,0,0:0:0:0:
252,256,187775,1,0,0:0:0:0:
4,112,187922,1,0,0:0:0:0:
272,260,188068,2,0,P|300:176|252:108,1,176
284,336,188361,1,0,0:0:0:0:
320,264,188434,1,0,0:0:0:0:
356,192,188507,1,0,0:0:0:0:
392,120,188580,1,0,0:0:0:0:
432,52,188653,6,0,L|472:248,1,197.99999395752
424,312,188946,2,0,P|360:272|240:328,1,197.99999395752
176,300,189239,6,0,B|168:264|168:264|152:240,3,65.9999979858399
124,168,189531,2,0,B|132:128|132:128|156:100,3,76.9999976501466
232,100,189824,6,0,P|324:112|376:48,2,176
32,28,190263,1,0,0:0:0:0:
76,240,190409,2,0,L|192:376,2,176
24,16,190848,5,0,0:0:0:0:
248,104,190995,1,0,0:0:0:0:
64,252,191141,1,0,0:0:0:0:
152,24,191287,1,0,0:0:0:0:
0,288,191434,1,0,0:0:0:0:
236,24,191580,5,0,0:0:0:0:
316,12,191653,1,0,0:0:0:0:
392,32,191726,1,0,0:0:0:0:
448,88,191800,1,0,0:0:0:0:
468,164,191873,1,0,0:0:0:0:
392,180,191946,1,0,0:0:0:0:
328,224,192019,2,0,L|272:300,1,88
180,360,192165,5,0,0:0:0:0:
108,40,192312,1,0,0:0:0:0:
164,288,192458,1,0,0:0:0:0:
164,288,192605,1,0,0:0:0:0:
108,40,192751,5,0,0:0:0:0:
16,208,192897,1,0,0:0:0:0:
188,384,193044,1,0,0:0:0:0:
256,40,193190,1,0,0:0:0:0:
324,384,193336,5,0,0:0:0:0:
400,364,193409,1,0,0:0:0:0:
440,292,193483,2,0,L|464:208,1,88
364,52,193629,1,0,0:0:0:0:
288,72,193702,1,0,0:0:0:0:
212,96,193775,2,0,L|124:96,1,88
28,264,193922,6,0,L|120:264,1,88
320,344,194068,2,0,L|412:344,1,88
484,120,194214,2,0,L|392:120,1,88
192,40,194360,2,0,L|100:40,1,88
68,136,194507,6,0,L|12:136,3,55
112,200,194800,6,0,B|216:176|216:176|332:200,1,214.49999018097
400,216,195092,5,0,0:0:0:0:
476,192,195165,1,0,0:0:0:0:
500,116,195239,1,0,0:0:0:0:
472,40,195312,1,0,0:0:0:0:
400,12,195385,1,0,0:0:0:0:
320,24,195458,1,0,0:0:0:0:
284,96,195531,6,0,P|220:164|136:156,1,176
12,36,195824,1,0,0:0:0:0:
128,336,195970,1,0,0:0:0:0:
192,72,196117,1,0,0:0:0:0:
372,352,196263,2,0,L|460:360,3,88
328,280,196556,1,0,0:0:0:0:
340,200,196629,1,0,0:0:0:0:
400,148,196702,6,0,L|496:0,1,176
16,0,196995,2,0,L|112:148,1,176
256,344,197287,1,0,0:0:0:0:
256,72,197434,1,0,0:0:0:0:
256,344,197580,1,0,0:0:0:0:
256,72,197726,5,0,0:0:0:0:
328,40,197800,1,0,0:0:0:0:
404,68,197873,2,0,L|404:168,1,88
380,228,198019,6,0,B|312:260|312:260|300:328|216:344,1,197.99999395752
156,328,198312,2,0,B|136:264|136:264|24:176,1,197.99999395752
32,112,198605,6,0,L|48:48,3,65.9999979858399
116,92,198897,2,0,L|136:12,3,76.9999976501466
196,80,199190,6,0,L|356:4,2,176
8,192,199629,1,0,0:0:0:0:
320,192,199775,2,0,L|500:192,2,176
8,192,200214,5,0,0:0:0:0:
260,364,200361,1,0,0:0:0:0:
436,48,200507,1,0,0:0:0:0:
72,332,200653,1,0,0:0:0:0:
504,192,200800,1,0,0:0:0:0:
76,48,200946,5,0,0:0:0:0:
44,120,201019,1,0,0:0:0:0:
52,200,201092,1,0,0:0:0:0:
108,256,201165,1,0,0:0:0:0:
184,280,201239,1,0,0:0:0:0:
260,260,201312,1,0,0:0:0:0:
304,196,201385,6,0,B|360:128|360:128|444:92,1,176
280,360,201678,2,0,P|192:324|164:252,1,176
252,24,201970,1,0,0:0:0:0:
496,232,202117,1,0,0:0:0:0:
460,300,202190,1,0,0:0:0:0:
388,336,202263,1,0,0:0:0:0:
308,332,202336,1,0,0:0:0:0:
240,292,202409,1,0,0:0:0:0:
196,228,202483,1,0,0:0:0:0:
192,148,202556,6,0,B|220:80|204:16|204:16|168:48,1,176
156,64,202995,5,0,0:0:0:0:
144,84,203287,5,0,0:0:0:0:
132,104,203507,5,0,0:0:0:0:
132,104,203580,1,0,0:0:0:0:
88,268,205629,5,0,0:0:0:0:
120,276,205702,1,0,0:0:0:0:
88,280,205775,1,0,0:0:0:0:
120,288,205848,1,0,0:0:0:0:
88,296,205922,1,0,0:0:0:0:
120,304,205995,1,0,0:0:0:0:
88,312,206068,1,0,0:0:0:0:
120,320,206141,1,0,0:0:0:0:
88,324,206214,6,0,P|152:352|264:216,1,263.99999194336
266,229,206653,2,0,L|412:96,1,197.99999395752
460,56,206946,1,0,0:0:0:0:
256,20,207092,1,0,0:0:0:0:
52,56,207239,2,0,B|64:144|64:144|20:256,1,197.99999395752
4,300,207531,5,0,0:0:0:0:
252,360,207678,1,0,0:0:0:0:
120,244,207824,1,0,0:0:0:0:
368,312,207970,1,0,0:0:0:0:
276,112,208117,1,0,0:0:0:0:
276,112,208190,1,0,0:0:0:0:
276,112,208263,1,0,0:0:0:0:
144,348,208409,1,0,0:0:0:0:
344,168,208556,6,0,P|364:104|336:44,1,131.99999597168
60,188,208848,2,0,P|40:252|68:312,1,131.99999597168
292,368,209141,1,0,0:0:0:0:
428,192,209287,1,0,0:0:0:0:
440,132,209361,1,0,0:0:0:0:
424,76,209434,1,0,0:0:0:0:
196,24,209580,1,0,0:0:0:0:
256,288,209726,5,0,0:0:0:0:
428,192,209873,1,0,0:0:0:0:
440,132,209946,1,0,0:0:0:0:
424,76,210019,2,0,L|368:24,1,65.9999979858399
136,31,210165,2,0,L|88:76,1,65.9999979858399
12,220,210312,5,0,0:0:0:0:
144,272,210458,1,0,0:0:0:0:
8,308,210605,1,0,0:0:0:0:
144,356,210751,1,0,0:0:0:0:
144,184,210897,6,0,P|184:128|368:160,1,263.99999194336
264,220,211336,2,0,B|216:20|216:20|176:24|152:48,1,263.99999194336
8,204,211775,1,0,0:0:0:0:
244,320,211922,2,0,P|316:304|348:176,1,197.99999395752
344,140,212214,5,0,0:0:0:0:
256,28,212361,1,0,0:0:0:0:
412,172,212507,1,0,0:0:0:0:
184,16,212653,1,0,0:0:0:0:
480,136,212800,1,0,0:0:0:0:
480,136,212873,1,0,0:0:0:0:
480,136,212946,1,0,0:0:0:0:
112,32,213092,1,0,0:0:0:0:
480,136,213239,6,0,P|488:204|452:256,1,131.99999597168
256,344,213531,1,0,0:0:0:0:
480,136,213678,6,0,P|488:204|440:272,1,153.999995300293
164,348,213970,1,0,0:0:0:0:
480,136,214117,6,0,P|488:204|424:284,1,176
72,352,214409,1,0,0:0:0:0:
256,12,214556,5,0,0:0:0:0:
440,352,214702,1,0,0:0:0:0:
8,108,214848,1,0,0:0:0:0:
456,48,214995,1,0,0:0:0:0:
56,48,215141,1,0,0:0:0:0:
504,108,215288,1,0,0:0:0:0:
256,368,215434,1,0,0:0:0:0:
80,32,215580,5,0,0:0:0:0:
432,32,215726,1,0,0:0:0:0:
452,108,215800,1,0,0:0:0:0:
444,188,215873,1,0,0:0:0:0:
256,368,216019,2,0,P|160:376|96:324,1,176
148,20,216312,1,0,0:0:0:0:
200,280,216458,1,0,0:0:0:0:
392,96,216605,2,0,P|456:160|432:256,1,176
116,360,216897,5,0,0:0:0:0:
76,292,216970,1,0,0:0:0:0:
60,212,217044,1,0,0:0:0:0:
72,136,217117,1,0,0:0:0:0:
120,72,217190,1,0,0:0:0:0:
168,136,217263,1,0,0:0:0:0:
244,164,217336,2,0,L|332:168,1,88
508,304,217483,2,0,L|420:308,1,88
232,152,217629,6,0,L|320:156,1,88
496,288,217776,2,0,L|408:292,1,88
144,308,217922,5,0,0:0:0:0:
496,192,218068,1,0,0:0:0:0:
24,132,218214,1,0,0:0:0:0:
504,20,218361,1,0,0:0:0:0:
96,76,218507,5,0,0:0:0:0:
420,124,218653,1,0,0:0:0:0:
152,224,218800,1,0,0:0:0:0:
352,272,218946,1,0,0:0:0:0:
48,360,219092,5,0,0:0:0:0:
160,20,219239,1,0,0:0:0:0:
236,8,219312,1,0,0:0:0:0:
316,20,219385,1,0,0:0:0:0:
380,68,219458,1,0,0:0:0:0:
420,136,219531,1,0,0:0:0:0:
428,216,219605,1,0,0:0:0:0:
416,280,219678,6,0,L|244:348,1,176
32,88,219970,2,0,L|204:156,1,176
488,280,220263,5,0,0:0:0:0:
256,68,220409,1,0,0:0:0:0:
256,68,220483,1,0,0:0:0:0:
256,68,220556,1,0,0:0:0:0:
24,284,220702,2,0,P|112:320|180:276,1,176
496,92,220995,5,0,0:0:0:0:
340,344,221141,1,0,0:0:0:0:
120,52,221287,2,0,L|96:232,1,176
84,368,221580,5,0,0:0:0:0:
484,264,221726,1,0,0:0:0:0:
196,12,221873,1,0,0:0:0:0:
32,294,222019,1,0,0:0:0:0:
443,340,222165,1,0,0:0:0:0:
443,340,222239,1,0,0:0:0:0:
443,340,222312,1,0,0:0:0:0:
316,12,222458,1,0,0:0:0:0:
196,372,222605,6,0,P|104:384|40:336,1,176
148,76,222897,1,0,0:0:0:0:
196,372,223044,6,0,P|104:384|28:320,1,197.99999395752
256,16,223336,1,0,0:0:0:0:
196,372,223483,6,0,P|104:384|24:296,1,220
364,76,223775,1,0,0:0:0:0:
12,196,223922,5,0,0:0:0:0:
500,268,224068,1,0,0:0:0:0:
256,16,224214,1,0,0:0:0:0:
120,372,224361,1,0,0:0:0:0:
488,28,224507,1,0,0:0:0:0:
24,28,224653,1,0,0:0:0:0:
392,372,224800,1,0,0:0:0:0:
208,144,224946,6,0,L|208:32,3,110
304,34,225824,6,0,L|304:144,3,110
