osu file format v14

[General]
AudioFilename: Sakura.mp3
AudioLeadIn: 0
PreviewTime: 64390
Countdown: 1
SampleSet: Normal
StackLeniency: 0.7
Mode: 0
LetterboxInBreaks: 1
WidescreenStoryboard: 0

[Editor]
Bookmarks: 15684,177996,186731,228820
DistanceSpacing: 0.6
BeatDivisor: 4
GridSize: 32
TimelineZoom: 1

[Metadata]
Title:Sakurairo Timecapsule
TitleUnicode:桜色タイムカプセル
Artist:Suzumu
ArtistUnicode:スズム
Creator:Awaken
Version:Kokuhaku
Source:
Tags:
BeatmapID:622391
BeatmapSetID:273649

[Difficulty]
HPDrainRate:7
CircleSize:4
OverallDifficulty:8
ApproachRate:9
SliderMultiplier:1.6
SliderTickRate:1

[Events]
//Background and Video events
0,0,"2.jpg",0,0
//Break Periods
2,15843,26337
2,76725,174573
2,188608,228573
2,231667,238278
//Storyboard Layer 0 (Background)
//Storyboard Layer 1 (Fail)
//Storyboard Layer 2 (Pass)
//Storyboard Layer 3 (Foreground)
//Storyboard Sound Samples

[TimingPoints]
1526,352.941176470588,4,1,0,100,1,0
1870,-200,4,1,0,60,0,0
10694,-133.333333333333,4,1,0,60,0,0
11400,-100,4,1,0,40,0,0
63812,-133.333333333333,4,1,0,20,0,0
65047,-100,4,1,0,100,0,1
70702,-83.3333333333333,4,1,0,100,0,1
70702,-83.3333333333333,4,1,0,100,0,1
71055,-66.6666666666667,4,1,0,100,0,1
71584,-100,4,1,0,100,0,1
72025,-83.3333333333333,4,1,0,100,0,1
72378,-66.6666666666667,4,1,0,100,0,1
72643,-100,4,1,0,100,0,1
81988,-100,4,1,0,100,0,0
84106,-100,4,1,0,100,0,1
86223,-100,4,1,0,100,0,0
87635,-100,4,1,0,100,0,1
87723,-100,4,1,0,100,0,0
186467,-66.6666666666667,4,1,0,100,0,0
187878,-100,4,1,0,100,0,0
229173,-66.6666666666667,4,1,0,100,0,0
239761,-100,4,1,0,100,0,0

[Colours]
Combo1 : 255,162,255
Combo2 : 165,254,179
Combo3 : 255,255,164
Combo4 : 154,220,252

[HitObjects]
108,91,1526,5,0,0:0:0:0:
113,103,1878,2,0,L|109:155,1,40
186,235,2231,2,0,L|179:184,1,40
101,284,2584,2,0,L|102:332,1,40
241,357,2937,6,0,L|333:359,1,80
378,284,3467,1,0,0:0:0:0:
477,360,3643,1,0,0:0:0:0:
491,353,3996,2,0,L|501:301,1,40
309,229,4349,6,0,P|294:268|303:314,2,80,0|0|0,0:0|0:0|0:0,0:0:0:0:
116,213,5408,2,0,L|109:168,1,40
60,107,5761,5,0,0:0:0:0:
387,167,6290,1,0,0:0:0:0:
387,167,6467,2,0,L|378:296,1,120
317,344,7173,6,0,P|282:347|310:264,1,160
133,283,8231,2,0,L|78:268,1,40
16,304,8584,1,0,0:0:0:0:
291,142,9290,2,0,B|324:140|346:156|346:156|399:118,1,120
296,258,9996,6,0,P|296:238|299:219,1,40
419,293,10349,2,0,P|421:312|421:332,1,40
196,358,10702,6,0,P|191:328|195:299,1,60.0000022888184
421,233,11055,2,0,P|423:263|418:293,1,60.0000022888184
214,190,11408,6,0,L|199:109,1,80
251,362,11761,2,0,P|211:377|166:371,1,80
19,215,12114,2,0,P|59:224|99:253,1,80
315,285,12467,1,0,0:0:0:0:
213,190,12643,6,0,L|260:187,1,40
410,211,12820,2,0,P|406:251|404:291,1,80
313,107,13173,2,0,P|317:67|320:28,1,80
175,275,13525,2,0,P|181:324|192:364,1,80
71,90,13878,2,0,P|65:41|54:1,1,80
213,190,14231,5,0,0:0:0:0:
13,150,14408,1,0,0:0:0:0:
79,318,14584,1,0,0:0:0:0:
260,298,14761,2,0,L|256:245,1,40
211,60,14937,6,0,P|196:112|306:171,1,200
144,275,15467,2,0,L|183:267,1,40
41,230,15643,5,0,0:0:0:0:
256,192,26937,12,0,29761,0:0:0:0:
166,113,30114,5,0,0:0:0:0:
182,124,30467,1,0,0:0:0:0:
198,135,30820,1,0,0:0:0:0:
94,265,30996,1,0,0:0:0:0:
94,265,31084,1,0,0:0:0:0:
94,265,31173,6,0,P|87:228|92:173,1,80
280,285,31525,2,0,P|287:322|282:377,1,80
191,225,31878,1,0,0:0:0:0:
329,123,32055,1,0,0:0:0:0:
367,252,32231,1,0,0:0:0:0:
279,200,32408,1,0,0:0:0:0:
337,38,32584,5,0,0:0:0:0:
470,229,32761,2,0,L|481:148,1,80
347,330,33114,1,0,0:0:0:0:
355,347,33202,1,0,0:0:0:0:
363,364,33290,1,0,0:0:0:0:
391,177,33467,1,0,0:0:0:0:
264,288,33643,1,0,0:0:0:0:
437,312,33820,1,0,0:0:0:0:
192,332,33996,6,0,P|180:279|197:243,1,80
276,20,34349,2,0,P|289:57|281:96,1,80,0|0,0:0|0:0,0:0:0:0:
391,177,34702,6,0,B|346:158|346:158|303:193|228:176,1,160
156,120,35231,1,0,0:0:0:0:
348,249,35408,5,0,0:0:0:0:
182,293,35584,1,0,0:0:0:0:
272,159,35761,1,0,0:0:0:0:
279,367,35937,1,0,0:0:0:0:
279,367,36025,1,0,0:0:0:0:
279,367,36114,1,0,0:0:0:0:
98,276,36290,1,0,0:0:0:0:
266,240,36467,1,0,0:0:0:0:
16,248,36643,1,0,0:0:0:0:
170,216,36820,6,0,P|184:254|178:306,1,80
75,153,37173,2,0,P|81:112|102:74,1,80
266,240,37525,1,0,0:0:0:0:
98,276,37702,1,0,0:0:0:0:
198,110,37878,1,0,0:0:0:0:
236,320,38055,1,0,0:0:0:0:
27,318,38231,6,0,P|19:263|38:218,1,80
357,241,38584,2,0,P|364:280|355:318,1,80
189,195,38937,1,0,0:0:0:0:
347,97,39114,1,0,0:0:0:0:
350,331,39290,1,0,0:0:0:0:
284,201,39467,1,0,0:0:0:0:
431,100,39643,5,0,0:0:0:0:
426,295,39820,1,0,0:0:0:0:
238,270,39996,1,0,0:0:0:0:
383,167,40173,1,0,0:0:0:0:
383,167,40261,1,0,0:0:0:0:
383,167,40349,1,0,0:0:0:0:
477,364,40525,1,0,0:0:0:0:
260,351,40702,5,0,0:0:0:0:
240,353,40790,1,0,0:0:0:0:
220,355,40878,1,0,0:0:0:0:
199,357,40967,1,0,0:0:0:0:
179,359,41055,1,0,0:0:0:0:
473,204,41231,5,0,0:0:0:0:
473,204,41320,1,0,0:0:0:0:
473,204,41408,2,0,L|481:254,1,40
302,142,41584,1,0,0:0:0:0:
302,142,41673,1,0,0:0:0:0:
302,142,41761,6,0,L|302:91,1,40
192,194,41937,2,0,L|197:239,1,40
143,83,42114,2,0,L|96:73,1,40
22,214,42290,2,0,L|73:207,1,40
281,262,42467,5,0,0:0:0:0:
121,156,42643,1,0,0:0:0:0:
356,207,42820,5,0,0:0:0:0:
144,274,42996,1,0,0:0:0:0:
426,264,43173,5,0,0:0:0:0:
302,142,43349,1,0,0:0:0:0:
506,277,43525,1,0,0:0:0:0:
321,337,43702,1,0,0:0:0:0:
481,203,43878,6,0,P|489:165|486:115,1,80
240,278,44231,2,0,P|232:316|235:366,1,80
356,207,44584,1,0,0:0:0:0:
205,95,44761,1,0,0:0:0:0:
356,207,44937,1,0,0:0:0:0:
136,210,45114,1,0,0:0:0:0:
136,210,45202,1,0,0:0:0:0:
136,210,45290,6,0,P|129:248|141:289,1,80
438,363,45643,2,0,P|445:325|433:265,1,80
212,329,45996,6,0,B|264:350|309:305|309:305|378:331,1,160
241,257,46525,1,0,0:0:0:0:
241,257,46614,1,0,0:0:0:0:
241,257,46702,2,0,P|226:229|222:202,1,40
311,127,46878,2,0,P|311:158|308:174,1,40
211,106,47055,6,0,L|206:18,1,80
360,59,47408,1,0,0:0:0:0:
148,200,47584,1,0,0:0:0:0:
323,285,47761,2,0,P|326:239|308:205,1,80
76,150,48114,6,0,P|61:208|135:287,1,160
305,201,48643,1,0,0:0:0:0:
172,356,48820,2,0,L|260:338,1,80
427,376,49173,1,0,0:0:0:0:
323,285,49349,1,0,0:0:0:0:
494,181,49525,5,0,0:0:0:0:
405,288,49702,1,0,0:0:0:0:
405,288,49790,1,0,0:0:0:0:
405,288,49878,1,0,0:0:0:0:
317,108,50055,1,0,0:0:0:0:
501,266,50231,5,0,0:0:0:0:
363,171,50408,1,0,0:0:0:0:
497,287,50584,1,0,0:0:0:0:
448,104,50761,1,0,0:0:0:0:
443,363,50937,6,0,P|394:369|351:352,1,80
218,215,51290,2,0,P|267:209|310:226,1,80
173,342,51643,2,0,L|90:353,1,80
93,352,51908,1,0,0:0:0:0:
93,352,51996,1,0,0:0:0:0:
34,200,52173,1,0,0:0:0:0:
250,293,52349,5,0,0:0:0:0:
131,201,52525,1,0,0:0:0:0:
132,180,52614,1,0,0:0:0:0:
133,160,52702,1,0,0:0:0:0:
300,223,52878,1,0,0:0:0:0:
86,268,53055,5,0,0:0:0:0:
339,314,53231,1,0,0:0:0:0:
95,281,53408,1,0,0:0:0:0:
344,300,53584,1,0,0:0:0:0:
48,346,53761,6,0,B|39:300|39:300|50:264|50:264|28:217|44:172,1,160
216,192,54290,1,0,0:0:0:0:
34,36,54467,2,0,P|54:99|144:116,1,160
256,45,54996,1,0,0:0:0:0:
313,209,55173,6,0,L|325:159,1,40
137,216,55349,2,0,B|148:274|148:274|168:309|168:309|175:373,1,160
174,369,55790,1,0,0:0:0:0:
174,369,55878,1,0,0:0:0:0:
81,317,56055,1,0,0:0:0:0:
241,247,56231,1,0,0:0:0:0:
127,124,56408,1,0,0:0:0:0:
312,209,56584,6,0,P|310:285|245:326,1,160
171,48,57114,1,0,0:0:0:0:
224,230,57290,2,0,B|179:236|151:222|151:222|112:233|112:233|67:226,1,160
355,114,57820,2,0,L|404:128,1,40
481,121,57996,5,0,0:0:0:0:
282,159,58173,2,0,P|269:123|272:76,1,80
413,198,58525,2,0,L|406:244,1,40
346,296,58702,6,0,L|353:361,2,53.3333333333333,0|0|0,0:0|0:0|0:0,0:0:0:0:
221,280,59055,2,0,L|223:214,2,53.3333333333333,0|0|0,0:0|0:0|0:0,0:0:0:0:
125,358,59408,5,0,0:0:0:0:
114,345,60114,1,0,0:0:0:0:
103,333,60820,1,0,0:0:0:0:
201,215,61525,6,0,B|250:235|298:203|298:203|347:220|347:220|406:206,1,200
372,118,62055,2,0,L|423:128,1,40
490,76,62231,5,0,0:0:0:0:
489,265,62408,1,0,0:0:0:0:
306,163,62584,1,0,0:0:0:0:
486,97,62761,6,0,L|492:145,1,40
483,282,62937,1,0,0:0:0:0:
231,243,63114,1,0,0:0:0:0:
426,203,63290,1,0,0:0:0:0:
167,319,63467,1,0,0:0:0:0:
212,48,63643,5,0,0:0:0:0:
303,287,63820,6,0,B|341:288|368:254|368:254|379:329|288:353,1,210.000008010865
305,213,64525,6,0,L|311:173,1,30.0000011444092,0|0,0:0|0:0,0:0:0:0:
454,97,64702,2,0,L|449:126,1,30.0000011444092,0|0,0:0|0:0,0:0:0:0:
340,33,64878,1,0,0:0:0:0:
414,282,65055,6,0,P|414:250|434:189,1,80,4|0,0:0|0:0,0:0:0:0:
248,55,65408,2,0,P|259:93|260:133,1,80,4|0,0:0|0:0,0:0:0:0:
91,263,65761,2,0,P|91:231|111:170,1,80,4|0,0:0|0:0,0:0:0:0:
306,292,66114,1,0,0:0:0:0:
155,327,66290,5,0,0:0:0:0:
155,327,66378,1,0,0:0:0:0:
155,327,66467,1,0,0:0:0:0:
251,188,66643,1,0,0:0:0:0:
386,326,66820,1,0,0:0:0:0:
224,271,66996,1,0,0:0:0:0:
461,284,67173,5,0,0:0:0:0:
351,127,67349,1,0,0:0:0:0:
349,146,67437,1,0,0:0:0:0:
347,165,67525,1,0,0:0:0:0:
505,194,67702,1,0,0:0:0:0:
266,100,67878,6,0,L|260:21,1,80
443,140,68231,1,0,0:0:0:0:
377,23,68408,1,0,0:0:0:0:
318,245,68584,1,0,0:0:0:0:
505,194,68761,1,0,0:0:0:0:
505,194,68849,1,0,0:0:0:0:
505,194,68937,1,0,0:0:0:0:
241,202,69114,1,0,0:0:0:0:
426,219,69290,5,0,0:0:0:0:
201,277,69467,1,0,0:0:0:0:
207,295,69555,1,0,0:0:0:0:
213,313,69643,1,0,0:0:0:0:
491,270,69820,2,0,P|507:233|505:194,1,80
304,280,70173,5,0,0:0:0:0:
343,291,70261,1,0,0:0:0:0:
382,282,70349,1,0,0:0:0:0:
412,256,70437,1,0,0:0:0:0:
426,219,70525,1,0,0:0:0:0:
419,179,70614,1,0,0:0:0:0:
395,146,70702,6,0,B|359:144|359:144|331:158|331:158|296:143|245:158,1,143.999995605469
191,198,71055,6,0,P|131:198|93:51,1,240
286,43,71584,1,0,0:0:0:0:
304,50,71673,1,0,0:0:0:0:
322,56,71761,1,0,0:0:0:0:
157,113,71937,2,0,L|207:103,1,40
197,294,72114,6,0,B|169:285|169:285|140:288|140:288|101:250|44:271,1,143.999995605469
6,319,72467,6,0,P|67:341|108:200,1,240.000009155274
19,110,72996,1,0,0:0:0:0:
17,133,73084,1,0,0:0:0:0:
15,157,73173,1,0,0:0:0:0:
215,191,73349,1,0,0:0:0:0:
113,21,73525,6,0,P|108:63|128:108,1,80
344,144,73878,1,0,0:0:0:0:
220,57,74055,1,0,0:0:0:0:
161,258,74231,1,0,0:0:0:0:
306,230,74408,1,0,0:0:0:0:
327,241,74496,1,0,0:0:0:0:
348,252,74584,1,0,0:0:0:0:
266,123,74761,1,0,0:0:0:0:
297,362,74937,6,0,L|301:307,1,40
158,217,75114,2,0,L|160:256,1,40,0|0,0:0|0:0,0:0:0:0:
344,144,75290,2,0,L|345:95,1,40
150,14,75467,6,0,P|139:68|185:132,1,120
207,141,75820,1,0,0:0:0:0:
236,167,75908,1,0,0:0:0:0:
249,204,75996,1,0,0:0:0:0:
249,243,76084,1,0,0:0:0:0:
232,279,76173,1,0,0:0:0:0:
198,300,76261,1,0,0:0:0:0:
158,302,76349,6,0,L|65:289,1,80
158,81,175173,6,0,L|156:176,1,80
85,206,175437,1,0,0:0:0:0:
85,206,175525,2,0,P|96:225|104:257,1,40
169,299,175702,6,0,P|222:299|275:215,1,160
40,332,176231,1,0,0:0:0:0:
58,340,176320,1,0,0:0:0:0:
76,348,176408,1,0,0:0:0:0:
364,174,176584,5,0,0:0:0:0:
105,40,176761,1,0,0:0:0:0:
111,58,176849,1,0,0:0:0:0:
117,76,176937,1,0,0:0:0:0:
363,257,177114,2,0,P|418:240|437:135,1,160
232,164,177643,5,0,0:0:0:0:
227,183,177731,1,0,0:0:0:0:
225,203,177820,1,0,0:0:0:0:
226,222,177908,1,0,0:0:0:0:
229,241,177996,5,0,0:0:0:0:
356,77,178173,1,0,0:0:0:0:
352,57,178261,1,0,0:0:0:0:
349,37,178349,1,0,0:0:0:0:
140,297,178525,6,0,P|191:286|266:361,1,160
488,192,179055,1,0,0:0:0:0:
468,193,179143,1,0,0:0:0:0:
448,191,179231,1,0,0:0:0:0:
429,184,179320,1,0,0:0:0:0:
410,176,179408,5,0,0:0:0:0:
370,182,179496,1,0,0:0:0:0:
330,189,179584,2,0,L|276:197,1,40
372,298,179761,2,0,L|411:292,1,40
263,357,179937,2,0,P|186:358|139:297,1,160
330,189,180467,1,0,0:0:0:0:
223,277,180643,5,0,0:0:0:0:
220,257,180731,1,0,0:0:0:0:
217,236,180820,2,0,L|221:184,1,40
134,98,180996,2,0,L|137:143,1,40
239,69,181173,2,0,L|242:18,1,40
56,128,181349,5,0,0:0:0:0:
56,128,181437,2,0,P|61:178|86:211,1,80
151,217,181702,2,0,L|245:204,1,80
303,243,181967,2,0,P|313:287|306:327,1,80
243,361,182231,5,0,0:0:0:0:
265,352,182319,1,0,0:0:0:0:
288,346,182407,1,0,0:0:0:0:
312,342,182495,1,0,0:0:0:0:
336,339,182583,1,0,0:0:0:0:
360,339,182672,1,0,0:0:0:0:
384,340,182760,1,0,0:0:0:0:
407,344,182848,1,0,0:0:0:0:
426,351,182937,5,0,0:0:0:0:
459,328,183025,1,0,0:0:0:0:
476,291,183114,1,0,0:0:0:0:
473,251,183202,1,0,0:0:0:0:
452,216,183290,5,0,0:0:0:0:
406,231,183378,1,0,0:0:0:0:
357,229,183467,1,0,0:0:0:0:
312,212,183555,1,0,0:0:0:0:
281,174,183643,5,0,0:0:0:0:
490,50,183820,1,0,0:0:0:0:
500,97,183908,1,0,0:0:0:0:
488,142,183996,1,0,0:0:0:0:
84,266,184173,2,0,P|156:235|231:261,1,160
126,74,184702,1,0,0:0:0:0:
172,86,184790,1,0,0:0:0:0:
219,80,184878,1,0,0:0:0:0:
264,62,184967,1,0,0:0:0:0:
299,30,185055,5,0,0:0:0:0:
442,248,185231,1,0,0:0:0:0:
395,236,185320,1,0,0:0:0:0:
348,224,185408,1,0,0:0:0:0:
36,361,185584,2,0,P|89:371|151:340,1,120
224,345,185937,2,0,L|275:359,1,40
344,324,186114,5,0,0:0:0:0:
355,277,186202,1,0,0:0:0:0:
348,224,186290,1,0,0:0:0:0:
327,180,186378,1,0,0:0:0:0:
293,145,186467,6,0,B|264:149|264:149|219:142|219:142|146:155,1,120.000004577637
98,233,186702,6,0,B|143:226|143:226|188:233|188:233|217:229,1,120.000004577637
421,229,186937,6,0,B|392:233|392:233|347:226|347:226|274:239,1,120.000004577637
393,137,187173,6,0,B|422:141|422:141|467:134|467:134|540:147,1,120.000004577637
410,45,187408,6,0,L|286:53,1,120.000004577637
217,96,187643,2,0,L|154:90,1,60.0000022888184
87,38,187878,5,0,0:0:0:0:
76,24,188408,1,0,0:0:0:0:
379,113,229173,6,0,P|429:122|481:242,1,180.000006866455
443,296,229525,1,8,0:0:0:0:
206,193,229702,1,0,0:0:0:0:
433,316,229878,1,8,0:0:0:0:
277,87,230055,1,0,0:0:0:0:
427,334,230231,5,8,0:0:0:0:
410,30,230408,1,0,0:0:0:0:
312,319,230584,1,8,0:0:0:0:
219,16,230761,1,0,0:0:0:0:
295,329,230937,1,8,0:0:0:0:
442,122,231114,1,0,0:0:0:0:
185,262,231290,1,8,0:0:0:0:
504,227,231467,1,0,0:0:0:0:
256,192,238878,12,0,240996,0:0:0:0:
175,89,241173,5,0,0:0:0:0:
230,223,241349,2,0,L|223:277,1,40
254,339,241525,1,0,0:0:0:0:
256,192,241614,12,0,244349,0:0:0:0:
