osu file format v14

[General]
AudioFilename: sakurairo time capsule.mp3
AudioLeadIn: 0
PreviewTime: 64407
Countdown: 0
SampleSet: Soft
StackLeniency: 0.4
Mode: 0
LetterboxInBreaks: 0
WidescreenStoryboard: 0

[Editor]
DistanceSpacing: 0.6
BeatDivisor: 4
GridSize: 4
TimelineZoom: 1.8

[Metadata]
Title:Sakurairo Time Capsule
TitleUnicode:桜色タイムカプセル
Artist:Suzumu
ArtistUnicode:スズム
Creator:Zero__wind
Version:Sweet Sakura
Source:
Tags:vocaloid Gumi ケビョウニンゲン Kebyou Ningen Cherry Blossom Colored Time Capsule
BeatmapID:437378
BeatmapSetID:182365

[Difficulty]
HPDrainRate:6.6
CircleSize:4.4
OverallDifficulty:7.7
ApproachRate:8.8
SliderMultiplier:1.8
SliderTickRate:2

[Events]
//Background and Video events
0,0,"42333560.jpg",0,0
Video,0,"video1.avi"
//Break Periods
2,27138,29133
2,155597,166062
2,189294,199949
//Storyboard Layer 0 (Background)
//Storyboard Layer 1 (Fail)
//Storyboard Layer 2 (Pass)
//Storyboard Layer 3 (Foreground)
//Storyboard Sound Samples

[TimingPoints]
1527,352.941176470588,4,2,2,40,1,0
1527,-200,4,2,2,40,0,0
10350,-133.333333333333,4,2,1,50,0,0
14938,-166.666666666667,4,2,2,50,0,0
15644,-100,4,2,1,70,0,0
20232,-90.9090909090909,4,2,1,70,0,0
20585,-83.3333333333333,4,2,1,70,0,0
20938,-100,4,2,1,70,0,0
30821,-100,4,3,0,70,0,0
30997,-100,4,3,0,35,0,0
31174,352.941176470588,4,2,1,70,1,0
31174,352.941176470588,4,2,1,70,1,0
31174,-133.333333333333,4,2,1,60,0,0
33291,-133.333333333333,4,2,2,60,0,0
33468,-133.333333333333,4,2,1,60,0,0
41060,342.857142857143,4,2,1,70,1,0
41745,-100,4,2,0,60,0,0
41917,-100,4,2,1,70,0,0
42454,352.941176470588,4,2,1,70,1,0
53748,-133.333333333333,4,2,1,60,0,0
53924,-133.333333333333,4,2,2,60,0,0
54101,-133.333333333333,4,2,1,60,0,0
54630,-133.333333333333,4,2,2,60,0,0
54983,-133.333333333333,4,2,1,60,0,0
56748,-133.333333333333,4,2,2,60,0,0
56924,-133.333333333333,4,2,1,60,0,0
57101,-133.333333333333,4,2,1,40,0,0
57277,-133.333333333333,4,2,1,60,0,0
59395,-133.333333333333,4,2,1,40,0,0
60101,-133.333333333333,4,2,1,50,0,0
60806,-133.333333333333,4,2,1,60,0,0
61512,-200,4,2,1,70,0,0
61689,-200,4,2,2,40,0,0
62218,-100,4,2,1,70,0,0
62571,-100,4,2,1,50,0,0
62924,-100,4,2,1,60,0,0
63277,-100,4,2,1,70,0,0
63630,-200,4,2,1,70,0,0
63806,-200,4,2,2,20,0,0
65048,352.941176470588,4,2,1,80,1,1
70606,-100,4,2,1,60,0,1
70695,-100,4,2,1,80,0,1
71048,-75.187969924812,4,2,1,80,0,1
71312,-100,4,2,1,80,0,1
72459,-75.187969924812,4,2,1,80,0,1
72724,-100,4,2,1,80,0,1
74930,-100,4,2,1,60,0,1
75283,-100,4,2,1,80,0,1
75459,-100,4,2,1,60,0,1
75989,-100,4,2,1,80,0,1
76165,-100,4,2,1,60,0,1
76342,-100,4,2,1,80,0,1
80930,-66.6666666666667,4,2,1,80,0,1
81900,-66.6666666666667,4,2,1,60,0,1
81989,-200,4,2,1,40,0,0
83930,-200,4,2,1,60,0,0
84106,-166.666666666667,4,2,1,80,0,0
84283,-166.666666666667,4,2,2,40,0,0
84812,-100,4,2,1,70,0,0
85165,-125,4,2,1,50,0,0
85518,-100,4,2,1,60,0,0
85871,-83.3333333333333,4,2,1,70,0,0
86224,-83.3333333333333,4,2,1,80,0,0
86577,-83.3333333333333,4,2,1,50,0,0
86930,-166.666666666667,4,2,1,70,0,0
87283,-100,4,2,1,70,0,0
92224,-90.9090909090909,4,2,1,70,0,0
92577,-83.3333333333333,4,2,1,70,0,0
92930,-100,4,2,1,70,0,0
98930,-100,4,2,1,60,0,0
101047,-100,4,2,1,70,0,0
101224,-100,4,2,2,70,0,0
101283,-100,4,2,1,70,0,0
108459,-100,4,2,1,50,0,0
108812,-100,4,2,1,70,0,0
109636,-100,4,2,1,50,0,0
109753,-100,4,2,1,70,0,0
110204,348.837209302326,4,2,1,70,1,0
111628,352.941176470588,4,2,1,70,1,0
115069,-100,4,2,1,50,0,0
115157,-100,4,2,1,70,0,0
115510,-100,4,2,1,50,0,0
115863,-100,4,2,1,70,0,0
120275,-100,4,2,1,50,0,0
120451,-100,4,2,1,70,0,0
121510,-133.333333333333,4,2,1,60,0,0
121686,-133.333333333333,4,2,2,60,0,0
121863,-133.333333333333,4,2,1,60,0,0
122392,-133.333333333333,4,2,2,60,0,0
122745,-133.333333333333,4,2,1,60,0,0
124510,-133.333333333333,4,2,2,60,0,0
124686,-133.333333333333,4,2,1,60,0,0
127157,-133.333333333333,4,2,1,40,0,0
127863,-133.333333333333,4,2,1,50,0,0
128569,-133.333333333333,4,2,1,60,0,0
129275,-200,4,2,1,70,0,0
129451,-200,4,2,2,40,0,0
129980,-100,4,2,1,70,0,0
130333,-100,4,2,1,50,0,0
130686,-100,4,2,1,60,0,0
131039,-100,4,2,1,70,0,0
131745,-75.187969924812,4,2,1,70,0,0
132098,-100,4,2,1,70,0,0
132804,-100,4,2,1,80,0,1
138275,-100,4,2,1,60,0,1
138451,-200,4,2,1,80,0,1
138804,-75.187969924812,4,2,1,80,0,1
139157,-100,4,2,1,80,0,1
139686,-100,4,2,1,60,0,1
139863,-200,4,2,1,80,0,1
140216,-75.187969924812,4,2,1,80,0,1
140569,-100,4,2,1,80,0,1
141186,-100,4,2,1,60,0,1
141275,-100,4,2,1,80,0,1
142686,-100,4,2,1,60,0,1
143039,-100,4,2,1,80,0,1
143216,-100,4,2,1,60,0,1
143745,-100,4,2,1,80,0,1
143922,-100,4,2,1,60,0,1
144098,-100,4,2,1,80,0,1
149750,352.941176470588,4,2,1,40,1,0
151691,-100,4,2,1,60,0,0
151867,-166.666666666667,4,2,1,80,0,0
152044,-166.666666666667,4,2,2,40,0,0
152573,-100,4,2,1,70,0,0
152926,-125,4,2,1,50,0,0
153279,-100,4,2,1,60,0,0
153632,-83.3333333333333,4,2,1,70,0,0
153985,-83.3333333333333,4,2,1,80,0,0
154338,-83.3333333333333,4,2,1,30,0,0
154691,-83.3333333333333,4,2,1,50,0,0
155044,-83.3333333333333,4,2,1,70,0,0
155397,-83.3333333333333,4,2,1,60,0,0
166691,-133.333333333333,4,2,2,50,0,0
172338,-133.333333333333,4,2,1,50,0,0
172514,-133.333333333333,4,2,1,30,0,0
174808,-133.333333333333,4,2,1,50,0,0
175161,-75.187969924812,4,2,1,70,0,0
175691,-75.187969924812,4,2,1,60,0,0
176220,-75.187969924812,4,2,1,70,0,0
176573,-75.187969924812,4,2,1,80,0,0
177544,-75.187969924812,4,2,1,60,0,0
177977,352.941176470588,4,2,1,80,1,1
178153,-100,4,2,1,80,0,0
181947,-100,4,2,2,80,0,0
182212,-100,4,2,1,80,0,0
183624,-75.187969924812,4,2,1,80,0,0
186447,363.636363636364,4,2,1,80,1,0
186689,-100,4,2,1,70,0,0
186931,-100,4,2,1,60,0,0
187174,-100,4,2,1,80,0,0
187416,-100,4,2,1,70,0,0
187659,-133.333333333333,4,2,1,60,0,0
187901,352.941176470588,4,2,1,80,1,0
189294,352.941176470588,4,2,1,80,1,0
200578,352.941176470588,4,2,2,50,1,0
200578,-133.333333333333,4,2,2,50,0,0
206225,-133.333333333333,4,2,2,40,0,0
211166,-166.666666666667,4,2,1,70,0,0
211342,-166.666666666667,4,2,2,40,0,0
211872,-166.666666666667,4,2,1,70,0,0
212225,-125,4,2,1,50,0,0
212578,-100,4,2,1,60,0,0
212930,-83.3333333333333,4,2,1,70,0,0
213274,352.941176470588,4,2,1,70,1,0
213891,-100,4,2,1,40,0,0
213979,-100,4,2,1,60,0,0
215038,-100,4,2,1,70,0,0
216097,-133.333333333333,4,2,1,70,0,0
216274,-133.333333333333,4,2,2,70,0,0
216803,-133.333333333333,4,2,2,40,0,0
217516,352.941176470588,4,2,1,80,1,1
222457,-100,4,2,1,55,0,1
222633,-100,4,2,1,60,0,1
223163,-100,4,2,1,80,0,1
223427,-100,4,2,1,40,0,1
223516,-75.187969924812,4,2,1,80,0,1
223868,-100,4,2,1,80,0,1
224398,-100,4,2,1,70,0,1
224574,-100,4,2,1,80,0,1
224839,-100,4,2,1,60,0,1
224927,-75.187969924812,4,2,1,80,0,1
225280,-100,4,2,1,80,0,1
225898,-100,4,2,1,60,0,1
225986,-100,4,2,1,80,0,1
227221,-100,4,2,1,50,0,1
227398,-100,4,2,1,60,0,1
228280,-100,4,2,1,80,0,1
228633,-100,4,2,1,60,0,1
228810,-200,4,2,1,60,0,1
229163,-75.187969924812,4,2,1,80,0,1
233045,-75.187969924812,4,2,1,60,0,1
233398,-75.187969924812,4,2,1,80,0,1
233927,-133.333333333333,4,2,1,80,0,1
234104,-133.333333333333,4,2,2,80,0,1
234457,-100,4,2,1,40,0,0
236398,-100,4,2,1,60,0,0
236574,-166.666666666667,4,2,1,80,0,0
236751,-166.666666666667,4,2,2,40,0,0
237280,-166.666666666667,4,2,1,70,0,0
237633,-125,4,2,2,50,0,0
238163,-100,4,2,2,60,0,0
238516,-83.3333333333333,4,2,2,70,0,0
238692,-83.3333333333333,4,2,1,80,0,0
240104,-83.3333333333333,4,2,1,20,0,0
240457,-83.3333333333333,4,2,1,30,0,0
240810,-83.3333333333333,4,2,1,40,0,0
241516,-100,4,2,1,70,0,0
246015,-100,4,2,1,50,0,0
246104,-90.9090909090909,4,2,1,70,0,0
246368,-90.9090909090909,4,2,1,60,0,0
246457,-83.3333333333333,4,2,1,70,0,0
246721,-83.3333333333333,4,2,1,60,0,0
246810,-100,4,2,1,70,0,0
251751,-100,4,2,1,60,0,0
252104,-100,4,2,1,70,0,0
252280,-100,4,2,1,60,0,0
252633,-133.333333333333,4,2,1,70,0,0
252810,-133.333333333333,4,2,1,40,0,0
254221,356.083086053412,4,2,1,40,1,0
254933,-166.666666666667,4,2,1,80,0,0
255111,-166.666666666667,4,2,2,40,0,0
255645,352.941176470588,4,2,1,70,1,0
255997,-125,4,2,1,50,0,0
256350,-100,4,2,1,60,0,0
256703,-83.3333333333333,4,2,1,70,0,0
257056,-83.3333333333333,4,2,1,80,0,0
257233,-83.3333333333333,4,2,1,60,0,0
257321,-83.3333333333333,4,2,1,10,0,0
259880,-83.3333333333333,4,2,1,80,0,0
259968,-83.3333333333333,4,2,1,50,0,0
262703,-83.3333333333333,4,2,1,40,0,0
264115,-83.3333333333333,4,2,1,30,0,0
265527,-83.3333333333333,4,2,1,20,0,0
266939,-83.3333333333333,4,2,1,10,0,0

[Colours]
Combo1 : 247,247,0
Combo2 : 255,165,74
Combo3 : 255,128,255

[HitObjects]
336,308,1527,6,0,P|288:328|252:320,1,90,2|0,0:0|0:0,2:0:0:0:
180,268,2232,1,2,2:0:0:0:
316,64,2938,6,0,P|357:96|368:131,1,90,2|0,0:0|0:0,2:0:0:0:
359,219,3643,1,2,2:0:0:0:
232,272,3997,1,0,0:0:0:0:
115,203,4350,6,0,P|122:151|147:124,1,90,2|0,0:0|0:0,2:0:0:0:
228,88,5055,1,2,2:0:0:0:
420,356,5762,6,0,P|492:304|492:220,1,180,2|2,0:0|0:0,0:0:0:0:
424,160,7174,6,0,L|332:148,1,90,2|0,0:0|0:0,0:0:0:0:
256,192,7879,1,0,0:0:0:0:
92,356,8585,6,0,P|20:304|20:220,2,180,2|2|2,0:0|0:0|0:0,0:0:0:0:
268,284,10350,6,0,L|316:232,1,67.5000025749208,2|0,0:0|0:0,0:0:0:0:
170,156,10703,2,0,L|191:223,1,67.5000025749208,2|0,0:0|0:0,0:0:0:0:
329,135,11056,2,0,L|260:120,1,67.5000025749208,2|0,0:0|0:0,0:0:0:0:
170,156,11409,5,2,0:0:0:0:
88,212,11585,1,0,0:0:0:0:
4,156,11762,2,0,P|3:120|12:88,1,67.5000025749208,2|0,0:0|0:0,0:0:0:0:
100,132,12115,5,2,0:0:0:0:
182,76,12291,1,0,0:0:0:0:
264,132,12468,2,0,P|265:165|256:198,1,67.5000025749208,2|0,0:0|0:0,0:0:0:0:
360,96,12821,2,0,P|359:60|368:28,1,67.5000025749208,2|0,0:0|0:0,0:0:0:0:
255,4,13174,5,0,0:0:0:0:
182,76,13350,1,2,0:0:0:0:
264,132,13526,1,0,0:0:0:0:
191,204,13702,1,2,0:0:0:0:
273,260,13879,5,0,0:0:0:0:
199,331,14055,1,2,0:0:0:0:
393,383,14232,1,0,0:0:0:0:
296,357,14409,1,2,0:0:0:0:
342,187,14585,1,0,0:0:0:0:
367,285,14762,1,2,0:0:0:0:
199,331,14938,6,2,P|116:303|48:328,1,161.999995056153,0|0,0:0|0:0,0:0:0:0:
199,331,15644,6,0,P|229:297|232:253,1,90,6|0,3:2|0:0,0:0:0:0:
208,148,15997,1,8,0:0:0:0:
100,148,16174,1,0,0:0:0:0:
88,172,16262,1,0,0:0:0:0:
76,196,16350,1,2,3:2:0:0:
36,56,16526,1,0,3:0:0:0:
176,20,16703,2,0,L|268:28,1,90,8|0,0:0|0:0,0:0:0:0:
424,34,17056,6,0,B|434:97|387:125|387:125|406:158|456:152,1,180,0|8,3:0|0:0,0:0:0:0:
344,56,17585,1,0,0:0:0:0:
296,152,17762,2,0,P|316:193|354:220,1,90,0|2,3:0|3:2,0:0:0:0:
216,96,18115,2,0,P|175:116|147:154,1,90,8|2,0:0|0:0,0:0:0:0:
20,268,18468,6,0,B|79:295|128:256|128:256|192:288,1,180,0|8,3:0|0:0,0:0:0:0:
300,220,18997,1,2,0:0:0:0:
344,320,19174,1,0,3:0:0:0:
248,368,19350,1,0,3:0:0:0:
220,364,19438,1,0,0:0:0:0:
192,360,19526,1,8,0:0:0:0:
192,216,19703,1,2,0:0:0:0:
304,124,19879,6,0,P|346:135|379:167,1,90,0|0,3:0|3:0,0:0:0:0:
183,121,20232,2,0,P|137:107|89:118,1,99.0000030212403,10|0,0:0|0:0,0:0:0:0:
244,48,20585,2,0,P|277:12|334:5,1,107.999996704102,2|0,3:2|3:0,0:0:0:0:
64,28,20938,1,8,0:0:0:0:
64,28,21026,1,0,0:0:0:0:
64,28,21115,1,0,0:0:0:0:
64,28,21203,1,8,0:0:0:0:
64,28,21291,6,0,P|1:98|20:184,1,180,4|8,3:2|0:0,0:0:0:0:
92,288,21821,1,0,0:0:0:0:
216,232,21997,2,0,B|217:227|272:228|320:240,1,90,2|0,3:2|3:0,0:0:0:0:
360,144,22350,1,8,0:0:0:0:
420,332,22526,1,2,0:0:0:0:
420,332,22615,1,0,0:0:0:0:
420,332,22703,6,0,P|400:244|454:178,1,180,0|8,3:0|0:0,0:0:0:0:
512,272,23232,1,0,0:0:0:0:
304,328,23409,2,0,L|204:336,1,90,2|0,3:2|3:0,0:0:0:0:
92,288,23762,1,8,0:0:0:0:
184,192,23938,1,2,0:0:0:0:
184,192,24026,1,0,0:0:0:0:
184,192,24115,6,0,P|212:148|209:108,1,90,6|0,3:2|0:0,0:0:0:0:
150,23,24468,1,8,0:0:0:0:
121,126,24644,1,2,0:0:0:0:
288,192,24821,2,0,P|340:194|373:171,1,90,2|0,3:2|3:0,0:0:0:0:
417,78,25174,1,8,0:0:0:0:
313,104,25350,1,2,0:0:0:0:
328,284,25526,5,2,3:2:0:0:
313,104,25703,1,8,0:0:0:0:
313,104,25879,1,8,0:0:0:0:
184,192,26056,1,2,3:2:0:0:
408,180,26232,1,10,0:0:0:0:
408,180,26409,5,0,0:0:0:0:
431,193,26497,1,8,0:0:0:0:
451,211,26585,1,8,0:0:0:0:
466,234,26673,1,8,0:0:0:0:
475,259,26761,1,8,0:3:0:0:
478,286,26850,1,0,0:0:0:0:
474,312,26938,1,6,3:2:0:0:
172,32,29762,5,2,0:0:0:0:
147,57,30115,1,2,0:0:0:0:
122,82,30468,1,2,0:0:0:0:
56,224,30821,5,8,0:0:0:0:
118,310,30997,1,4,0:0:0:0:
137,329,31085,1,4,0:0:0:0:
156,348,31174,6,0,P|218:318|282:330,1,135.000005149842,4|0,3:2|3:0,0:0:0:0:
364,272,31703,1,2,0:0:0:0:
416,184,31879,2,0,L|408:116,1,67.5000025749208,0|2,3:0|0:0,0:0:0:0:
288,56,32232,2,0,L|296:124,1,67.5000025749208,0|2,3:0|0:0,0:0:0:0:
364,272,32585,6,0,B|420:308|456:264|500:300,1,135.000005149842,0|0,3:0|3:0,0:0:0:0:
280,340,33115,2,0,B|224:304|188:348|144:312,1,135.000005149842,2|2,0:2|0:0,0:0:0:0:
72,252,33644,1,0,3:0:0:0:
48,352,33821,1,2,0:0:0:0:
204,240,33997,6,0,P|240:168|224:120,1,135.000005149842,0|0,3:0|3:0,0:0:0:0:
136,72,34526,1,2,0:0:0:0:
77,156,34703,2,0,L|144:168,1,67.5000025749208,0|2,3:0|0:0,0:0:0:0:
136,72,35056,2,0,L|68:60,2,67.5000025749208,0|2|0,3:0|0:0|3:0,0:0:0:0:
232,36,35585,2,0,P|268:28|300:32,1,67.5000025749208,2|0,0:0|3:0,0:0:0:0:
272,132,35938,1,2,0:0:0:0:
400,176,36115,6,0,P|420:136|444:116,1,67.5000025749208,0|2,3:0|0:0,0:0:0:0:
272,132,36468,2,0,P|292:158|301:191,1,67.5000025749208,0|2,3:0|0:0,0:0:0:0:
340,320,36821,6,0,P|408:292|464:312,1,135.000005149842,0|0,3:0|3:0,0:0:0:0:
456,200,37350,2,0,P|469:163|468:128,2,67.5000025749208,2|0|2,0:0|3:0|0:0,0:0:0:0:
372,256,37879,1,0,3:0:0:0:
512,280,38056,1,2,0:0:0:0:
372,144,38232,6,0,P|300:136|252:172,1,135.000005149842,0|0,3:0|3:0,0:0:0:0:
196,88,38762,1,2,0:0:0:0:
132,168,38938,2,0,L|140:236,1,67.5000025749208,0|2,3:0|0:0,0:0:0:0:
296,112,39291,2,0,L|304:44,1,67.5000025749208,0|2,3:0|0:0,0:0:0:0:
195,88,39644,6,0,P|130:81|92:28,1,135.000005149842
228,14,40173,1,2,0:0:0:0:
352,72,40350,1,0,3:0:0:0:
312,204,40526,1,2,0:0:0:0:
144,140,40703,2,2,B|167:142|167:142|187:134|187:134|215:137,1,67.5000025749208,2|0,3:2|0:0,0:0:0:0:
132,312,41060,6,0,P|80:304|48:284,1,90,0|2,3:0|0:0,0:0:0:0:
228,232,41402,2,0,P|280:240|312:260,1,90,0|2,3:0|0:0,0:0:0:0:
80,152,41745,1,4,1:2:0:0:
228,20,42002,1,8,0:0:0:0:
250,34,42087,1,8,0:0:0:0:
267,55,42173,1,8,0:0:0:0:
276,80,42259,1,8,0:0:0:0:
276,107,42344,1,8,0:0:0:0:
208,88,42454,6,0,L|388:52,1,180,4|8,3:2|0:0,0:0:0:0:
484,104,42983,1,2,0:0:0:0:
424,200,43159,2,0,L|340:168,2,90,0|0|8,3:0|3:0|0:0,0:0:0:0:
472,300,43689,1,0,0:0:0:0:
336,344,43865,6,0,B|249:314|249:314|160:324,1,180,0|8,3:0|0:0,0:0:0:0:
31,256,44395,2,0,P|16:297|23:341,1,90,2|0,0:0|3:0,0:0:0:0:
192,224,44748,1,0,3:0:0:0:
120,128,44924,2,0,L|28:128,1,90,8|0,0:0|0:0,0:0:0:0:
192,224,45277,6,0,P|256:160|252:76,1,180,0|8,3:0|0:0,0:0:0:0:
320,244,45806,1,2,0:0:0:0:
424,220,45983,2,0,P|468:200|492:164,1,90,0|0,3:0|3:0,0:0:0:0:
400,32,46336,2,0,L|395:121,1,90,8|2,0:0|0:0,0:0:0:0:
320,244,46689,5,0,3:0:0:0:
392,328,46865,2,0,P|432:352|480:352,1,90,2|8,0:0|0:0,0:0:0:0:
424,176,47218,1,2,0:0:0:0:
429,149,47306,1,8,0:0:0:0:
434,123,47395,1,2,3:2:0:0:
488,272,47571,1,0,3:0:0:0:
348,248,47748,2,0,L|224:260,1,90,8|2,0:0|0:0,0:0:0:0:
96,344,48101,6,0,P|52:276|88:192,1,180,0|8,3:0|0:0,0:0:0:0:
216,152,48630,2,0,L|305:143,1,90,2|0,0:0|3:0,0:0:0:0:
148,264,48983,1,0,3:0:0:0:
240,60,49159,1,8,0:0:0:0:
256,232,49336,1,0,0:0:0:0:
72,149,49512,6,0,B|80:120|112:108|112:108|148:164|216:152,1,180,0|8,3:0|0:0,0:0:0:0:
340,184,50042,1,2,0:0:0:0:
456,120,50218,1,0,3:0:0:0:
396,28,50395,1,0,3:0:0:0:
340,184,50571,1,8,0:0:0:0:
424,252,50748,1,0,0:0:0:0:
512,144,50924,6,0,L|420:120,2,90,0|2|8,3:0|0:0|0:0,0:0:0:0:
512,252,51453,1,0,0:0:0:0:
336,320,51630,2,0,P|336:264|352:232,1,90,0|0,3:0|3:0,0:0:0:0:
512,252,51983,2,0,P|512:308|496:340,1,90,8|0,0:0|0:0,0:0:0:0:
336,320,52336,6,0,L|240:308,1,90,0|0,3:0|3:0,0:0:0:0:
316,76,52689,2,0,P|328:148|296:200,1,135,12|8,0:0|0:0,0:0:0:0:
256,224,53042,1,0,3:0:0:0:
416,68,53218,1,8,0:3:0:0:
248,128,53395,2,0,L|152:124,1,90,4|0,3:0|0:0,0:0:0:0:
232,320,53748,6,0,P|300:313|345:266,1,135.000005149842,4|0,3:2|0:0,0:0:0:0:
256,224,54277,1,0,3:0:0:0:
388,356,54453,2,0,P|440:288|398:183,1,202.500007724762,10|0,0:0|3:0,0:0:0:0:
312,140,55159,5,0,0:0:0:0:
256,224,55336,2,0,L|112:248,1,135.000005149842,10|0,0:0|3:0,0:0:0:0:
52,204,55865,1,10,0:0:0:0:
41,124,56041,1,2,0:0:0:0:
75,52,56217,1,2,3:2:0:0:
142,10,56394,1,2,0:0:0:0:
221,30,56571,6,0,P|288:48|348:24,1,135.000005149842,2|0,3:2|0:0,0:0:0:0:
440,40,57101,1,0,3:0:0:0:
428,56,57189,1,0,3:0:0:0:
420,74,57277,2,0,P|416:143|456:200,1,135.000005149842,10|0,0:0|3:0,0:0:0:0:
450,196,57806,1,0,3:0:0:0:
488,120,57983,5,2,0:0:0:0:
384,88,58159,2,0,L|300:96,1,67.5000025749208,10|0,0:0|0:0,0:0:0:0:
492,232,58512,5,2,0:0:0:0:
388,200,58688,2,0,L|295:210,1,90.0000034332277,10|8,0:0|0:3,0:0:0:0:
212,204,59042,2,0,L|224:248,2,45.0000017166138,8|4|4,0:3|3:0|3:0,0:0:0:0:
252,324,59395,5,2,0:0:0:0:
116,304,60101,1,2,0:0:0:0:
56,184,60806,1,2,0:0:0:0:
76,48,61512,2,0,P|128:14|200:14,1,135,4|0,3:2|0:0,0:0:0:0:
284,48,62218,6,0,L|392:40,1,90,12|0,0:0|0:0,0:0:0:0:
208,196,62571,2,0,L|100:188,1,90,8|8,0:0|0:0,0:0:0:0:
288,340,62924,1,0,0:0:0:0:
470,220,63101,1,0,0:0:0:0:
252,208,63277,1,0,0:0:0:0:
422,346,63453,1,0,0:0:0:0:
365,135,63630,6,0,B|312:196|416:240|352:300,1,180,12|0,0:0|0:0,0:0:0:0:
156,312,65048,6,0,P|115:283|100:244,1,90,4|0,3:2|0:0,0:0:0:0:
216,104,65400,1,8,0:0:0:0:
316,140,65577,2,0,L|320:240,1,90,2|0,0:0|3:0,0:0:0:0:
180,236,65930,1,0,3:0:0:0:
152,228,66018,1,0,0:0:0:0:
124,220,66106,1,8,0:0:0:0:
40,336,66283,1,2,0:0:0:0:
174,331,66459,6,0,P|218:325|252:296,1,90,0|2,3:0|0:0,0:0:0:0:
96,56,66812,2,0,P|69:91|66:135,1,90,8|2,0:0|0:0,0:0:0:0:
240,188,67165,2,0,L|332:184,1,90,0|0,3:0|3:0,0:0:0:0:
412,112,67518,1,8,0:0:0:0:
496,292,67695,1,2,0:0:0:0:
480,316,67783,1,0,0:0:0:0:
460,336,67871,6,0,L|370:339,1,90,0|2,3:0|0:0,0:0:0:0:
272,292,68224,1,8,0:0:0:0:
296,124,68400,2,0,P|328:160|336:204,1,90,2|0,0:0|3:0,0:0:0:0:
484,196,68753,1,0,3:0:0:0:
408,20,68930,1,8,0:0:0:0:
248,128,69106,1,2,0:0:0:0:
256,156,69195,1,0,0:0:0:0:
264,184,69283,6,0,P|308:193|355:163,1,90,0|2,3:0|0:0,0:0:0:0:
328,68,69636,1,8,0:0:0:0:
224,96,69812,2,0,L|124:84,1,90,2|0,0:0|3:0,0:0:0:0:
48,192,70165,1,0,3:0:0:0:
256,192,70342,1,8,0:0:0:0:
152,276,70518,1,2,0:0:0:0:
144,304,70606,1,8,0:0:0:0:
136,332,70695,5,0,3:0:0:0:
136,332,70871,1,0,3:0:0:0:
332,198,71048,6,0,P|280:120|205:133,1,179.549992602768,12|0,0:0|0:0,0:0:0:0:
256,192,71400,1,0,3:0:0:0:
452,124,71577,1,0,3:0:0:0:
256,192,71753,1,8,0:0:0:0:
360,276,71930,1,2,0:0:0:0:
368,304,72018,1,8,0:0:0:0:
376,332,72107,5,0,3:0:0:0:
376,332,72283,1,0,3:0:0:0:
180,198,72460,6,0,P|232:120|307:133,1,179.549992602768,12|0,0:0|0:0,0:0:0:0:
380,168,72812,1,0,3:0:0:0:
160,52,72989,1,0,3:0:0:0:
256,192,73165,1,8,0:0:0:0:
304,24,73342,1,2,0:0:0:0:
84,140,73518,6,0,L|173:147,1,90,4|0,3:2|0:0,0:0:0:0:
304,24,73871,1,8,0:0:0:0:
224,228,74048,2,0,P|256:192|266:151,1,90,2|0,0:0|3:0,0:0:0:0:
160,52,74400,2,0,L|70:44,1,90,0|8,3:2|0:0,0:0:0:0:
56,272,74753,1,2,0:0:0:0:
200,280,74930,5,12,0:0:0:0:
226,256,75018,1,8,0:0:0:0:
253,233,75106,1,8,0:0:0:0:
281,209,75194,1,8,0:0:0:0:
308,186,75282,1,0,3:0:0:0:
284,368,75459,1,4,3:2:0:0:
228,16,75812,5,4,3:2:0:0:
512,84,75989,1,8,0:0:0:0:
308,186,76165,1,8,0:0:0:0:
264,200,76253,1,8,0:0:0:0:
220,204,76342,6,0,B|128:192,1,90,4|0,3:2|0:0,0:0:0:0:
360,316,76695,1,8,0:0:0:0:
452,264,76871,2,0,P|469:218|461:177,1,90,2|0,0:0|3:0,0:0:0:0:
336,76,77224,1,0,3:0:0:0:
308,80,77312,1,0,0:0:0:0:
280,84,77400,1,8,0:0:0:0:
372,212,77577,1,2,0:0:0:0:
212,272,77753,6,0,P|195:226|203:185,1,90,0|2,3:0|0:0,0:0:0:0:
96,44,78106,1,8,0:0:0:0:
224,108,78283,1,2,0:0:0:0:
252,96,78371,1,0,0:0:0:0:
280,84,78459,1,0,3:0:0:0:
96,44,78636,1,0,3:0:0:0:
104,188,78812,1,8,0:0:0:0:
0,165,78989,1,2,0:0:0:0:
156,266,79165,6,0,P|187:234|200:192,1,90,4|0,3:2|0:0,0:0:0:0:
28,272,79518,1,8,0:0:0:0:
184,352,79695,2,0,L|304:376,1,90,2|0,0:0|3:0,0:0:0:0:
416,216,80047,1,0,3:0:0:0:
376,356,80224,1,8,0:0:0:0:
312,264,80400,1,2,0:0:0:0:
472,28,80577,5,8,0:0:0:0:
496,52,80665,1,2,1:3:0:0:
510,83,80753,1,4,3:0:0:0:
510,119,80841,1,4,3:0:0:0:
496,152,80930,2,0,L|332:160,1,135.000005149842,12|2,0:0|0:0,0:0:0:0:
272,104,81195,1,8,0:0:0:0:
236,92,81283,2,0,P|176:124|156:184,1,135.000005149842,4|8,3:2|3:0,0:0:0:0:
156,220,81547,1,8,0:0:0:0:
168,252,81636,1,8,0:0:0:0:
192,276,81724,1,8,0:0:0:0:
200,308,81812,1,4,3:0:0:0:
188,340,81900,1,0,3:0:0:0:
164,364,81989,5,2,0:0:0:0:
256,192,83400,5,2,0:0:0:0:
100,304,83930,1,0,3:0:0:0:
100,304,84018,1,0,3:0:0:0:
100,304,84106,2,0,P|56:240|76:164,1,161.999995056153,12|0,0:0|0:0,0:0:0:0:
76,163,84812,5,12,0:0:0:0:
312,36,85165,2,0,L|240:36,1,72,0|8,3:0|0:0,0:0:0:0:
152,224,85518,2,0,L|242:224,1,90,8|8,0:0|0:0,0:0:0:0:
484,144,85871,2,0,L|376:144,1,107.999996704102,8|8,0:0|0:0,0:0:0:0:
468,316,86224,5,12,0:0:0:0:
240,36,86400,1,4,3:2:0:0:
192,120,86577,5,0,0:0:0:0:
204,112,86665,1,2,0:0:0:0:
219,108,86753,1,0,0:0:0:0:
233,111,86842,1,0,0:0:0:0:
247,110,86930,2,2,P|294:85|312:36,1,107.999996704102,2|8,0:0|0:0,0:0:0:0:
184,151,87371,5,8,0:0:0:0:
218,180,87460,1,8,0:0:0:0:
262,184,87548,1,8,0:0:0:0:
300,162,87636,6,0,P|313:78|240:36,1,180,4|8,3:2|0:0,0:0:0:0:
184,256,88165,1,0,0:0:0:0:
320,264,88342,2,0,P|367:243|391:210,1,90,2|0,3:2|3:0,0:0:0:0:
408,44,88695,1,8,0:0:0:0:
296,88,88871,1,0,0:0:0:0:
272,100,88959,1,0,0:0:0:0:
247,110,89047,6,0,B|196:132|196:132|146:83|81:118,1,180,0|10,3:0|0:0,0:0:0:0:
76,256,89577,1,0,0:0:0:0:
184,256,89753,2,0,L|272:224,1,90,0|2,3:0|0:0,0:0:0:0:
119,334,90106,2,0,L|76:256,1,90,8|2,0:0|0:0,0:0:0:0:
252,364,90459,6,0,B|332:332|332:332|372:364|420:340,1,180,0|8,3:0|0:0,0:0:0:0:
344,152,90989,1,0,0:0:0:0:
264,240,91165,1,0,3:0:0:0:
380,268,91342,1,0,3:0:0:0:
404,256,91430,1,0,0:0:0:0:
428,240,91518,1,8,0:0:0:0:
452,136,91695,1,2,0:0:0:0:
507,271,91871,6,0,P|463:266|428:240,1,90,0|0,3:0|3:0,0:0:0:0:
232,196,92224,2,0,P|256:154|302:136,1,99.0000030212403,10|0,0:0|0:0,0:0:0:0:
504,20,92577,2,0,P|467:56|414:59,1,107.999996704102,2|0,3:2|3:0,0:0:0:0:
190,23,92930,1,8,0:0:0:0:
190,23,93018,1,0,0:0:0:0:
190,23,93106,1,8,0:0:0:0:
190,23,93195,1,8,0:0:0:0:
190,23,93283,6,0,P|272:54|302:136,1,180,4|8,3:2|0:0,0:0:0:0:
240,228,93812,1,0,0:0:0:0:
288,364,93989,1,2,3:2:0:0:
340,272,94165,1,0,3:0:0:0:
240,228,94342,2,0,L|140:240,1,90,8|2,0:0|0:0,0:0:0:0:
84,45,94695,6,0,B|46:108|87:165|87:165|66:180|57:208,1,180,0|8,3:0|0:0,0:0:0:0:
84,324,95224,1,0,0:0:0:0:
242,142,95400,2,0,P|209:112|164:107,1,90,2|0,3:2|3:0,0:0:0:0:
57,206,95753,1,8,0:0:0:0:
264,268,95930,1,2,0:0:0:0:
264,268,96018,1,0,0:0:0:0:
264,268,96106,6,0,P|314:250|342:217,1,90,6|0,3:2|0:0,0:0:0:0:
332,104,96459,1,8,0:0:0:0:
168,200,96636,1,2,0:0:0:0:
168,200,96724,1,8,0:0:0:0:
168,200,96812,2,0,P|147:156|152:112,1,90,2|0,3:2|3:0,0:0:0:0:
200,8,97165,1,8,0:0:0:0:
424,88,97342,1,2,0:0:0:0:
424,88,97430,1,0,0:0:0:0:
424,88,97518,6,0,L|416:40,2,45,0|8|4,3:0|0:0|3:0,0:0:0:0:
456,236,97871,1,8,0:3:0:0:
480,224,97959,1,4,0:3:0:0:
360,316,98136,1,8,0:3:0:0:
377,336,98224,1,4,0:3:0:0:
264,236,98400,1,0,3:0:0:0:
247,257,98488,1,8,0:0:0:0:
240,284,98577,1,8,0:0:0:0:
230,311,98665,1,8,0:0:0:0:
208,328,98753,1,4,3:0:0:0:
180,336,98842,1,4,3:0:0:0:
152,332,98930,5,2,0:0:0:0:
100,56,100342,5,2,0:0:0:0:
312,56,100871,6,0,L|340:56|360:52,1,45,0|2,0:0|0:0,0:0:0:0:
376,40,101047,2,0,L|372:168,1,120,8|8,1:3|0:3,0:0:0:0:
416,272,101400,2,0,L|468:300,2,60,4|4|4,3:0|3:0|3:0,0:0:0:0:
300,244,101753,6,0,P|208:204|138:237,1,180,4|8,3:2|0:0,0:0:0:0:
68,317,102283,1,2,0:0:0:0:
159,375,102459,2,0,P|197:352|216:311,1,90,0|0,3:0|3:0,0:0:0:0:
96,192,102812,2,0,L|6:199,1,90,8|2,0:0|0:0,0:0:0:0:
120,84,103165,5,0,3:0:0:0:
213,117,103342,2,0,P|219:73|203:31,1,90,2|8,0:0|0:0,0:0:0:0:
26,50,103695,2,0,P|19:93|35:135,1,90,2|0,0:0|3:0,0:0:0:0:
96,224,104047,1,0,3:0:0:0:
204,212,104224,2,0,P|256:208|288:224,1,90,8|2,0:0|0:0,0:0:0:0:
416,88,104577,6,0,L|228:84,1,180,0|8,3:0|0:0,0:0:0:0:
376,272,105106,2,0,P|391:228|380:188,1,90,2|0,0:0|3:0,0:0:0:0:
236,84,105459,1,0,3:0:0:0:
200,208,105636,2,0,L|288:224,1,90,8|2,0:0|0:0,0:0:0:0:
472,296,105989,6,0,P|416:360|326:357,1,180,0|8,3:0|0:0,0:0:0:0:
200,292,106518,1,2,0:0:0:0:
295,240,106695,2,0,P|340:245|376:272,1,90,0|0,3:0|3:0,0:0:0:0:
496,120,107047,2,0,P|451:125|415:151,1,90,8|2,0:0|0:0,0:0:0:0:
271,42,107400,6,0,B|320:35|358:72|358:72|320:98|319:144,1,180,0|8,3:0|0:0,0:0:0:0:
295,240,107930,1,2,0:0:0:0:
208,300,108106,2,0,P|144:296|112:300,1,90,0|0,3:0|3:0,0:0:0:0:
0,152,108459,2,0,P|72:152|136:144,1,135,12|0,0:0|0:0,0:0:0:0:
200,88,108812,5,4,3:2:0:0:
64,228,108989,1,0,3:0:0:0:
80,259,109077,1,8,0:0:0:0:
106,284,109165,1,8,0:0:0:0:
139,297,109253,1,8,0:0:0:0:
175,299,109341,1,8,0:0:0:0:
209,288,109430,1,8,0:0:0:0:
238,267,109518,6,0,L|244:204,2,60,4|8|8,3:0|0:0|0:0,0:0:0:0:
332,236,109871,2,0,L|337:172,2,60,8|8|8,0:0|0:0|0:0,0:0:0:0:
400,344,110204,6,0,P|480:312|508:228,1,180,4|8,3:2|0:0,0:0:0:0:
488,84,110727,1,2,0:0:0:0:
392,32,110901,2,0,L|296:44,1,90,0|0,3:0|3:0,0:0:0:0:
332,220,111250,2,0,L|412:172,1,90,8|2,0:0|0:0,0:0:0:0:
302,43,111628,5,0,3:0:0:0:
224,136,111804,2,0,P|172:160|104:148,1,90,2|8,0:0|0:0,0:0:0:0:
7,32,112157,2,0,P|50:45|84:75,1,90,2|0,0:0|3:0,0:0:0:0:
68,236,112510,1,0,3:0:0:0:
4,132,112686,1,8,0:0:0:0:
157,61,112863,1,2,0:0:0:0:
221,165,113039,6,0,B|265:241|215:293|215:293|232:332,1,180,0|8,3:0|0:0,0:0:0:0:
112,348,113569,1,2,0:0:0:0:
68,236,113745,2,0,L|160:226,1,90,0|0,3:0|3:0,0:0:0:0:
320,304,114098,2,0,L|412:294,1,90,8|2,0:0|0:0,0:0:0:0:
412,152,114451,5,0,3:0:0:0:
505,119,114628,2,0,P|511:162|495:204,1,90,2|8,0:0|0:0,0:0:0:0:
318,186,114980,1,2,0:0:0:0:
318,186,115069,1,8,0:0:0:0:
318,186,115157,2,0,P|311:142|327:100,1,90,0|0,3:0|3:0,0:0:0:0:
162,12,115510,2,0,P|198:72|186:148,1,135,12|0,0:0|0:0,0:0:0:0:
157,226,115863,6,0,B|216:248|260:216|276:184|276:184|318:186,1,180,4|8,3:2|0:0,0:0:0:0:
216,64,116392,2,0,L|128:84,1,90,2|0,0:0|3:0,0:0:0:0:
51,161,116745,1,0,3:0:0:0:
157,226,116922,1,8,0:0:0:0:
32,296,117098,1,2,0:0:0:0:
180,360,117275,6,0,B|230:359|264:328|264:328|356:348,1,180,0|8,3:0|0:0,0:0:0:0:
456,192,117804,2,0,P|478:240|472:280,1,90,2|0,0:0|3:0,0:0:0:0:
376,252,118157,2,0,L|288:230,1,90,0|8,3:0|0:0,0:0:0:0:
276,64,118510,1,2,0:0:0:0:
384,76,118686,6,0,P|428:56|480:60,2,90,0|2|8,3:0|0:0|0:0,0:0:0:0:
272,172,119216,1,2,0:0:0:0:
364,228,119392,2,0,L|468:228,2,90,0|0|8,3:0|3:0|0:0,0:0:0:0:
276,64,119922,1,2,0:0:0:0:
140,116,120098,5,0,3:0:0:0:
152,312,120275,2,0,P|188:284|204:240,1,90,14|0,0:0|3:0,0:0:0:0:
272,172,120628,1,2,0:0:0:0:
48,152,120804,1,8,0:0:0:0:
140,116,120980,1,8,3:0:0:0:
32,288,121157,1,8,1:3:0:0:
108,228,121333,1,0,3:0:0:0:
152,312,121510,6,0,P|201:254|191:183,1,135.000005149842,4|0,3:2|0:0,0:0:0:0:
108,228,122039,1,0,3:0:0:0:
32,288,122216,2,0,P|13:208|93:133,1,202.500007724762,8|0,0:0|3:0,0:0:0:0:
176,72,122922,5,0,0:0:0:0:
252,140,123098,2,0,P|325:141|370:76,1,135.000005149842,8|0,0:0|3:0,0:0:0:0:
288,68,123628,1,10,0:0:0:0:
252,140,123804,1,2,3:2:0:0:
259,221,123980,1,2,3:2:0:0:
319,275,124157,1,2,0:0:0:0:
396,248,124333,6,0,P|463:261|508:308,1,135.000005149842,2|0,3:2|0:0,0:0:0:0:
400,368,124863,1,0,3:0:0:0:
277,340,125039,2,0,P|243:284|259:221,1,135.000005149842,10|0,0:0|3:0,0:0:0:0:
259,221,125569,1,0,3:0:0:0:
160,312,125745,5,2,0:0:0:0:
80,332,125922,2,0,L|12:316,1,67.5000025749208,10|0,0:0|0:0,0:0:0:0:
184,192,126275,5,2,0:0:0:0:
104,212,126452,2,0,L|11:188,1,90.0000034332277,10|0,0:0|3:0,0:0:0:0:
28,84,126804,2,0,P|52:69|75:63,2,45.0000017166138,8|0|0,0:3|3:0|3:0,0:0:0:0:
156,96,127157,5,2,0:0:0:0:
312,52,127863,1,2,0:0:0:0:
128,8,128569,1,2,0:0:0:0:
396,0,129275,2,0,P|464:16|504:64,1,135,4|0,3:2|0:0,0:0:0:0:
340,132,129980,6,0,P|314:96|312:52,1,90,12|0,0:0|0:0,0:0:0:0:
396,284,130333,2,0,P|400:328|380:367,1,90,8|8,0:0|0:0,0:0:0:0:
108,124,130686,1,8,0:0:0:0:
271,200,130863,1,8,0:0:0:0:
195,363,131039,1,8,0:0:0:0:
31,287,131216,1,8,0:0:0:0:
151,243,131392,5,8,0:0:0:0:
304,312,131569,1,0,3:0:0:0:
476,160,131745,2,0,P|404:116|316:140,1,179.549992602768,12|8,0:0|0:0,0:0:0:0:
271,200,132098,1,0,3:0:0:0:
252,231,132186,1,8,0:0:0:0:
220,249,132275,1,8,0:0:0:0:
185,255,132363,1,8,0:0:0:0:
151,243,132451,5,0,3:0:0:0:
161,203,132539,1,8,0:0:0:0:
196,181,132628,1,8,0:0:0:0:
237,179,132716,1,8,0:0:0:0:
271,200,132804,6,0,P|352:219|422:161,1,180,4|8,3:2|0:0,0:0:0:0:
492,24,133333,2,0,P|440:4|396:12,1,90,2|0,0:0|3:0,0:0:0:0:
303,40,133686,2,0,P|308:84|332:121,1,90,0|8,3:0|0:0,0:0:0:0:
216,16,134039,1,2,0:0:0:0:
188,12,134128,1,0,0:0:0:0:
160,16,134216,6,0,L|72:32,1,90,0|2,3:0|0:0,0:0:0:0:
128,188,134569,2,0,L|216:172,1,90,8|2,0:0|0:0,0:0:0:0:
116,364,134922,1,0,3:0:0:0:
20,284,135098,1,0,3:0:0:0:
16,256,135186,1,0,0:0:0:0:
12,228,135275,1,8,0:0:0:0:
72,108,135451,1,2,0:0:0:0:
216,164,135628,6,0,P|214:218|192:252,1,90,0|2,3:0|0:0,0:0:0:0:
176,68,135980,1,8,0:0:0:0:
296,100,136157,1,2,0:0:0:0:
324,91,136245,1,0,0:0:0:0:
351,89,136334,1,0,3:0:0:0:
456,192,136510,1,0,3:0:0:0:
456,32,136686,1,8,0:0:0:0:
336,196,136863,1,2,0:0:0:0:
428,372,137039,6,0,P|467:350|489:312,1,90,0|2,3:0|0:0,0:0:0:0:
456,192,137392,1,8,0:0:0:0:
351,89,137569,1,2,0:0:0:0:
324,91,137657,1,0,0:0:0:0:
296,100,137745,2,0,P|256:121|234:159,1,90,0|0,3:0|3:0,0:0:0:0:
176,328,138098,1,8,0:0:0:0:
268,248,138275,5,8,0:0:0:0:
296,244,138363,1,8,0:0:0:0:
324,240,138451,2,0,L|368:240,1,45,0|0,3:0|3:0,0:0:0:0:
176,328,138804,6,0,B|116:332|116:332|68:308|68:308|0:300,1,179.549992602768,12|0,0:0|0:0,0:0:0:0:
48,224,139157,1,0,3:0:0:0:
196,68,139333,1,0,3:0:0:0:
220,208,139510,1,8,0:0:0:0:
104,148,139687,5,8,0:0:0:0:
76,152,139775,1,8,0:0:0:0:
48,156,139863,2,0,L|4:156,1,45,0|0,3:0|3:0,0:0:0:0:
196,68,140216,6,0,B|256:64|256:64|304:88|304:88|372:96,1,179.549992602768,12|0,0:0|0:0,0:0:0:0:
460,80,140569,1,0,3:0:0:0:
332,0,140745,1,0,3:0:0:0:
232,172,140922,1,8,0:0:0:0:
380,280,141098,1,2,0:0:0:0:
400,260,141186,1,8,0:0:0:0:
412,236,141275,6,0,P|384:196|340:184,1,90,4|2,3:2|0:0,0:0:0:0:
148,264,141627,1,8,0:0:0:0:
232,82,141804,2,0,L|232:172,1,90,2|0,0:0|3:0,0:0:0:0:
48,204,142157,1,0,3:0:0:0:
128,52,142333,1,8,0:0:0:0:
232,172,142510,1,0,0:0:0:0:
152,328,142686,5,12,0:0:0:0:
117,335,142774,1,8,0:0:0:0:
82,342,142862,1,8,0:0:0:0:
46,348,142950,1,8,0:0:0:0:
11,355,143038,1,0,3:0:0:0:
132,172,143215,1,4,3:2:0:0:
456,336,143569,5,4,3:2:0:0:
504,52,143745,1,8,0:0:0:0:
288,72,143922,1,8,0:0:0:0:
248,96,144010,1,8,0:0:0:0:
208,120,144098,6,0,L|184:208,1,90,4|2,3:2|0:0,0:0:0:0:
304,280,144451,1,8,0:0:0:0:
408,188,144627,2,0,P|464:184|496:200,1,90,2|0,0:0|3:0,0:0:0:0:
344,320,144980,1,0,3:0:0:0:
320,304,145069,1,0,0:0:0:0:
304,280,145157,2,0,L|300:188,1,90,8|2,0:0|0:0,0:0:0:0:
312,32,145510,6,0,P|352:56|368:96,1,90,0|2,3:0|0:0,0:0:0:0:
188,120,145863,2,0,P|148:96|132:56,1,90,8|2,0:0|0:0,0:0:0:0:
224,24,146216,1,0,3:0:0:0:
280,136,146392,1,0,3:0:0:0:
280,164,146480,1,0,0:0:0:0:
280,192,146569,2,0,L|276:284,1,90,8|2,0:0|0:0,0:0:0:0:
32,152,146922,6,0,L|35:62,1,90,4|2,3:2|0:0,0:0:0:0:
168,160,147275,1,8,0:0:0:0:
148,296,147451,2,0,P|100:311|53:307,1,90,2|0,0:0|3:0,0:0:0:0:
32,152,147804,1,0,3:0:0:0:
56,136,147892,1,0,0:0:0:0:
82,132,147980,2,0,L|168:160,1,90,8|2,0:0|0:0,0:0:0:0:
352,288,148333,5,4,3:2:0:0:
464,208,148510,1,0,3:0:0:0:
465,171,148598,1,0,3:0:0:0:
467,134,148686,1,8,0:0:0:0:
360,24,148863,1,0,3:0:0:0:
362,61,148951,1,0,3:0:0:0:
363,98,149039,1,8,0:0:0:0:
252,212,149216,1,0,3:0:0:0:
253,175,149304,1,0,3:0:0:0:
255,138,149392,2,0,L|256:72,2,60,8|8|8,0:0|0:0|0:0,0:0:0:0:
356,192,149750,5,2,0:0:0:0:
156,284,151161,5,2,0:0:0:0:
64,144,151691,1,0,3:0:0:0:
64,144,151779,1,0,3:0:0:0:
64,144,151867,2,0,P|110:73|185:67,1,161.999995056153,12|0,0:0|0:0,0:0:0:0:
181,65,152573,5,12,0:0:0:0:
312,280,152926,2,0,P|288:312|260:324,1,72,8|8,0:0|0:0,0:0:0:0:
408,172,153279,2,0,P|457:177|488:200,1,90,8|8,0:0|0:0,0:0:0:0:
280,136,153632,2,0,P|256:80|261:34,1,107.999996704102,8|8,0:0|0:0,0:0:0:0:
408,284,153985,5,12,0:0:0:0:
88,240,154161,1,12,0:0:0:0:
256,192,154338,12,2,155397,0:0:0:0:
460,268,166691,6,0,L|460:336,1,67.5000025749208,2|0,0:0|0:0,0:0:0:0:
376,228,167044,2,0,L|376:160,1,67.5000025749208,2|0,0:0|0:0,0:0:0:0:
304,276,167397,1,2,0:0:0:0:
52,268,167750,1,2,0:0:0:0:
232,216,168102,5,2,0:0:0:0:
276,148,168455,1,0,0:0:0:0:
216,92,168808,2,0,L|80:76,1,135.000005149842,2|0,0:0|0:0,0:0:0:0:
16,136,169338,1,2,0:0:0:0:
52,268,169514,6,0,L|52:336,1,67.5000025749208,2|0,0:0|0:0,0:0:0:0:
136,228,169867,2,0,L|136:160,1,67.5000025749208,2|0,0:0|0:0,0:0:0:0:
208,276,170220,1,2,0:0:0:0:
280,244,170397,1,0,0:0:0:0:
344,288,170573,1,2,0:0:0:0:
396,228,170750,1,2,0:0:0:0:
392,152,170926,6,0,B|430:103|375:66|404:24,2,135.000005149842,2|0|2,0:0|0:0|0:0,0:0:0:0:
396,228,171808,1,0,0:0:0:0:
468,260,171985,1,0,0:0:0:0:
312,112,172338,6,0,B|192:36|116:128|116:188|116:188|120:240|112:300|240:220|216:328|136:428|20:416|-16:328|12:212|-60:84|64:132|124:148|188:76|278:164|232:248,1,945.000036048891,2|0,0:0|0:0,0:0:0:0:
252,324,174985,1,2,0:0:0:0:
328,368,175161,6,0,P|416:360|464:288,1,179.549992602768,4|0,3:2|0:0,0:0:0:0:
463,289,175514,1,8,0:0:0:0:
328,208,175691,2,0,P|199:192|172:88,1,239.399990137024,4|0,3:2|3:0,0:0:0:0:
448,24,176220,2,0,L|508:12,2,59.8499975342561,8|8|0,0:0|0:0|3:0,0:0:0:0:
272,120,176573,6,0,P|208:180|200:268,1,179.549992602768,4|0,3:2|0:0,0:0:0:0:
199,267,176926,1,8,0:0:0:0:
12,104,177102,2,0,P|96:20|212:16,1,239.399990137024,4|0,3:2|3:0,0:0:0:0:
252,44,177544,1,8,0:0:0:0:
272,88,177632,1,8,0:0:0:0:
271,136,177720,1,8,0:0:0:0:
248,178,177808,1,8,0:0:0:0:
204,200,177897,1,8,0:0:0:0:
160,196,177977,6,0,L|140:104,1,90,4|2,3:2|0:0,0:0:0:0:
348,260,178329,2,0,L|328:347,1,90,8|2,0:0|0:0,0:0:0:0:
364,96,178682,2,0,P|416:88|456:100,1,90,0|2,3:0|0:0,0:0:0:0:
188,328,179035,2,0,P|136:336|96:324,1,90,8|2,0:0|0:0,0:0:0:0:
20,136,179388,6,0,P|98:124|158:142,1,135,0|0,3:0|0:0,0:0:0:0:
151,138,179741,1,8,0:0:0:0:
252,184,179918,2,0,P|300:168|328:136,1,90,2|0,0:0|3:0,0:0:0:0:
344,248,180271,2,0,P|393:258|433:244,1,90,2|8,0:0|0:0,0:0:0:0:
412,356,180624,1,0,0:0:0:0:
412,356,180712,1,0,0:0:0:0:
412,356,180800,6,0,P|328:329|251:369,1,180,0|8,3:0|0:0,0:0:0:0:
156,320,181329,1,2,0:0:0:0:
76,252,181506,2,0,P|68:204|88:168,1,90,0|2,3:0|0:0,0:0:0:0:
112,132,181771,2,0,P|141:63|115:11,1,135,2|2,0:0|0:0,0:0:0:0:
156,216,182212,6,0,P|203:211|240:180,1,90,0|2,3:0|0:0,0:0:0:0:
55,68,182565,1,8,0:0:0:0:
76,252,182741,1,2,0:0:0:0:
80,288,182829,1,2,0:0:0:0:
100,318,182918,6,0,P|116:333|136:344,1,45,6|2,3:2|0:0,0:0:0:0:
280,168,183094,2,0,P|265:184|254:204,1,45,10|10,0:0|0:0,0:0:0:0:
264,356,183271,2,0,P|280:371|300:382,1,45,0|2,3:0|0:0,0:0:0:0:
128,192,183447,2,0,P|112:177|92:166,1,45,0|2,0:0|0:0,0:0:0:0:
200,280,183624,6,0,L|380:268,1,179.549992602768,6|8,3:2|0:0,0:0:0:0:
472,192,183977,1,8,0:0:0:0:
344,320,184153,6,0,L|164:308,1,179.549992602768,6|8,3:2|0:0,0:0:0:0:
84,268,184506,2,0,P|75:233|76:208,1,59.8499975342561,8|2,0:0|0:0,0:0:0:0:
212,32,184682,1,10,0:0:0:0:
236,72,184771,1,10,0:0:0:0:
233,120,184859,1,2,3:2:0:0:
205,158,184947,1,2,0:0:0:0:
160,172,185035,6,0,L|0:92,1,179.549992602768,4|8,3:2|0:0,0:0:0:0:
40,8,185388,1,8,0:0:0:0:
184,100,185565,6,0,L|343:180,1,119.699995068512,4|8,3:2|0:0,0:0:0:0:
348,212,185829,1,8,0:3:0:0:
348,212,185918,2,0,P|351:256|344:284,1,59.8499975342561,2|2,3:2|0:0,0:0:0:0:
300,332,186094,6,0,L|256:340,2,39.8999983561707,8|2|2,0:0|0:0|0:0,0:0:0:0:
236,240,186271,2,0,L|280:248,2,39.8999983561707,2|2|0,0:0|0:0|0:0,0:0:0:0:
160,308,186447,6,0,P|116:285|100:248,1,90,4|0,3:2|0:0,0:0:0:0:
204,144,186689,6,0,L|304:152,1,90,14|0,0:0|0:0,0:0:0:0:
104,176,186931,6,0,L|4:184,1,90,10|0,0:0|0:0,0:0:0:0:
80,40,187174,6,0,P|124:63|140:100,1,90,4|0,3:2|0:0,0:0:0:0:
272,236,187416,6,0,L|182:228,1,90,14|0,0:0|0:0,0:0:0:0:
14,183,187659,6,0,L|104:176,1,90,10|4,0:0|3:2,0:0:0:0:
352,192,200578,6,0,P|420:176|460:128,1,135.000005149842,2|0,0:0|0:0,0:0:0:0:
255,23,201283,2,0,P|320:37|364:88,1,135.000005149842,2|0,3:2|0:0,0:0:0:0:
268,128,201813,1,0,0:0:0:0:
168,156,201989,2,0,L|100:124,1,67.5000025749208,2|0,0:0|3:0,0:0:0:0:
188,296,202519,2,0,L|120:264,1,67.5000025749208,0|2,0:0|3:2,0:0:0:0:
304,264,203048,2,0,L|365:292,1,67.5000025749208,0|0,0:0|0:0,0:0:0:0:
444,228,203401,6,0,P|466:305|445:358,2,135.000005149842,2|0|2,0:0|0:0|3:2,0:0:0:0:
256,192,204460,1,0,0:0:0:0:
148,80,204813,2,0,P|140:40|148:12,1,67.5000025749208,2|0,0:0|3:0,0:0:0:0:
365,14,205342,2,0,P|372:47|364:80,1,67.5000025749208,0|2,0:0|3:2,0:0:0:0:
256,192,206225,5,2,0:0:0:0:
148,304,207636,5,2,0:0:0:0:
364,304,209048,5,2,0:0:0:0:
364,80,210460,5,2,0:0:0:0:
148,80,211166,6,0,P|70:108|51:178,1,161.999995056153,4|0,3:2|0:0,0:0:0:0:
51,178,211872,5,12,0:0:0:0:
364,336,212225,2,0,P|412:328|432:316,1,72,8|8,0:0|0:0,0:0:0:0:
220,272,212578,2,0,P|172:256|144:225,1,90,8|8,0:0|0:0,0:0:0:0:
396,168,212930,2,0,P|447:135|469:91,1,107.999996704102,8|8,0:0|0:0,0:0:0:0:
223,180,213274,1,8,0:0:0:0:
379,257,213450,1,0,3:0:0:0:
368,68,213626,6,0,L|208:48,1,135,12|8,0:0|0:0,0:0:0:0:
160,72,213979,1,10,0:0:0:0:
160,72,214068,2,0,L|156:116,2,45,10|10|10,0:0|0:0|0:0,0:0:0:0:
256,172,214332,2,0,L|252:126,2,30,8|0|0,0:0|3:0|3:0,0:0:0:0:
184,236,214509,2,0,L|181:265,2,30,8|0|0,0:0|3:0|3:0,0:0:0:0:
136,156,214685,6,0,L|77:143,2,60,4|4|4,3:0|3:0|3:0,0:0:0:0:
300,248,215038,2,0,P|340:176|296:92,1,180,12|8,0:0|0:0,0:0:0:0:
256,172,215479,1,2,0:0:0:0:
256,172,215568,1,2,0:0:0:0:
256,172,215656,1,2,0:0:0:0:
256,172,215744,5,8,0:0:0:0:
300,174,215832,1,10,0:0:0:0:
345,177,215920,1,8,0:0:0:0:
390,180,216008,1,10,0:0:0:0:
442,178,216097,6,2,B|536:120|460:56|412:112|536:188|520:240|456:270,1,270.000010299683,4|0,3:2|0:0,0:0:0:0:
284,328,217516,6,0,L|180:324,1,90,4|2,3:2|0:0,0:0:0:0:
68,256,217868,1,8,0:0:0:0:
152,192,218045,2,0,P|182:159|192:112,1,90,2|0,0:0|3:0,0:0:0:0:
88,40,218398,1,0,3:0:0:0:
88,76,218486,1,0,0:0:0:0:
90,112,218574,1,8,0:0:0:0:
192,28,218751,1,2,0:0:0:0:
356,100,218927,6,0,L|264:92,1,90,0|2,3:0|0:0,0:0:0:0:
152,192,219280,2,0,L|241:199,1,90,8|2,0:0|0:0,0:0:0:0:
276,216,219545,1,0,0:0:0:0:
304,240,219633,1,0,3:0:0:0:
236,324,219810,1,0,3:0:0:0:
412,196,219986,1,8,0:0:0:0:
380,344,220163,1,2,0:0:0:0:
416,351,220251,1,0,0:0:0:0:
452,344,220339,6,0,P|491:314|504:276,1,90,0|2,3:0|0:0,0:0:0:0:
472,112,220692,1,8,0:0:0:0:
304,240,220868,2,0,L|416:248,1,90,2|0,0:0|3:0,0:0:0:0:
400,60,221221,1,0,0:0:0:0:
364,60,221310,1,0,0:0:0:0:
329,70,221398,2,0,P|290:100|277:138,1,90,8|2,0:0|0:0,0:0:0:0:
144,340,221751,6,0,L|40:304,1,90,0|2,3:0|0:0,0:0:0:0:
152,184,222104,1,8,0:0:0:0:
232,240,222280,2,0,P|244:288|232:328,1,90,2|4,0:0|3:2,0:0:0:0:
40,220,222633,2,0,L|84:220,1,45,8|8,0:0|0:0,0:0:0:0:
152,184,222810,1,0,3:0:0:0:
224,24,222986,6,0,L|180:24,1,45,8|8,0:0|0:0,0:0:0:0:
112,60,223163,1,0,3:0:0:0:
220,136,223339,2,0,L|264:136,1,45,0|0,3:0|0:0,0:0:0:0:
265,136,223516,6,0,B|196:120|196:120|148:148|148:148|96:160,1,179.549992602768,12|0,0:0|0:0,0:0:0:0:
32,96,223868,1,0,3:0:0:0:
88,320,224045,2,0,L|132:320,1,45,2|2,0:0|0:0,0:0:0:0:
200,284,224222,1,8,0:0:0:0:
320,204,224398,6,0,L|288:204,2,30,8|8|0,0:0|3:0|3:0,0:0:0:0:
392,236,224574,1,0,3:0:0:0:
328,344,224751,2,0,L|284:344,1,45,0|0,3:0|0:0,0:0:0:0:
283,344,224928,6,0,B|352:328|352:328|400:356|400:356|452:368,1,179.549992602768,12|0,0:0|0:0,0:0:0:0:
512,300,225280,1,0,3:0:0:0:
408,96,225457,1,2,0:0:0:0:
320,204,225633,1,8,0:0:0:0:
452,192,225810,1,2,0:0:0:0:
480,172,225898,1,8,0:0:0:0:
503,144,225986,6,0,P|514:91|495:48,1,90,4|2,3:2|0:0,0:0:0:0:
408,96,226339,1,8,0:0:0:0:
308,112,226516,2,0,P|307:67|329:29,1,90,2|0,0:0|3:0,0:0:0:0:
452,192,226868,1,0,3:0:0:0:
320,204,227045,2,0,L|224:200,1,90,8|2,0:0|1:2,0:0:0:0:
56,120,227398,6,0,L|56:72,1,45,12|8,0:0|0:0,0:0:0:0:
132,184,227574,2,0,L|132:232,1,45,8|8,0:0|0:0,0:0:0:0:
20,224,227751,1,8,0:0:0:0:
208,36,227927,1,4,3:2:0:0:
304,348,228280,5,4,3:2:0:0:
132,229,228457,1,8,0:0:0:0:
372,160,228633,1,8,0:0:0:0:
412,140,228721,1,8,0:0:0:0:
456,124,228810,6,0,L|504:128,1,45,0|0,3:0|3:0,0:0:0:0:
500,127,229163,6,0,L|380:164,1,119.699995068512,12|0,0:0|0:0,0:0:0:0:
248,280,229516,2,0,P|187:313|164:360,1,119.699995068512,8|0,0:0|3:0,0:0:0:0:
164,27,229868,2,0,P|194:78|248:103,1,119.699995068512,8|0,0:0|3:0,0:0:0:0:
180,192,230221,6,0,L|60:192,1,119.699995068512,8|0,0:0|3:0,0:0:0:0:
332,192,230574,2,0,L|452:192,1,119.699995068512,8|0,0:0|3:0,0:0:0:0:
256,12,230927,2,0,P|236:72|256:132,1,119.699995068512,8|0,0:0|3:0,0:0:0:0:
261,259,231280,2,0,P|275:316|256:372,1,119.699995068512,8|0,0:0|3:0,0:0:0:0:
328,72,231633,6,0,B|388:88|388:88|432:132,1,119.699995068512,12|0,0:0|3:0,0:0:0:0:
184,312,231986,2,0,B|124:296|124:296|80:252,1,119.699995068512,8|0,0:0|3:0,0:0:0:0:
340,176,232339,2,0,L|424:260,1,119.699995068512,8|0,0:0|3:0,0:0:0:0:
172,208,232692,2,0,L|88:124,1,119.699995068512,8|0,0:0|3:0,0:0:0:0:
256,16,233045,5,12,0:0:0:0:
256,60,233133,1,8,0:0:0:0:
256,104,233221,1,8,0:0:0:0:
256,148,233310,1,8,0:0:0:0:
256,192,233398,1,0,3:0:0:0:
256,368,233574,2,0,L|256:248,1,119.699995068512,10|0,0:0|3:0,0:0:0:0:
256,16,233927,6,2,B|188:80|340:132|256:192,1,202.500007724762,12|2,0:0|0:0,0:0:0:0:
128,148,235868,5,2,0:0:0:0:
364,40,236398,1,0,3:0:0:0:
364,40,236486,1,0,3:0:0:0:
364,40,236574,2,0,P|440:4|512:24,1,161.999995056153,12|0,0:0|0:0,0:0:0:0:
511,23,237280,5,12,0:0:0:0:
440,228,237633,1,0,1:0:0:0:
332,116,237810,2,0,L|280:116,1,36,0|0,3:0|3:0,0:0:0:0:
208,116,237986,1,0,1:0:0:0:
44,332,238163,2,0,L|104:332,1,45,0|0,3:0|3:0,0:0:0:0:
180,332,238339,1,0,1:0:0:0:
312,228,238516,2,0,L|256:228,1,53.9999983520508
136,228,238692,5,12,0:0:0:0:
456,116,238868,1,12,0:0:0:0:
256,192,240104,12,0,241163,0:0:0:0:
344,20,241516,6,0,P|408:80|412:172,1,180,4|8,3:2|0:0,0:0:0:0:
344,252,242045,1,0,0:0:0:0:
256,184,242221,2,0,L|160:184,1,90,0|0,3:0|3:0,0:0:0:0:
28,248,242574,1,8,0:0:0:0:
68,144,242751,1,2,0:0:0:0:
182,280,242927,6,0,B|258:280|258:280|277:338|344:344,1,180,0|8,3:0|0:0,0:0:0:0:
452,272,243457,1,0,0:0:0:0:
496,176,243633,2,0,P|501:126|484:92,1,90,0|2,3:0|3:2,0:0:0:0:
388,144,243986,2,0,P|347:114|309:112,1,90,8|2,0:0|0:0,0:0:0:0:
156,196,244339,6,0,P|232:240|316:208,1,180,4|8,3:2|0:0,0:0:0:0:
344,20,244868,1,2,0:0:0:0:
238,48,245045,2,0,L|242:144,1,90,0|0,3:0|3:0,0:0:0:0:
388,144,245398,1,8,0:0:0:0:
238,48,245574,1,2,0:0:0:0:
212,40,245663,1,0,0:0:0:0:
184,40,245751,6,0,P|136:44|100:64,1,90,0|0,3:0|3:0,0:0:0:0:
69,97,246015,1,0,3:0:0:0:
56,140,246104,2,0,P|72:200|60:232,1,99.0000030212403,10|2,0:0|0:0,0:0:0:0:
32,274,246368,1,8,0:0:0:0:
48,322,246457,2,0,L|212:360,1,161.999995056153,2|8,3:2|0:0,0:0:0:0:
248,280,246810,1,0,3:0:0:0:
464,332,246986,1,8,0:0:0:0:
426,352,247074,1,8,0:0:0:0:
382,352,247163,6,0,P|340:272|392:200,1,180,4|8,3:2|0:0,0:0:0:0:
488,296,247692,1,0,0:0:0:0:
248,280,247868,2,0,L|120:264,1,90,0|0,3:0|3:0,0:0:0:0:
200,96,248221,1,8,0:0:0:0:
344,64,248398,1,2,0:0:0:0:
344,64,248486,1,0,0:0:0:0:
344,64,248574,6,0,P|440:60|508:104,1,180,4|8,3:2|0:0,0:0:0:0:
436,232,249104,1,0,0:0:0:0:
320,168,249280,2,0,P|268:172|240:196,1,90,0|0,3:0|3:0,0:0:0:0:
272,352,249633,2,0,P|324:348|352:324,1,90,8|2,0:0|0:0,0:0:0:0:
168,284,249986,5,4,3:2:0:0:
168,284,250074,1,2,0:0:0:0:
168,284,250163,2,0,L|76:284,1,90,8|8,0:0|0:0,0:0:0:0:
16,168,250515,1,0,3:0:0:0:
16,168,250603,1,2,0:0:0:0:
16,168,250692,2,0,L|108:168,1,90,8|2,0:0|0:0,0:0:0:0:
168,40,251045,2,0,L|76:40,1,90,8|2,0:0|0:0,0:0:0:0:
78,40,251310,1,8,0:0:0:0:
78,40,251398,5,0,3:0:0:0:
212,168,251574,1,8,0:0:0:0:
352,56,251751,1,0,3:0:0:0:
387,53,251839,1,8,0:0:0:0:
421,63,251927,1,8,0:3:0:0:
449,86,252015,1,0,3:0:0:0:
467,117,252103,1,10,0:0:0:0:
412,304,252280,1,0,3:0:0:0:
376,304,252368,1,8,0:0:0:0:
348,280,252457,1,8,0:0:0:0:
336,246,252545,1,8,0:0:0:0:
341,211,252633,2,0,L|376:153,1,67.5000025749208,4|2,3:0|0:0,0:0:0:0:
512,284,254221,5,2,0:0:0:0:
284,372,254755,1,0,3:0:0:0:
284,372,254844,1,0,3:0:0:0:
284,372,254933,2,0,P|198:336|181:274,1,161.999995056153,12|0,0:0|0:0,0:0:0:0:
181,275,255645,5,12,0:0:0:0:
348,56,255997,2,0,L|384:119,1,72,8|8,0:0|0:0,0:0:0:0:
112,136,256350,2,0,L|158:56,1,90,8|8,0:0|0:0,0:0:0:0:
289,275,256703,2,0,L|181:275,1,107.999996704102,8|8,0:0|0:0,0:0:0:0:
348,56,257056,5,12,0:0:0:0:
181,275,257233,1,12,0:0:0:0:
256,192,257321,12,4,259880,3:2:0:0:
256,192,259968,12,0,266939,0:0:0:0:
