osu file format v14

[General]
AudioFilename: yeah.mp3
AudioLeadIn: 0
PreviewTime: 56215
Countdown: 0
SampleSet: Soft
StackLeniency: 0.7
Mode: 0
LetterboxInBreaks: 0
WidescreenStoryboard: 0

[Editor]
DistanceSpacing: 1.2
BeatDivisor: 4
GridSize: 4
TimelineZoom: 2.7

[Metadata]
Title:Kakumeisei ousama densenbyou
TitleUnicode:革命性:オウサマ伝染病
Artist:Suzumu
ArtistUnicode:スズム
Creator:tutuhaha
Version:Easy
Source:
Tags:おればなな AngelHoney Frey おればななP orebananaP Kagamine Len 鏡音レン Vocaloid orebanana-P Revolutionary: The Great King Epidemic さいね yasu niconico sm25482576 Youkame Ame ga Yamu Mae ni 八日目、雨が止む前に。
BeatmapID:688428
BeatmapSetID:307686

[Difficulty]
HPDrainRate:3
CircleSize:2
OverallDifficulty:3
ApproachRate:4
SliderMultiplier:0.8
SliderTickRate:1

[Events]
//Background and Video events
0,0,"BG.jpg",0,0
Video,0,"optc.flv"
//Break Periods
2,75914,83995
//Storyboard Layer 0 (Background)
//Storyboard Layer 1 (Fail)
//Storyboard Layer 2 (Pass)
//Storyboard Layer 3 (Foreground)
//Storyboard Sound Samples

[TimingPoints]
1315,300,4,2,1,50,1,0
10315,-100,4,2,1,30,0,0
10465,-100,4,2,1,5,0,0
14365,-100,4,2,1,50,0,0
15715,-100,4,1,2,70,0,0
25315,-100,4,1,1,50,0,0
27115,-100,4,2,1,50,0,0
27715,-100,4,1,1,60,0,0
46915,-100,4,1,2,70,0,0
56215,-100,4,2,1,40,0,0
56515,-100,4,1,2,80,0,1
75715,-100,4,1,2,70,0,0
85315,-100,4,1,1,50,0,0
95215,-100,4,1,2,60,0,0
95290,-100,4,1,1,60,0,0
95815,-100,4,1,2,60,0,0
95890,-100,4,1,1,60,0,0
96415,-100,4,1,2,60,0,0
96490,-100,4,1,1,60,0,0
97015,-100,4,1,2,60,0,0
97090,-100,4,1,1,60,0,0
97615,-100,4,1,2,60,0,0
97690,-100,4,1,1,60,0,0
98215,-100,4,1,2,60,0,0
98290,-100,4,1,1,60,0,0
98815,-100,4,1,2,60,0,0
98890,-100,4,1,1,60,0,0
99265,-100,4,1,2,60,0,0
99565,-100,4,1,1,60,0,0
100015,-100,4,1,2,60,0,0
100090,-100,4,1,1,60,0,0
100615,-100,4,1,2,60,0,0
100690,-100,4,1,1,60,0,0
101215,-100,4,1,2,60,0,0
101290,-100,4,1,1,60,0,0
101815,-100,4,1,2,60,0,0
101890,-100,4,1,1,60,0,0
102415,-100,4,1,2,60,0,0
102490,-100,4,1,1,60,0,0
103015,-100,4,1,2,60,0,0
103090,-100,4,1,1,60,0,0
104065,-100,4,1,2,60,0,0
104515,-100,4,1,2,70,0,0
114115,-100,4,1,2,70,0,1
133315,-100,4,1,2,70,0,0
153715,-100,4,1,2,70,0,1
172915,-100,4,2,1,40,0,0
174715,-100,4,1,2,70,0,0
184915,-100,4,1,1,50,0,0
187015,-100,4,1,2,70,0,0
187090,-100,4,1,1,50,0,0
189265,-100,4,1,2,70,0,0
189715,-100,4,1,1,50,0,0
191815,-100,4,1,2,70,0,0
191890,-100,4,1,1,50,0,0
194065,-100,4,1,1,70,0,0
194515,-100,4,2,1,70,0,0
196615,-100,4,2,1,20,0,0

[Colours]
Combo1 : 108,217,0
Combo2 : 255,0,128
Combo3 : 255,203,26
Combo4 : 0,128,255

[HitObjects]
104,36,1315,5,4,0:1:0:0:
4,200,1915,1,4,0:1:0:0:
168,304,2515,2,0,P|216:304|256:316,1,79.9999999999999,4|4,0:1|0:1,0:0:0:0:
340,340,3115,2,0,P|336:272|264:216,1,160,4|4,0:1|0:1,0:0:0:0:
104,116,4315,5,4,0:1:0:0:
280,40,4915,2,0,L|368:40,1,79.9999999999999,4|4,0:1|0:1,0:0:0:0:
456,56,5515,2,0,P|432:108|340:136,1,160,4|4,0:1|0:1,0:0:0:0:
152,100,6715,5,4,0:1:0:0:
100,284,7315,2,0,P|88:328|96:372,1,79.9999999999999,4|4,0:1|0:1,0:0:0:0:
184,332,7915,2,0,P|236:284|324:288,1,160,4|4,0:1|0:1,0:0:0:0:
496,208,9115,5,4,0:1:0:0:
344,88,9715,2,4,L|248:88,1,79.9999999999999,4|4,0:1|0:1,0:1:0:0:
168,88,10315,1,4,0:1:0:0:
256,192,10465,12,4,14365,0:1:0:0:
72,320,15715,6,0,P|64:280|80:232,1,79.9999999999999,4|0,0:0|0:0,0:0:0:0:
156,192,16315,2,0,L|160:104,1,79.9999999999999,0|8,0:0|0:0,0:0:0:0:
232,48,16915,2,0,P|272:76|376:56,1,160
468,24,17815,1,8,0:0:0:0:
452,120,18115,6,0,P|476:160|484:200,1,79.9999999999999
436,276,18715,2,0,L|416:360,1,79.9999999999999,0|8,0:0|0:0,0:0:0:0:
328,320,19315,2,0,P|288:256|192:248,2,160,0|0|4,0:0|0:0|0:0,0:0:0:0:
232,340,20815,5,0,0:0:0:0:
140,308,21115,2,0,P|116:264|116:224,1,79.9999999999999,0|8,0:0|0:0,0:0:0:0:
32,188,21715,2,0,L|80:120,1,79.9999999999999
156,68,22315,2,0,P|220:76|312:28,1,160
380,96,23215,5,0,0:0:0:0:
300,152,23515,2,0,P|260:164|208:168,1,80,0|8,0:0|0:0,0:0:0:0:
128,160,24115,2,0,P|116:208|120:248,1,79.9999999999999
164,320,24715,2,0,L|252:332,1,79.9999999999999,0|8,0:0|0:0,0:0:0:0:
340,344,25315,5,4,0:1:0:0:
436,360,25615,1,4,0:1:0:0:
504,292,25915,2,0,P|476:272|428:264,1,79.9999999999999,4|4,0:1|0:1,0:0:0:0:
416,168,26515,2,0,L|436:32,2,120,4|0|2,0:1|0:1|0:0,0:0:0:0:
320,164,27715,6,0,L|324:252,1,79.9999999999999
228,260,28315,2,0,P|192:308|120:328,2,120
216,164,29515,2,0,L|212:84,1,79.9999999999999
120,56,30115,6,0,P|84:44|32:52,2,79.9999999999999
72,140,31015,1,0,0:0:0:0:
96,232,31315,2,0,L|112:312,1,79.9999999999999
204,292,31915,2,0,L|188:213,1,79.9999999999999
196,120,32515,6,0,P|208:80|240:52,1,79.9999999999999
328,36,33115,2,0,P|376:64|444:60,2,120
296,128,34315,2,0,P|332:148|384:156,1,79.9999999999999
468,156,34915,6,0,P|460:192|468:244,1,79.9999999999999
380,280,35515,2,0,P|388:316|380:368,1,79.9999999999999
296,320,36115,2,0,P|224:308|140:364,1,160
56,372,37015,1,0,0:0:0:0:
44,276,37315,6,0,L|32:184,1,79.9999999999999,4|0,0:0|0:0,0:0:0:0:
100,128,37915,2,0,L|88:36,1,79.9999999999999,4|0,0:0|0:0,0:0:0:0:
184,32,38515,2,0,L|272:24,1,79.9999999999999,4|0,0:0|0:0,0:0:0:0:
312,108,39115,2,0,L|400:100,1,79.9999999999999,4|0,0:0|0:0,0:0:0:0:
488,100,39715,6,0,P|480:60|456:28,2,79.9999999999999,4|0|4,0:0|0:0|0:0,0:0:0:0:
440,184,40615,1,0,0:0:0:0:
396,268,40915,2,0,L|428:348,1,79.9999999999999,4|0,0:0|0:0,0:0:0:0:
328,352,41515,2,0,L|298:277,1,79.9999999999999,4|0,0:0|0:0,0:0:0:0:
264,188,42115,5,4,0:0:0:0:
204,260,42415,1,0,0:0:0:0:
124,312,42715,2,0,P|80:328|32:324,1,79.9999999999999,4|0,0:0|0:0,0:0:0:0:
68,232,43315,2,0,P|60:188|36:148,1,79.9999999999999,4|0,0:0|0:0,0:0:0:0:
44,60,43915,2,0,L|128:72,1,79.9999999999999,4|0,0:0|0:0,0:0:0:0:
212,40,44515,6,0,P|248:60|368:32,1,160,4|4,0:0|0:0,0:0:0:0:
456,24,45415,1,0,0:0:0:0:
476,120,45715,2,0,L|496:208,2,79.9999999999999,4|0|4,0:0|0:0|0:0,0:0:0:0:
384,144,46615,1,0,0:0:0:0:
408,236,46915,6,0,L|428:324,1,79.9999999999999
336,344,47515,2,0,P|300:324|180:344,1,160
92,360,48415,1,0,0:0:0:0:
4,324,48715,2,0,P|24:292|64:268,1,79.9999999999999
48,176,49315,6,0,L|24:84,1,79.9999999999999
108,44,49915,2,0,P|196:56|268:24,1,160
332,92,50815,1,0,0:0:0:0:
256,152,51115,2,0,P|216:168|172:172,1,79.9999999999999
108,236,51715,6,0,L|180:288,1,79.9999999999999,4|0,0:0|0:0,0:0:0:0:
252,336,52315,2,0,P|328:316|416:340,1,160
496,364,53215,1,0,0:0:0:0:
480,268,53515,2,0,P|448:228|416:208,1,79.9999999999999
8,92,55165,6,0,B|84:92|84:92|108:120|144:140|188:128|208:120,1,200,4|0,0:0|0:0,0:0:0:0:
164,32,56215,1,0,0:0:0:0:
260,52,56515,6,0,P|288:96|292:136,1,79.9999999999999,4|0,0:0|0:0,0:0:0:0:
248,208,57115,2,0,L|340:232,1,79.9999999999999,0|8,0:0|0:0,0:0:0:0:
420,248,57715,2,0,P|460:228|484:192,2,79.9999999999999
356,320,58615,1,8,0:0:0:0:
260,332,58915,6,0,L|172:340,1,79.9999999999999
100,288,59515,2,0,L|12:296,1,79.9999999999999,0|8,0:0|0:0,0:0:0:0:
32,200,60115,2,0,P|48:120|0:44,1,160
100,16,61015,1,8,0:0:0:0:
144,100,61315,6,0,P|184:120|308:100,1,160,4|0,0:0|0:0,0:0:0:0:
372,48,62215,1,8,0:0:0:0:
468,64,62515,2,0,L|456:144,1,79.9999999999999
368,180,63115,2,0,P|396:216|412:256,1,79.9999999999999,0|8,0:0|0:0,0:0:0:0:
436,340,63715,6,0,L|344:360,1,79.9999999999999
288,288,64315,2,0,L|196:308,1,79.9999999999999,0|8,0:0|0:0,0:0:0:0:
116,332,64915,1,0,0:0:0:0:
24,352,65215,1,0,0:0:0:0:
52,260,65515,2,0,P|48:224|28:172,1,79.9999999999999,0|8,0:0|0:0,0:0:0:0:
44,88,66115,6,0,P|76:52|120:32,1,79.9999999999999,4|8,0:0|0:0,0:0:0:0:
192,72,66715,2,0,P|240:96|284:100,1,79.9999999999999,0|8,0:0|0:0,0:0:0:0:
348,48,67315,2,0,L|436:40,1,79.9999999999999
476,124,67915,2,0,P|436:160|428:268,1,160,8|4,0:0|0:0,0:0:0:0:
468,348,68815,5,0,0:0:0:0:
372,344,69115,2,0,L|288:340,1,79.9999999999999,0|8,0:0|0:0,0:0:0:0:
196,324,69715,2,0,P|208:288|248:252,2,79.9999999999999
104,352,70615,1,8,0:0:0:0:
48,276,70915,6,0,P|32:204|64:116,1,160,4|0,0:0|0:0,0:0:0:0:
128,56,71815,1,8,0:0:0:0:
184,132,72115,2,0,P|192:176|180:224,1,79.9999999999999
144,296,72715,2,0,L|216:356,1,79.9999999999999,0|8,0:0|0:0,0:0:0:0:
292,308,73315,6,0,P|364:292|444:320,1,160
472,228,74215,1,8,0:0:0:0:
492,136,74515,2,0,L|512:48,1,79.9999999999999,4|0,0:0|0:0,0:0:0:0:
416,44,75115,2,0,P|356:32|272:88,1,160,0|4,0:0|0:0,0:0:0:0:
456,48,85315,6,0,L|424:136,1,80,4|0,0:0|0:0,0:0:0:0:
384,208,85915,2,0,P|328:188|260:212,2,120,4|0|0,0:0|0:0|0:0,0:0:0:0:
324,284,87115,2,0,L|368:360,1,80,4|0,0:0|0:0,0:0:0:0:
440,292,87715,6,0,P|476:256|484:216,1,80,4|0,0:0|0:0,0:0:0:0:
452,140,88315,2,0,L|488:24,2,120,4|0|0,0:0|0:0|0:0,0:0:0:0:
368,92,89515,2,0,P|356:116|360:168,1,80,4|0,0:0|0:0,0:0:0:0:
268,196,90115,6,0,L|184:208,1,80,4|0,0:0|0:0,0:0:0:0:
120,140,90715,2,0,P|88:88|24:68,2,120,4|0|0,0:0|0:0|0:0,0:0:0:0:
28,164,91915,2,0,L|44:248,1,80,4|0,0:0|0:0,0:0:0:0:
68,336,92515,6,0,P|112:348|152:344,1,80,4|0,0:0|0:0,0:0:0:0:
240,352,93115,2,0,P|284:340|324:344,1,80,4|0,0:0|0:0,0:0:0:0:
412,352,93715,1,4,0:0:0:0:
508,368,94015,1,0,0:0:0:0:
476,276,94315,2,0,L|496:196,1,80,4|0,0:0|0:0,0:0:0:0:
412,152,94915,6,0,L|392:229,1,80,4|8,0:0|0:0,0:0:0:0:
304,268,95515,2,0,P|268:248|220:244,1,80,4|8,0:0|0:0,0:0:0:0:
152,296,96115,2,0,L|64:316,1,80,4|8,0:0|0:0,0:0:0:0:
56,220,96715,2,0,L|134:202,1,80,4|8,0:0|0:0,0:0:0:0:
140,108,97315,6,0,P|112:76|104:28,2,80,4|8|4,0:0|0:0|0:0,0:0:0:0:
200,32,98215,1,8,0:0:0:0:
236,120,98515,2,0,L|264:196,1,80,4|0,0:0|0:0,0:0:0:0:
356,172,99115,2,0,L|328:96,1,80,4|8,0:0|0:0,0:0:0:0:
420,64,99715,6,0,P|452:36|496:28,1,80,4|8,0:0|0:0,0:0:0:0:
496,124,100315,2,0,L|488:208,1,80,4|8,0:0|0:0,0:0:0:0:
408,256,100915,2,0,P|440:292|452:340,2,80,4|8|4,0:0|0:0|0:0,0:0:0:0:
352,336,101815,1,8,0:0:0:0:
256,352,102115,6,0,P|260:304|284:264,1,80,4|8,0:0|0:0,0:0:0:0:
328,196,102715,2,0,L|320:116,1,80,4|8,0:0|0:0,0:0:0:0:
236,68,103315,2,0,P|184:40|80:68,1,160,4|4,0:0|0:0,0:0:0:0:
16,124,104215,1,8,0:0:0:0:
64,208,104515,6,0,P|72:308|192:340,1,240
152,252,105715,2,0,B|196:228|216:188|216:188|252:212|292:200,1,160
376,184,106615,1,0,0:0:0:0:
472,196,106915,6,0,P|444:116|304:112,1,240
216,80,108115,2,0,P|152:76|124:60,1,80
52,108,108715,2,0,L|64:204,1,80
152,216,109315,6,0,P|268:196|320:296,1,240,4|0,0:0|0:0,0:0:0:0:
224,284,110515,2,0,P|108:304|56:204,1,240
504,292,112765,6,0,B|428:292|428:292|404:264|368:244|324:256|304:264,1,200,4|0,0:0|0:0,0:0:0:0:
348,352,113815,1,0,0:0:0:0:
252,332,114115,6,0,P|224:288|220:248,1,79.9999999999999,4|0,0:0|0:0,0:0:0:0:
264,176,114715,2,0,L|172:152,1,79.9999999999999,0|8,0:0|0:0,0:0:0:0:
92,136,115315,2,0,P|52:156|28:192,2,79.9999999999999
156,64,116215,1,8,0:0:0:0:
252,52,116515,6,0,L|340:44,1,79.9999999999999
412,96,117115,2,0,L|500:88,1,79.9999999999999,0|8,0:0|0:0,0:0:0:0:
480,184,117715,2,0,P|464:264|512:340,1,160
412,368,118615,1,8,0:0:0:0:
368,284,118915,6,0,P|328:264|204:284,1,160,4|0,0:0|0:0,0:0:0:0:
140,336,119815,1,8,0:0:0:0:
44,320,120115,2,0,L|56:240,1,79.9999999999999
144,204,120715,2,0,P|116:168|100:128,1,79.9999999999999,0|8,0:0|0:0,0:0:0:0:
76,44,121315,6,0,L|168:24,1,79.9999999999999
224,96,121915,2,0,L|316:76,1,79.9999999999999,0|8,0:0|0:0,0:0:0:0:
396,52,122515,1,0,0:0:0:0:
488,32,122815,1,0,0:0:0:0:
460,124,123115,2,0,P|464:160|484:212,1,79.9999999999999,0|8,0:0|0:0,0:0:0:0:
468,296,123715,6,0,P|436:332|392:352,1,79.9999999999999,4|8,0:0|0:0,0:0:0:0:
320,312,124315,2,0,P|272:288|228:284,1,79.9999999999999,0|8,0:0|0:0,0:0:0:0:
164,336,124915,2,0,L|76:344,1,79.9999999999999
36,260,125515,2,0,P|76:224|84:116,1,160,8|4,0:0|0:0,0:0:0:0:
44,36,126415,5,0,0:0:0:0:
140,40,126715,2,0,L|224:44,1,79.9999999999999,0|8,0:0|0:0,0:0:0:0:
316,60,127315,2,0,P|304:96|264:132,2,79.9999999999999
408,32,128215,1,8,0:0:0:0:
464,108,128515,6,0,P|480:180|448:268,1,160,4|0,0:0|0:0,0:0:0:0:
384,328,129415,1,8,0:0:0:0:
328,252,129715,2,0,P|320:208|332:160,1,79.9999999999999
368,88,130315,2,0,L|296:28,1,79.9999999999999,0|8,0:0|0:0,0:0:0:0:
220,76,130915,6,0,P|148:92|68:64,1,160
40,156,131815,1,8,0:0:0:0:
20,248,132115,2,0,L|0:336,1,79.9999999999999,4|0,0:0|0:0,0:0:0:0:
96,340,132715,2,0,P|156:352|240:296,1,160,0|4,0:0|0:0,0:0:0:0:
292,224,133615,6,0,L|452:264,1,160,0|8,0:0|0:0,0:0:0:0:
472,172,134515,2,0,L|380:148,1,80
304,124,135115,2,0,P|276:108|248:64,1,80,0|8,0:0|0:0,0:0:0:0:
340,36,135715,6,0,L|428:36,2,80
304,124,136615,1,8,0:0:0:0:
228,184,136915,2,0,P|152:164|72:196,1,160
28,276,137815,1,8,0:0:0:0:
116,312,138115,6,0,L|196:344,1,80,4|0,0:0|0:0,0:0:0:0:
284,324,138715,2,0,P|324:344|372:344,1,80,0|8,0:0|0:0,0:0:0:0:
436,288,139315,2,0,P|476:264|516:264,2,80
348,248,140215,1,8,0:0:0:0:
392,164,140515,6,0,P|312:160|256:220,1,160
224,304,141415,1,8,0:0:0:0:
136,344,141715,2,0,L|56:352,1,80
60,256,142315,2,0,L|140:248,1,80,0|8,0:0|0:0,0:0:0:0:
116,156,142915,6,0,P|104:112|112:68,1,80,4|0,0:0|0:0,0:0:0:0:
196,40,143515,2,0,L|324:28,2,120
228,132,144715,2,0,L|312:124,1,80,0|8,0:0|0:0,0:0:0:0:
396,88,145315,6,0,P|440:72|488:72,2,80
388,184,146215,1,8,0:0:0:0:
376,280,146515,2,0,L|364:368,1,80
460,364,147115,2,0,L|470:284,1,80,0|8,0:0|0:0,0:0:0:0:
488,188,147715,6,0,P|480:144|456:108,1,80,4|0,0:0|0:0,0:0:0:0:
380,64,148315,2,0,P|320:52|256:12,2,120
356,156,149515,2,0,P|312:148|264:128,1,80,0|8,0:0|0:0,0:0:0:0:
192,96,150115,6,0,P|132:72|72:76,2,120,0|0|8,0:0|0:0|0:0,0:0:0:0:
204,192,151315,2,0,L|200:320,2,120,0|0|8,0:0|0:0|0:0,0:0:0:0:
284,140,152515,2,0,P|348:160|436:32,1,240
344,64,153715,6,0,P|308:44|260:48,1,80,4|0,0:0|0:0,0:0:0:0:
172,40,154315,2,0,L|84:36,1,80,0|8,0:0|0:0,0:0:0:0:
28,108,154915,2,0,P|80:152|72:248,1,160
24,316,155815,1,8,0:0:0:0:
120,328,156115,6,0,P|172:344|208:344,1,80
292,344,156715,2,0,P|344:328|380:328,1,80,0|8,0:0|0:0,0:0:0:0:
448,272,157315,2,0,L|488:196,1,80
492,104,157915,1,0,0:0:0:0:
408,148,158215,1,8,0:0:0:0:
312,128,158515,6,0,P|232:100|184:28,1,160,4|0,0:0|0:0,0:0:0:0:
92,36,159415,1,8,0:0:0:0:
128,124,159715,2,0,P|156:160|192:184,1,80
268,224,160315,2,0,P|308:236|344:268,1,80,0|8,0:0|0:0,0:0:0:0:
264,324,160915,5,0,0:0:0:0:
168,336,161215,1,0,0:0:0:0:
72,348,161515,2,0,P|76:304|100:268,1,80,0|8,0:0|0:0,0:0:0:0:
104,180,162115,2,0,L|92:96,1,80
184,72,162715,2,0,L|195:151,1,80,0|8,0:0|0:0,0:0:0:0:
288,132,163315,6,0,P|304:92|336:64,1,80,4|8,0:0|0:0,0:0:0:0:
412,120,163915,2,0,P|396:160|364:188,1,80,0|8,0:0|0:0,0:0:0:0:
284,232,164515,2,0,P|320:268|364:280,1,80,0|8,0:0|0:0,0:0:0:0:
308,364,165115,2,0,L|148:352,1,160,0|4,0:0|0:0,0:0:0:0:
52,344,166015,5,0,0:0:0:0:
28,252,166315,2,0,P|24:200|32:160,1,80,0|8,0:0|0:0,0:0:0:0:
100,108,166915,2,0,L|80:16,2,80
124,200,167815,1,8,0:0:0:0:
196,140,168115,6,0,P|256:96|352:92,1,160,4|0,0:0|0:0,0:0:0:0:
420,36,169015,1,8,0:0:0:0:
456,124,169315,2,0,L|488:204,1,80
412,260,169915,2,0,L|444:340,1,80,0|8,0:0|0:0,0:0:0:0:
348,356,170515,6,0,P|316:356|264:328,1,80
204,272,171115,2,8,P|160:280|124:300,1,80
68,224,171715,2,0,P|100:144|68:80,1,160,4|0,0:0|0:0,0:0:0:0:
152,28,172615,1,0,0:0:0:0:
248,28,172915,6,0,L|340:28,1,80,0|2,0:0|0:0,0:0:0:0:
408,80,173515,2,0,P|376:120|380:200,2,120,0|2|2,0:0|0:0|0:0,0:0:0:0:
464,160,174715,2,0,L|480:240,1,80
412,304,175315,6,0,P|376:332|332:340,1,80,4|0,0:0|0:0,0:0:0:0:
272,272,175915,2,0,P|240:224|168:212,2,120
184,304,177115,2,0,P|160:340|148:384,1,80,0|8,0:0|0:0,0:0:0:0:
68,324,177715,6,0,L|48:244,1,80
108,172,178315,2,0,P|168:164|208:116,2,120
112,76,179515,2,0,P|72:80|32:104,2,80,0|8|4,0:0|0:0|0:0,0:0:0:0:
196,28,180415,5,0,0:0:0:0:
292,28,180715,2,0,L|424:32,2,120
304,124,181915,2,0,L|396:128,1,80,0|8,0:0|0:0,0:0:0:0:
464,180,182515,6,0,P|492:220|496:268,1,80
400,260,183115,2,0,P|372:304|308:344,2,120
328,196,184315,2,0,P|300:156|296:108,1,80,0|8,0:0|0:0,0:0:0:0:
224,60,184915,6,0,L|144:32,1,80,4|0,0:0|0:0,0:0:0:0:
100,116,185515,2,0,L|20:88,1,80,4|0,0:0|0:0,0:0:0:0:
0,184,186115,1,4,0:0:0:0:
16,280,186415,1,4,0:0:0:0:
96,328,186715,2,0,P|128:316|176:316,1,80,4|8,0:0|0:0,0:0:0:0:
268,324,187315,6,0,L|316:260,1,80,4|0,0:0|0:0,0:0:0:0:
404,296,187915,2,0,L|452:232,1,80,4|0,0:0|0:0,0:0:0:0:
508,156,188515,1,4,0:0:0:0:
492,60,188815,1,4,0:0:0:0:
400,36,189115,2,0,P|360:52|312:56,1,80,4|8,0:0|0:0,0:0:0:0:
228,60,189715,6,0,L|244:152,1,80,4|0,0:0|0:0,0:0:0:0:
156,184,190315,2,0,L|172:276,1,80,4|0,0:0|0:0,0:0:0:0:
184,356,190915,1,4,0:0:0:0:
92,324,191215,1,4,0:0:0:0:
68,232,191515,2,0,L|54:153,1,80,4|8,0:0|0:0,0:0:0:0:
88,64,192115,6,0,L|180:32,1,80,4|0,0:0|0:0,0:0:0:0:
228,108,192715,2,0,L|320:76,1,80,4|0,0:0|0:0,0:0:0:0:
396,52,193315,1,4,0:0:0:0:
488,24,193615,1,4,0:0:0:0:
468,116,193915,2,0,P|464:172|476:208,1,80,4|8,0:0|0:0,0:0:0:0:
448,288,194515,6,0,B|372:316|372:316|336:300|280:312,1,160,0|2,0:0|0:0,0:0:0:0:
204,344,195415,2,0,L|40:344,1,160,2|2,0:0|0:0,0:0:0:0:
20,252,196315,2,0,L|104:252,1,80
