osu file format v14

[General]
AudioFilename: Suzumu feat.GUMI - Heart Connect.mp3
AudioLeadIn: 1000
PreviewTime: 49560
Countdown: 0
SampleSet: Normal
StackLeniency: 0.7
Mode: 0
LetterboxInBreaks: 0
WidescreenStoryboard: 1

[Editor]
DistanceSpacing: 0.5
BeatDivisor: 4
GridSize: 4
TimelineZoom: 1.7

[Metadata]
Title:Heart Connect
TitleUnicode:心臓コネクト
Artist:Suzumu
ArtistUnicode:スズム
Creator:AllStar12
Version:Insane
Source:
Tags:GUMI Vocaloid Shinzou tokiti ke-sanβ TT_Mouse
BeatmapID:647486
BeatmapSetID:242708

[Difficulty]
HPDrainRate:7
CircleSize:4
OverallDifficulty:7.5
ApproachRate:9.3
SliderMultiplier:1.8
SliderTickRate:1

[Events]
//Background and Video events
0,0,"Background.png",0,0
Video,-54,"Video.avi"
//Break Periods
2,2698,5072
2,6110,7347
2,9239,10475
2,22888,26399
2,27864,28959
2,69522,77868
2,125256,133602
2,157104,160900
2,168479,172275
//Storyboard Layer 0 (Background)
//Storyboard Layer 1 (Fail)
//Storyboard Layer 2 (Pass)
//Storyboard Layer 3 (Foreground)
//Storyboard Sound Samples

[TimingPoints]
1077,284.36018957346,4,1,1,70,1,0
27380,-100,4,1,1,20,0,0
27522,-100,4,1,1,70,0,0
27664,-100,4,1,1,20,0,0
29513,-100,4,1,1,70,0,0
29655,-100,4,1,1,20,0,0
29797,-100,4,1,1,70,0,0
29939,-100,4,1,1,20,0,0
30650,-100,4,1,1,50,0,0
31787,-111.111111111111,4,1,1,60,0,0
41029,284.36018957346,4,1,1,70,1,0
41029,-125,4,1,1,40,0,0
47569,-111.111111111111,4,1,1,70,0,0
48138,-111.111111111111,4,1,1,20,0,0
48280,-111.111111111111,4,1,1,70,0,0
48564,-111.111111111111,4,1,1,20,0,0
48706,-111.111111111111,4,1,1,70,0,0
48991,-111.111111111111,4,1,1,20,0,0
49133,-111.111111111111,4,1,1,70,0,0
49417,-111.111111111111,4,1,1,20,0,0
49986,284.36018957346,4,1,1,70,1,1
58801,-100,4,1,1,50,0,1
59085,-166.666666666667,4,1,1,70,0,0
59369,-100,4,1,1,20,0,1
59440,-100,4,1,1,50,0,0
59512,-100,4,1,1,70,0,1
66478,-100,4,1,1,50,0,1
67047,-100,4,1,1,70,0,1
69322,-100,4,1,1,70,0,0
78422,-166.666666666667,4,2,1,40,0,0
86384,-125,4,1,1,40,0,0
87521,-111.111111111111,4,1,1,60,0,0
96763,284.36018957346,4,1,1,70,1,0
96763,-125,4,1,1,40,0,0
103303,-111.111111111111,4,1,1,70,0,0
103872,-111.111111111111,4,1,1,20,0,0
104014,-111.111111111111,4,1,1,70,0,0
104298,-111.111111111111,4,1,1,20,0,0
104440,-111.111111111111,4,1,1,70,0,0
104725,-111.111111111111,4,1,1,20,0,0
104867,-111.111111111111,4,1,1,70,0,0
105151,-111.111111111111,4,1,1,20,0,0
105293,-111.111111111111,4,1,1,30,0,0
105435,-111.111111111111,4,1,1,40,0,0
105578,-111.111111111111,4,1,1,50,0,0
105720,284.36018957346,4,1,1,70,1,1
114535,-100,4,1,1,50,0,1
114819,-166.666666666667,4,1,1,70,0,0
115103,-100,4,1,1,20,0,1
115174,-100,4,1,1,50,0,0
115246,-100,4,1,1,70,0,1
122212,-100,4,1,1,50,0,1
122781,-100,4,1,1,70,0,1
125056,-100,4,1,1,70,0,0
134156,-166.666666666667,4,2,1,40,0,0
143255,-100,4,1,1,60,0,0
152355,-100,4,1,1,70,0,0
161738,-100,4,1,1,40,0,0
163729,-100,4,1,1,70,0,0
164156,-100,4,1,1,40,0,0
164582,-100,4,1,1,70,0,0
168279,-166.666666666667,4,1,1,40,0,0
172829,-111.111111111111,4,1,1,60,0,0
174535,-111.111111111111,4,1,1,40,0,0
175103,-111.111111111111,4,1,1,60,0,0
177378,-166.666666666667,4,1,1,70,0,0
177663,-100,4,1,1,20,0,1
177734,-100,4,1,1,50,0,0
177805,284.36018957346,4,1,1,70,1,1
183065,-100,4,1,1,70,0,0
183492,-100,4,1,1,40,0,0
183847,-100,4,1,1,50,0,0
184203,284.36018957346,4,1,1,70,1,1
188326,-100,4,1,1,50,0,1
188752,-100,4,1,1,70,0,1
193018,-100,4,1,1,50,0,1
193302,-166.666666666667,4,1,1,70,0,0
193586,-100,4,1,1,20,0,1
193729,-100,4,1,1,70,0,1
200695,-100,4,1,1,50,0,1
201264,-100,4,1,1,70,0,1
203112,-100,4,1,1,50,0,1
203539,-100,4,1,1,70,0,0
207662,-100,4,1,1,50,0,0
208089,-100,4,1,1,70,0,0
218894,-100,4,1,1,50,0,0
219463,-100,4,1,1,70,0,0
220316,-100,4,1,1,50,0,0
220601,-100,4,1,1,70,0,0
223444,-100,4,1,1,50,0,0
223871,-100,4,1,1,70,0,0

[HitObjects]
256,186,1077,5,4,0:0:0:0:
416,140,2214,6,4,P|380:60|295:43,1,180
96,140,5626,6,4,P|131:60|216:43,1,180
200,263,7901,6,4,B|234:294|256:333|256:333|278:294|312:263,1,180
256,186,9039,5,2,0:0:0:0:
256,186,11029,5,4,0:3:0:0:
176,113,11313,6,0,P|256:77|336:114,1,180,4|2,0:0|0:0,0:0:0:0:
356,202,11740,1,8,0:0:0:0:
295,268,11882,2,0,L|194:276,1,90,0|0,0:0|0:0,0:0:0:0:
356,202,12167,1,2,0:0:0:0:
356,202,12238,1,0,0:0:0:0:
356,202,12309,2,0,L|455:194,1,90,8|0,0:0|0:0,0:0:0:0:
342,82,12593,5,0,0:0:0:0:
256,186,12735,2,0,P|211:193|155:194,1,90,2|8,0:0|0:0,0:0:0:0:
77,177,13020,1,0,0:0:0:0:
256,186,13162,1,0,0:0:0:0:
176,113,13304,1,2,0:0:0:0:
205,275,13446,1,8,0:0:0:0:
77,177,13588,6,0,P|64:78|143:-2,1,180,4|2,0:0|0:0,0:0:0:0:
178,72,14015,1,8,0:0:0:0:
178,72,14157,2,0,L|267:74,1,90
406,153,14441,1,2,0:0:0:0:
406,153,14513,1,0,0:0:0:0:
406,153,14584,2,0,L|316:150,1,90,8|0,0:0|0:0,0:0:0:0:
268,74,14868,5,0,0:0:0:0:
316,150,15010,1,2,0:0:0:0:
325,28,15153,1,8,0:0:0:0:
259,196,15295,1,0,0:0:0:0:
406,153,15437,1,0,0:0:0:0:
406,153,15579,2,0,P|432:100|438:36,1,90,2|8,0:0|0:0,0:0:0:0:
279,46,15863,6,0,P|251:108|272:247,1,180,4|2,0:0|0:0,0:0:0:0:
310,290,16290,1,8,0:0:0:0:
380,234,16432,2,0,L|478:229,1,90
337,115,16716,1,2,0:0:0:0:
337,115,16787,1,0,0:0:0:0:
337,115,16858,1,8,0:0:0:0:
309,290,17001,6,0,P|304:334|309:379,1,90
380,234,17285,2,0,L|261:203,1,90,2|8,0:0|0:0,0:0:0:0:
207,183,17569,1,0,0:0:0:0:
380,234,17712,1,0,0:0:0:0:
335,130,17854,1,2,0:0:0:0:
310,290,17996,1,8,0:0:0:0:
207,183,18138,6,0,P|109:175|66:265,1,180,4|2,0:0|0:0,0:0:0:0:
153,253,18565,1,8,0:0:0:0:
207,183,18707,2,0,P|216:117|214:81,1,90
153,253,18991,1,2,0:0:0:0:
153,253,19062,1,0,0:0:0:0:
153,253,19133,1,8,0:0:0:0:
104,156,19276,6,0,L|14:153,1,90,4|0,0:0|0:0,0:0:0:0:
29,64,19560,1,2,0:0:0:0:
91,0,19702,1,8,0:0:0:0:
180,12,19844,1,0,0:0:0:0:
215,93,19986,1,0,0:0:0:0:
298,130,20129,1,2,0:0:0:0:
381,97,20271,1,8,0:0:0:0:
403,275,20413,5,4,0:0:0:0:
403,275,21550,5,8,0:0:0:0:
403,275,21835,1,8,0:0:0:0:
200,135,22261,5,10,0:0:0:0:
311,258,22404,1,2,0:0:0:0:
297,122,22546,1,10,0:0:0:0:
214,271,22688,1,6,0:0:0:0:
256,192,26953,5,0,0:0:0:0:
256,192,27024,1,0,0:0:0:0:
256,192,27095,1,0,0:0:0:0:
193,257,27238,2,0,P|148:264|104:264,1,90,8|0,0:0|0:0,0:0:0:0:
319,127,27522,2,0,P|363:119|408:120,1,90,8|0,0:0|0:0,0:0:0:0:
408,120,29513,6,0,P|363:119|319:127,1,90,8|0,0:0|0:0,0:0:0:0:
103,263,29797,2,0,P|148:264|193:257,1,90,8|0,0:0|0:0,0:0:0:0:
256,117,30650,5,6,0:0:0:0:
193,256,30934,2,0,P|177:218|171:168,1,90,2|8,0:0|0:0,0:0:0:0:
341,171,31219,2,0,P|335:215|318:256,1,90,2|12,0:0|0:0,0:0:0:0:
256,117,31503,1,2,0:0:0:0:
256,103,31574,1,0,0:0:0:0:
256,90,31645,1,8,0:0:0:0:
256,76,31716,1,0,0:0:0:0:
256,63,31787,6,0,P|164:78|116:20,1,161.999995056153,4|2,0:0|0:0,0:0:0:0:
120,33,32214,1,8,0:0:0:0:
89,135,32356,2,0,L|5:127,1,80.9999975280763
8,127,32569,1,0,0:0:0:0:
8,127,32640,1,2,0:0:0:0:
46,261,32783,1,8,0:0:0:0:
108,209,32925,6,0,P|191:185|286:229,1,161.999995056153,0|2,0:0|0:0,0:0:0:0:
322,259,33351,1,8,0:0:0:0:
322,259,33494,2,0,L|313:355,1,80.9999975280763
260,207,33778,1,2,0:0:0:0:
336,179,33920,1,8,0:0:0:0:
247,287,34062,6,0,P|170:309|94:285,1,161.999995056153,0|2,0:0|0:0,0:0:0:0:
260,207,34489,1,8,0:0:0:0:
322,259,34631,2,0,P|367:265|430:253,1,80.9999975280763
261,207,34915,2,0,P|216:201|153:213,1,80.9999975280763,2|8,0:0|0:0,0:0:0:0:
322,259,35200,6,0,P|358:184|322:81,1,161.999995056153,0|2,0:0|0:0,0:0:0:0:
276,63,35626,1,8,0:0:0:0:
229,128,35768,2,0,L|128:137,1,80.9999975280763
111,207,36053,1,2,0:0:0:0:
83,47,36195,1,8,0:0:0:0:
229,128,36337,6,0,P|325:133|384:58,1,161.999995056153,4|2,0:0|0:0,0:0:0:0:
452,92,36764,2,0,P|489:155|462:241,1,161.999995056153,8|0,0:0|0:0,0:0:0:0:
398,281,37190,2,0,L|278:290,1,80.9999975280763,2|8,0:0|0:0,0:0:0:0:
312,206,37475,6,0,P|240:149|236:68,1,161.999995056153,0|2,0:0|0:0,0:0:0:0:
285,23,37901,1,8,0:0:0:0:
231,83,38043,2,0,L|123:64,1,80.9999975280763
285,23,38328,2,0,L|393:3,1,80.9999975280763,2|8,0:0|0:0,0:0:0:0:
231,83,38612,6,0,P|199:166|256:230,1,161.999995056153,4|2,0:0|0:0,0:0:0:0:
280,151,39039,2,0,P|312:233|255:297,1,161.999995056153,8|0,0:0|0:0,0:0:0:0:
236,221,39465,2,0,L|144:218,1,80.9999975280763,2|8,0:0|0:0,0:0:0:0:
280,151,39749,6,0,L|456:139,1,161.999995056153,4|2,0:0|0:0,0:0:0:0:
492,203,40176,1,8,0:0:0:0:
463,30,40318,1,0,0:0:0:0:
463,30,40389,1,0,0:0:0:0:
463,30,40460,1,8,0:0:0:0:
355,105,40603,1,2,0:0:0:0:
487,105,40745,1,8,0:0:0:0:
380,29,40887,1,0,0:0:0:0:
421,153,41029,5,12,0:0:0:0:
421,153,41455,1,2,0:0:0:0:
421,153,41597,2,0,P|311:161|256:131,1,144,8|2,0:0|0:0,0:0:0:0:
256,216,42024,6,0,P|146:208|91:238,1,144,2|8,0:0|0:0,0:0:0:0:
89,285,42450,1,0,0:0:0:0:
140,335,42592,1,2,0:0:0:0:
146,339,42664,1,2,0:0:0:0:
151,343,42735,2,0,L|232:343,1,72,8|8,0:0|0:0,0:0:0:0:
380,166,43019,2,0,L|288:166,1,72,0|8,0:0|0:0,0:0:0:0:
256,236,43303,5,10,0:0:0:0:
204,166,43446,2,0,P|173:104|192:16,1,144,0|2,0:0|0:0,0:0:0:0:
329,32,43872,2,0,P|339:102|308:166,1,144,8|0,0:0|0:0,0:0:0:0:
204,166,44441,6,0,L|117:189,1,72,8|2,0:0|0:0,0:0:0:0:
308,166,44725,2,0,L|377:184,1,72,8|0,0:0|0:0,0:0:0:0:
204,243,45010,1,8,0:0:0:0:
256,86,45152,1,8,0:3:0:0:
308,243,45294,1,4,0:3:0:0:
256,173,45578,5,4,0:0:0:0:
256,192,47569,5,4,0:3:0:0:
204,129,47853,5,0,0:0:0:0:
204,129,47995,2,0,L|187:44,1,80.9999975280763,0|2,0:0|0:0,0:0:0:0:
308,129,48280,5,0,0:0:0:0:
308,129,48422,2,0,L|325:44,1,80.9999975280763,0|2,0:0|0:0,0:0:0:0:
142,212,48706,5,0,0:0:0:0:
142,212,48848,2,0,L|51:196,1,80.9999975280763,0|2,0:0|0:0,0:0:0:0:
370,212,49133,5,0,0:0:0:0:
370,212,49275,2,0,L|461:196,1,80.9999975280763,0|2,0:0|0:0,0:0:0:0:
83,95,49986,6,0,B|145:80|188:124|188:124|226:97|279:97,1,180,4|0,0:0|0:0,0:0:0:0:
424,194,50412,2,0,B|362:209|319:165|319:165|281:192|228:192,1,180,8|2,0:0|0:0,0:0:0:0:
248,99,50839,2,0,L|282:9,1,90,0|8,0:0|0:0,0:0:0:0:
259,189,51123,6,0,L|224:278,1,90,0|2,0:0|0:0,0:0:0:0:
146,102,51407,2,0,L|160:196,1,90,0|8,0:0|0:0,0:0:0:0:
4,83,51692,2,0,L|64:157,1,90,0|2,0:0|0:0,0:0:0:0:
116,223,51976,1,0,0:0:0:0:
248,99,52118,1,8,0:0:0:0:
194,26,52260,6,0,P|135:16|95:30,1,90,0|2,0:0|0:0,0:0:0:0:
259,190,52545,2,0,P|318:200|358:186,1,90,0|8,0:0|0:0,0:0:0:0:
409,128,52829,1,0,0:0:0:0:
248,99,52971,2,0,L|174:177,1,90,2|0,0:0|0:0,0:0:0:0:
263,286,53256,1,8,0:0:0:0:
346,192,53398,6,0,P|357:127|348:81,1,90,0|2,0:0|0:0,0:0:0:0:
259,190,53682,1,0,0:0:0:0:
409,128,53824,1,8,0:0:0:0:
263,286,53967,1,0,0:0:0:0:
248,99,54109,1,2,0:0:0:0:
346,192,54251,2,0,P|399:196|443:190,1,90,0|8,0:0|0:0,0:0:0:0:
248,99,54535,6,0,B|204:73|114:128|59:86,1,180,4|0,0:0|0:0,0:0:0:0:
131,25,54962,1,8,0:0:0:0:
184,173,55104,2,0,P|143:204|90:221,1,90,0|2,0:0|0:0,0:0:0:0:
248,99,55388,2,0,L|364:129,1,90,0|8,0:0|0:0,0:0:0:0:
409,69,55673,5,0,0:0:0:0:
248,99,55815,2,0,P|226:187|264:298,1,180,2|8,0:0|0:0,0:0:0:0:
401,194,56241,2,0,P|348:190|301:195,1,90,0|2,0:0|0:0,0:0:0:0:
353,303,56526,2,0,P|406:307|453:302,1,90,0|8,0:0|0:0,0:0:0:0:
247,271,56810,6,0,P|163:303|69:264,1,180,4|0,0:0|0:0,0:0:0:0:
43,192,57237,1,8,0:0:0:0:
105,127,57379,2,0,L|216:134,1,90,0|2,0:0|0:0,0:0:0:0:
292,26,57663,2,0,L|181:33,1,90,0|8,0:0|0:0,0:0:0:0:
320,223,57948,6,0,P|375:160|365:59,1,180,4|0,0:0|0:0,0:0:0:0:
292,26,58374,1,8,0:0:0:0:
194,132,58516,2,0,P|190:193|199:262,1,90,0|2,0:0|0:0,0:0:0:0:
340,132,58801,1,0,0:0:0:0:
343,101,58872,1,0,0:0:0:0:
335,70,58943,1,0,0:0:0:0:
318,45,59014,1,0,0:0:0:0:
292,26,59085,6,0,L|179:33,1,107.999996704102,0|2,0:0|0:0,0:0:0:0:
184,32,59440,1,2,0:0:0:0:
184,32,59512,6,4,P|179:92|188:161,1,90,12|4,0:0|0:0,0:0:0:0:
265,249,59796,2,0,P|269:188|260:119,1,90,2|0,0:0|0:0,0:0:0:0:
345,291,60080,2,0,P|343:335|347:380,1,90,8|0,0:0|0:0,0:0:0:0:
265,249,60365,5,2,0:0:0:0:
345,291,60507,2,0,L|465:268,1,90,0|8,0:0|0:0,0:0:0:0:
474,136,60791,1,0,0:0:0:0:
339,67,60933,1,2,0:0:0:0:
265,159,61076,2,0,L|243:265,1,90,0|8,0:0|0:0,0:0:0:0:
89,288,61360,6,0,P|60:204|89:120,1,180
204,35,61786,1,8,0:0:0:0:
162,173,61929,1,0,0:0:0:0:
89,120,62071,2,0,L|1:132,1,90,2|0,0:0|0:0,0:0:0:0:
89,288,62355,1,8,0:0:0:0:
162,173,62497,6,0,P|250:127|350:163,1,180,4|0,0:0|0:0,0:0:0:0:
379,216,62924,1,8,0:0:0:0:
340,297,63066,2,0,P|298:255|290:211,1,90,0|2,0:0|0:0,0:0:0:0:
418,135,63350,2,0,P|460:177|468:221,1,90,0|8,0:0|0:0,0:0:0:0:
325,143,63635,6,0,P|330:56|403:10,1,180,4|0,0:0|0:0,0:0:0:0:
379,216,64061,1,8,0:0:0:0:
379,216,64204,2,0,L|262:235,1,90,0|2,0:0|0:0,0:0:0:0:
150,149,64488,2,0,L|238:163,1,90,0|8,0:0|0:0,0:0:0:0:
121,311,64772,6,0,P|70:231|84:110,1,180,4|0,0:0|0:0,0:0:0:0:
119,74,65199,1,8,0:0:0:0:
69,148,65341,1,0,0:0:0:0:
29,68,65483,1,2,0:0:0:0:
150,149,65625,1,0,0:0:0:0:
150,149,65696,1,0,0:0:0:0:
150,149,65767,6,0,L|238:134,1,90,8|0,0:0|0:0,0:0:0:0:
301,202,66478,2,0,L|389:187,1,90
256,116,67047,5,4,0:0:0:0:
213,49,67331,1,2,0:0:0:0:
323,150,67474,1,8,0:0:0:0:
299,49,67616,1,2,0:0:0:0:
189,150,67759,1,8,0:0:0:0:
213,235,67900,2,0,P|256:245|299:235,1,90,2|8,0:0|0:0,0:0:0:0:
189,150,68185,6,0,P|127:218|165:308,1,180,2|2,0:0|0:0,0:0:0:0:
156,300,68540,1,0,0:0:0:0:
163,304,68611,1,10,0:0:0:0:
171,308,68682,1,0,0:0:0:0:
179,312,68753,1,2,0:0:0:0:
187,317,68824,1,0,0:0:0:0:
195,321,68895,1,10,0:0:0:0:
203,325,68966,1,0,0:0:0:0:
211,329,69038,1,2,0:0:0:0:
219,334,69108,1,0,0:0:0:0:
227,338,69180,6,0,B|247:342|247:342|271:337|271:337|295:342|295:342|315:338,1,90,10|6,0:0|0:0,0:0:0:0:
315,135,78422,5,4,0:1:0:0:
315,135,80696,5,0,0:0:0:0:
315,135,82971,6,0,L|290:206,1,53.9999983520508,8|0,0:0|0:0,0:0:0:0:
245,196,83256,2,0,L|202:258,1,53.9999983520508,0|8,0:0|0:0,0:0:0:0:
185,255,83540,1,0,0:0:0:0:
154,266,83682,1,2,0:0:0:0:
121,263,83824,1,2,0:0:0:0:
92,248,83967,1,0,0:0:0:0:
74,221,84109,6,0,P|83:157|127:109,1,107.999996704102,8|0,0:0|0:0,0:0:0:0:
211,58,84535,2,0,P|206:111|177:155,1,107.999996704102,8|0,0:0|0:0,0:0:0:0:
107,123,84962,2,0,L|45:123,1,53.9999983520508,8|0,0:0|0:0,0:0:0:0:
177,155,85246,6,0,L|307:155,1,107.999996704102,2|2,0:0|0:0,0:0:0:0:
339,155,85673,1,8,0:0:0:0:
390,172,85815,2,0,L|415:232,1,53.9999983520508,0|2,0:0|0:0,0:0:0:0:
401,99,86099,2,0,L|380:49,1,53.9999983520508,2|0,0:0|0:0,0:0:0:0:
285,155,86384,6,0,P|287:245|321:324,1,144,0|2,0:0|0:0,0:0:0:0:
360,340,86810,1,8,0:0:0:0:
373,269,86952,1,2,0:0:0:0:
293,366,87095,1,8,0:0:0:0:
293,366,87166,1,0,0:0:0:0:
293,366,87237,2,0,L|220:366,1,72,6|8,0:0|0:0,0:0:0:0:
95,240,87521,6,0,P|181:204|266:227,1,161.999995056153,4|0,0:0|0:0,0:0:0:0:
311,264,87948,1,8,0:0:0:0:
371,210,88090,2,0,P|379:166|377:115,1,80.9999975280763,0|2,0:0|0:0,0:0:0:0:
368,90,88303,1,0,0:0:0:0:
368,90,88374,2,0,L|260:72,1,80.9999975280763,0|8,0:0|0:0,0:0:0:0:
192,164,88658,6,0,P|183:217|219:331,1,161.999995056153
340,336,89085,1,8,0:0:0:0:
371,210,89227,2,0,L|285:180,1,80.9999975280763,0|2,0:0|0:0,0:0:0:0:
340,336,89512,1,0,0:0:0:0:
379,129,89654,1,8,0:0:0:0:
311,264,89796,6,0,P|237:313|145:296,1,161.999995056153
110,249,90222,1,8,0:0:0:0:
174,123,90365,2,0,P|184:161|174:200,1,80.9999975280763,0|2,0:0|0:0,0:0:0:0:
45,200,90649,2,0,P|35:161|46:123,1,80.9999975280763,0|8,0:0|0:0,0:0:0:0:
174,200,90933,6,0,P|256:221|324:174,1,161.999995056153,0|0,0:0|0:0,0:0:0:0:
350,107,91360,1,8,0:0:0:0:
295,47,91502,2,0,P|236:41|199:49,1,80.9999975280763,0|2,0:0|0:0,0:0:0:0:
350,107,91786,2,0,P|409:113|446:105,1,80.9999975280763,0|8,0:0|0:0,0:0:0:0:
295,47,92071,6,0,P|216:107|153:109,1,161.999995056153,4|0,0:0|0:0,0:0:0:0:
154,190,92497,2,0,P|126:284|179:355,1,161.999995056153,8|2,0:0|0:0,0:0:0:0:
232,355,92924,2,0,L|328:322,1,80.9999975280763,0|8,0:0|0:0,0:0:0:0:
254,125,93208,6,0,P|226:219|279:290,1,161.999995056153
326,163,93635,1,8,0:0:0:0:
400,201,93777,2,0,P|446:207|496:196,1,80.9999975280763,0|2,0:0|0:0,0:0:0:0:
326,163,94061,2,0,L|310:277,1,80.9999975280763,0|8,0:0|0:0,0:0:0:0:
479,201,94346,6,0,P|491:109|421:38,1,161.999995056153,4|0,0:0|0:0,0:0:0:0:
372,55,94772,2,0,P|292:94|224:74,1,161.999995056153,8|2,0:0|0:0,0:0:0:0:
162,23,95199,2,0,L|148:108,2,80.9999975280763,0|8|4,0:0|0:0|0:0,0:0:0:0:
420,199,95767,6,0,P|428:113|398:53,2,121.499996292114,2|8|8,0:0|0:0|0:0,0:0:0:0:
377,268,96336,1,2,0:0:0:0:
372,274,96407,1,0,0:0:0:0:
366,280,96478,1,8,0:0:0:0:
360,286,96549,1,0,0:0:0:0:
354,292,96621,1,0,0:0:0:0:
348,298,96692,1,0,0:0:0:0:
343,303,96763,6,0,P|276:328|196:294,1,144,4|0,0:0|0:0,0:0:0:0:
163,250,97189,1,2,0:0:0:0:
210,195,97331,2,0,P|277:173|343:198,1,144,8|2,0:0|0:0,0:0:0:0:
394,146,97758,6,0,P|458:107|467:23,1,144,2|8,0:0|0:0,0:0:0:0:
414,0,98184,1,0,0:0:0:0:
356,43,98326,1,2,0:0:0:0:
356,43,98398,1,2,0:0:0:0:
356,43,98469,2,0,L|272:43,1,72,8|8,0:0|0:0,0:0:0:0:
138,88,98753,2,0,L|210:88,1,72,0|8,0:0|0:0,0:0:0:0:
276,117,99037,5,10,0:0:0:0:
334,173,99180,2,0,P|323:270|279:315,1,144,8|0,0:0|0:0,0:0:0:0:
295,303,99535,1,2,0:0:0:0:
295,303,99606,2,0,P|188:296|141:332,1,144,8|8,0:0|0:0,0:0:0:0:
106,360,100033,1,2,0:0:0:0:
46,320,100175,6,0,P|26:271|20:236,1,72,0|8,0:0|0:0,0:0:0:0:
68,197,100459,2,0,P|75:144|87:111,1,72,2|0,0:0|0:0,0:0:0:0:
96,126,100672,1,0,0:0:0:0:
110,124,100744,1,0,0:0:0:0:
124,124,100815,1,0,0:0:0:0:
138,123,100886,1,8,0:3:0:0:
206,100,101028,5,4,0:3:0:0:
220,107,101099,1,0,0:0:0:0:
233,114,101171,1,0,0:0:0:0:
244,118,101242,1,0,0:0:0:0:
256,125,101313,1,4,0:0:0:0:
305,37,103303,5,4,0:3:0:0:
305,37,103587,6,0,L|404:56,1,80.9999975280763
197,125,103872,5,2,0:0:0:0:
197,125,103943,1,2,0:0:0:0:
197,125,104014,2,0,L|297:117,1,80.9999975280763
116,238,104298,5,2,0:0:0:0:
116,238,104369,1,2,0:0:0:0:
116,238,104440,2,0,L|211:204,1,80.9999975280763
67,368,104725,5,2,0:0:0:0:
67,368,104796,1,2,0:0:0:0:
67,368,104867,2,0,L|150:311,1,80.9999975280763
201,278,105151,5,2,0:0:0:0:
212,274,105222,1,0,0:0:0:0:
223,271,105293,1,2,0:0:0:0:
239,269,105364,1,0,0:0:0:0:
259,270,105435,1,2,0:0:0:0:
278,274,105507,1,0,0:0:0:0:
300,284,105578,1,2,0:0:0:0:
322,300,105649,1,0,0:0:0:0:
340,325,105720,6,0,B|350:267|350:267|395:224|395:224|409:146,1,180,4|0,0:0|0:0,0:0:0:0:
364,10,106146,2,0,B|353:67|353:67|308:110|308:110|298:168,1,180,8|2,0:0|0:0,0:0:0:0:
201,278,106573,1,0,0:0:0:0:
190,125,106715,1,8,0:0:0:0:
297,168,106857,6,0,P|342:174|386:168,1,90,0|2,0:0|0:0,0:0:0:0:
190,125,107141,2,0,P|145:130|100:125,1,90,0|8,0:0|0:0,0:0:0:0:
101,34,107426,2,0,P|145:28|190:33,1,90,0|2,0:0|0:0,0:0:0:0:
267,79,107710,1,0,0:0:0:0:
201,278,107852,1,8,0:0:0:0:
148,205,107994,6,0,L|53:211,1,90,0|2,0:0|0:0,0:0:0:0:
297,168,108279,2,0,L|386:173,1,90,0|8,0:0|0:0,0:0:0:0:
355,33,108563,1,0,0:0:0:0:
232,108,108705,2,0,P|213:171|218:214,1,90,2|0,0:0|0:0,0:0:0:0:
251,277,108990,1,8,0:0:0:0:
333,313,109132,6,0,L|422:315,1,90,0|2,0:0|0:0,0:0:0:0:
251,278,109416,1,0,0:0:0:0:
400,243,109558,1,8,0:0:0:0:
261,178,109701,1,0,0:0:0:0:
333,313,109843,1,2,0:0:0:0:
351,157,109985,2,0,P|328:120|271:100,1,90,0|8,0:0|0:0,0:0:0:0:
400,243,110269,6,0,P|449:161|386:64,1,180,4|0,0:0|0:0,0:0:0:0:
340,47,110696,1,8,0:0:0:0:
261,178,110838,2,0,P|213:181|159:174,1,90,0|2,0:0|0:0,0:0:0:0:
18,134,111122,2,0,P|66:137|120:130,1,90,0|8,0:0|0:0,0:0:0:0:
170,67,111407,5,0,0:0:0:0:
198,262,111549,2,0,P|183:337|84:380,1,180,2|8,0:0|0:0,0:0:0:0:
270,303,111975,2,0,P|335:308|372:321,1,90,0|2,0:0|0:0,0:0:0:0:
198,262,112260,2,0,P|169:203|162:164,1,90,0|8,0:0|0:0,0:0:0:0:
264,7,112544,6,0,P|285:93|260:193,1,180,4|0,0:0|0:0,0:0:0:0:
266,180,112971,1,8,0:0:0:0:
162,95,113113,1,0,0:0:0:0:
198,262,113255,1,2,0:0:0:0:
266,180,113397,2,0,L|374:181,1,90,0|8,0:0|0:0,0:0:0:0:
198,262,113682,6,0,B|154:288|64:233|9:275,1,180,4|0,0:0|0:0,0:0:0:0:
73,340,114108,1,8,0:0:0:0:
129,191,114250,2,0,P|68:185|11:192,1,90,0|2,0:0|0:0,0:0:0:0:
198,262,114535,1,0,0:0:0:0:
232,252,114606,1,0,0:0:0:0:
266,262,114677,1,0,0:0:0:0:
300,252,114748,1,0,0:0:0:0:
333,262,114819,6,0,L|459:262,1,107.999996704102,0|2,0:0|0:0,0:0:0:0:
441,262,115174,1,2,0:0:0:0:
441,262,115246,6,0,P|439:332|444:366,1,90,12|0,0:0|0:0,0:0:0:0:
380,173,115530,2,0,P|382:103|377:69,1,90,2|0,0:0|0:0,0:0:0:0:
252,152,115814,2,0,P|204:155|145:148,1,90,8|0,0:0|0:0,0:0:0:0:
99,85,116099,5,2,0:0:0:0:
99,85,116241,2,0,L|77:185,1,90,0|8,0:0|0:0,0:0:0:0:
155,221,116525,2,0,P|161:267|185:318,1,90,0|2,0:0|0:0,0:0:0:0:
356,221,116810,2,0,P|350:265|333:306,1,90,0|8,0:0|0:0,0:0:0:0:
176,146,117094,6,0,P|255:109|334:146,1,180
256,312,117520,1,8,0:0:0:0:
155,221,117663,2,0,L|59:187,1,90,0|2,0:0|0:0,0:0:0:0:
357,221,117947,2,0,L|453:187,1,90,0|8,0:0|0:0,0:0:0:0:
331,6,118231,6,0,P|279:82|293:182,1,180,4|0,0:0|0:0,0:0:0:0:
357,221,118658,1,8,0:0:0:0:
428,165,118800,2,0,P|381:133|328:134,1,90,0|2,0:0|0:0,0:0:0:0:
439,256,119084,2,0,P|490:231|515:184,1,90,0|8,0:0|0:0,0:0:0:0:
349,129,119369,6,0,L|312:331,1,180,4|0,0:0|0:0,0:0:0:0:
232,338,119795,1,8,0:0:0:0:
142,236,119938,1,0,0:0:0:0:
225,130,120080,1,2,0:0:0:0:
248,117,120151,1,0,0:0:0:0:
271,104,120222,2,0,L|395:144,1,90,0|8,0:0|0:0,0:0:0:0:
142,236,120506,6,0,P|130:174|206:52,1,180,4|0,0:0|0:0,0:0:0:0:
256,26,120933,1,8,0:0:0:0:
284,130,121075,1,0,0:0:0:0:
332,54,121217,1,2,0:0:0:0:
360,158,121359,1,0,0:0:0:0:
360,158,121430,1,0,0:0:0:0:
360,158,121501,6,0,L|456:168,1,90,8|0,0:0|0:0,0:0:0:0:
218,263,122212,2,0,L|314:253,1,90
256,147,122781,5,4,0:0:0:0:
196,189,123065,2,0,P|183:146|196:104,1,90,2|8,0:0|0:0,0:0:0:0:
316,104,123350,2,0,P|329:146|316:188,1,90,2|8,0:0|0:0,0:0:0:0:
204,36,123634,1,2,0:0:0:0:
256,234,123776,1,8,0:0:0:0:
308,36,123919,1,2,0:0:0:0:
196,189,124203,6,0,P|117:206|102:206,1,90,2|8,0:0|0:0,0:0:0:0:
51,136,124487,1,2,0:0:0:0:
51,136,124558,1,2,0:0:0:0:
51,136,124629,2,0,P|75:59|83:46,1,90,8|8,0:0|0:3,0:0:0:0:
204,36,124914,1,4,0:3:0:0:
196,189,125056,5,4,0:0:0:0:
144,45,134156,5,2,0:0:0:0:
144,45,134440,5,0,0:0:0:0:
125,134,134582,1,8,0:0:0:0:
212,106,134866,1,8,0:0:0:0:
216,196,135008,1,0,0:0:0:0:
298,239,135293,5,0,0:0:0:0:
293,148,135435,1,8,0:0:0:0:
401,275,135719,1,8,0:0:0:0:
374,189,135861,1,0,0:0:0:0:
298,239,136146,1,0,0:0:0:0:
293,148,136288,2,0,P|273:73|230:38,1,107.999996704102,8|0,0:0|0:0,0:0:0:0:
201,35,136715,6,0,L|133:63,1,53.9999983520508,0|0,0:0|0:0,0:0:0:0:
311,35,136999,2,0,L|379:63,1,53.9999983520508,0|0,0:0|0:0,0:0:0:0:
176,129,137283,2,0,L|131:187,1,53.9999983520508,0|0,0:0|0:0,0:0:0:0:
336,129,137568,2,0,L|380:187,1,53.9999983520508,0|0,0:0|0:0,0:0:0:0:
151,253,137852,6,0,L|141:325,1,53.9999983520508
361,253,138137,2,0,L|370:325,1,53.9999983520508
229,194,138421,2,0,P|255:190|282:193,1,53.9999983520508
308,342,138705,6,0,P|255:353|203:342,1,107.999996704102
155,316,139132,1,8,0:0:0:0:
137,264,139274,1,0,0:0:0:0:
174,225,139416,2,0,P|212:165|212:108,1,107.999996704102,0|8,0:0|0:0,0:0:0:0:
190,80,139843,5,0,0:0:0:0:
138,64,139985,2,0,P|75:96|46:146,1,107.999996704102,0|8,0:0|0:0,0:0:0:0:
174,225,140411,2,0,P|227:230|281:225,1,107.999996704102
329,201,140838,1,8,0:0:0:0:
329,201,140980,6,0,L|344:261,1,53.9999983520508
412,229,141265,2,0,L|427:289,1,53.9999983520508
277,296,141549,2,0,L|292:356,1,53.9999983520508
360,324,141834,2,0,L|375:384,1,53.9999983520508
277,296,142118,6,0,L|292:356,1,53.9999983520508,0|8,0:0|0:0,0:0:0:0:
212,220,142402,2,0,L|197:280,1,53.9999983520508,0|8,0:0|0:0,0:0:0:0:
323,144,142686,2,0,L|338:204,1,53.9999983520508,0|8,0:0|0:0,0:0:0:0:
163,54,142971,2,0,L|148:114,1,53.9999983520508,0|8,0:0|0:0,0:0:0:0:
356,32,143255,5,6,0:0:0:0:
392,114,143539,1,2,0:0:0:0:
356,32,143682,1,2,0:0:0:0:
156,32,144392,5,6,0:0:0:0:
120,114,144676,1,2,0:0:0:0:
156,32,144819,1,2,0:0:0:0:
256,226,145530,5,6,0:0:0:0:
156,352,145815,1,2,0:0:0:0:
356,352,145957,1,2,0:0:0:0:
256,158,146668,5,6,0:0:0:0:
392,114,146952,1,2,0:0:0:0:
120,114,147094,1,2,0:0:0:0:
256,226,147805,5,6,0:0:0:0:
256,226,148089,2,0,L|355:251,1,90,2|2,0:0|0:0,0:0:0:0:
369,240,148302,1,0,0:0:0:0:
390,223,148373,1,2,0:0:0:0:
404,200,148444,1,0,0:0:0:0:
411,174,148515,1,2,0:0:0:0:
404,152,148586,1,0,0:0:0:0:
395,136,148657,1,2,0:0:0:0:
384,121,148729,1,0,0:0:0:0:
373,106,148800,1,2,0:0:0:0:
243,67,148942,5,6,0:0:0:0:
119,198,149227,2,0,P|122:250|148:312,1,90,2|2,0:0|0:0,0:0:0:0:
269,317,150080,5,4,0:0:0:0:
393,186,150364,2,0,P|390:134|364:72,1,90,2|2,0:0|0:0,0:0:0:0:
306,162,151217,6,0,P|239:148|152:249,1,180,2|0,0:0|0:0,0:0:0:0:
184,338,151644,1,8,0:0:0:0:
184,338,151786,2,0,L|76:344,1,90,2|8,0:0|0:0,0:0:0:0:
277,253,152070,2,0,L|385:259,1,90,2|8,0:0|0:0,0:0:0:0:
184,338,152355,5,4,0:0:0:0:
256,192,152426,12,4,156904,0:0:0:0:
117,102,161454,6,0,B|159:136|201:122|201:122|238:76|322:90,1,180,4|2,0:0|0:0,0:0:0:0:
302,88,161810,1,0,0:0:0:0:
323,93,161881,1,8,0:0:0:0:
343,103,161952,1,0,0:0:0:0:
361,117,162023,1,0,0:0:0:0:
375,135,162094,1,0,0:0:0:0:
385,155,162165,1,8,0:0:0:0:
390,177,162236,1,0,0:0:0:0:
391,200,162307,6,0,L|364:258,3,45,0|0|8|0,0:0|0:0|0:0|0:0,0:0:0:0:
359,259,162592,2,0,L|306:295,3,45,0|0|8|0,0:0|0:0|0:0|0:0,0:0:0:0:
301,294,162876,2,0,L|254:284,3,45,0|0|8|0,0:0|0:0|0:0|0:0,0:0:0:0:
234,285,163160,2,0,L|187:295,3,45,0|0|8|0,0:0|0:0|0:0|0:0,0:0:0:0:
167,294,163445,2,0,L|120:284,3,45,0|0|8|0,0:0|0:0|0:0|0:0,0:0:0:0:
101,279,163729,6,0,L|84:164,1,90,0|0,0:0|0:0,0:0:0:0:
181,36,164013,2,0,L|194:125,1,90,0|8,0:0|0:0,0:0:0:0:
201,130,164227,1,0,0:0:0:0:
208,136,164298,1,0,0:0:0:0:
215,141,164369,1,0,0:0:0:0:
222,147,164440,1,0,0:0:0:0:
229,153,164511,1,0,0:0:0:0:
236,158,164582,2,0,P|291:158|335:146,1,90,0|8,0:0|0:0,0:0:0:0:
181,36,164866,6,0,P|152:92|166:213,1,180,4|2,0:0|0:0,0:0:0:0:
287,277,165293,1,8,0:0:0:0:
404,194,165435,2,0,P|427:155|433:110,1,90,0|0,0:0|0:0,0:0:0:0:
315,194,165720,2,0,P|292:232|286:277,1,90,2|8,0:0|0:0,0:0:0:0:
405,194,166004,6,0,P|364:117|262:120,1,180,4|2,0:0|0:0,0:0:0:0:
248,129,166359,1,0,0:0:0:0:
225,157,166430,2,0,L|111:166,1,90,8|0,0:0|0:0,0:0:0:0:
287,236,166715,2,0,L|401:245,1,90,0|2,0:0|0:0,0:0:0:0:
482,159,166999,1,8,0:0:0:0:
489,128,167070,1,0,0:0:0:0:
485,97,167141,6,0,P|421:38|305:54,1,180,4|2,0:0|0:0,0:0:0:0:
256,88,167568,1,8,0:0:0:0:
256,88,167710,1,8,0:0:0:0:
256,88,167852,1,8,0:0:0:0:
179,38,167994,1,8,0:0:0:0:
256,179,168137,1,8,0:0:0:0:
332,38,168279,5,4,0:2:0:0:
340,269,172829,6,0,P|399:215|416:137,1,161.999995056153,4|0,0:0|0:0,0:0:0:0:
416,137,173184,1,0,0:0:0:0:
416,137,173255,1,8,0:0:0:0:
364,74,173397,2,0,L|357:29,2,40.4999987640381,0|0|2,0:0|0:0|0:0,0:0:0:0:
313,137,173682,2,0,L|306:177,2,40.4999987640381,0|0|8,0:0|0:0|0:0,0:0:0:0:
262,74,173966,6,0,P|180:64|118:136,1,161.999995056153,4|0,0:0|0:0,0:0:0:0:
124,114,174321,1,0,0:0:0:0:
124,114,174392,1,8,0:0:0:0:
150,191,174535,1,0,0:0:0:0:
154,198,174606,1,0,0:0:0:0:
158,205,174677,1,2,0:0:0:0:
163,212,174748,1,0,0:0:0:0:
167,219,174819,1,0,0:0:0:0:
171,226,174890,1,0,0:0:0:0:
175,233,174961,1,8,0:0:0:0:
179,240,175032,1,0,0:0:0:0:
183,246,175103,6,0,P|255:276|328:245,1,161.999995056153,4|2,0:0|0:0,0:0:0:0:
328,163,175530,1,8,0:0:0:0:
328,163,175672,2,0,P|255:132|182:163,1,161.999995056153,4|2,0:0|0:0,0:0:0:0:
328,245,176099,5,8,0:0:0:0:
328,245,176241,2,0,P|392:213|397:118,1,161.999995056153,4|2,0:0|0:0,0:0:0:0:
183,245,176667,1,8,0:0:0:0:
183,245,176810,2,0,P|120:213|115:118,1,161.999995056153,4|2,0:0|0:0,0:0:0:0:
156,62,177236,1,8,0:0:0:0:
180,40,177307,1,0,0:0:0:0:
210,27,177378,6,0,L|333:27,1,107.999996704102,0|2,0:0|0:0,0:0:0:0:
318,27,177734,1,2,0:0:0:0:
318,27,177805,6,0,B|306:72|306:72|317:113,1,90,12|0,0:0|0:0,0:0:0:0:
181,135,178089,2,0,B|213:167|213:167|256:178,1,90,2|0,0:0|0:0,0:0:0:0:
224,301,178373,2,0,B|268:288|268:288|299:257,1,90,8|0,0:0|0:0,0:0:0:0:
318,27,178658,1,2,0:0:0:0:
256,178,178800,1,0,0:0:0:0:
318,114,178942,6,0,P|361:105|405:113,1,90,8|0,0:0|0:0,0:0:0:0:
256,179,179226,2,0,L|153:179,1,90,2|0,0:0|0:0,0:0:0:0:
105,111,179511,1,8,0:0:0:0:
200,1,179653,1,0,0:0:0:0:
256,178,179795,2,0,P|262:242|252:280,1,90,2|0,0:0|0:0,0:0:0:0:
318,114,180079,6,0,P|356:166|366:204,1,90,8|0,0:0|0:0,0:0:0:0:
145,189,180364,2,0,P|161:147|190:113,1,90,2|0,0:0|0:0,0:0:0:0:
300,316,180648,2,0,L|201:316,1,90,8|0,0:0|0:0,0:0:0:0:
328,230,180932,5,2,0:0:0:0:
183,230,181075,1,0,0:0:0:0:
300,316,181217,1,8,0:0:0:0:
256,178,181359,1,0,0:0:0:0:
210,316,181501,1,2,0:0:0:0:
328,229,181643,2,0,P|372:226|417:229,1,90,0|8,0:0|0:0,0:0:0:0:
300,316,181928,6,0,P|263:265|266:150,1,180,4|0,0:0|0:0,0:0:0:0:
326,86,182354,2,0,L|432:66,1,90,8|0,0:0|0:0,0:0:0:0:
176,43,182639,2,0,L|282:23,1,90,2|0,0:0|0:0,0:0:0:0:
328,230,182923,1,8,0:0:0:0:
377,76,183065,1,0,0:0:0:0:
377,76,183492,5,0,0:0:0:0:
350,78,183563,1,0,0:0:0:0:
324,87,183634,1,0,0:0:0:0:
304,105,183705,1,0,0:0:0:0:
291,129,183776,1,8,0:0:0:0:
279,163,183847,5,0,0:0:0:0:
262,195,183918,1,8,0:0:0:0:
232,215,183989,1,0,0:0:0:0:
196,221,184060,1,8,0:0:0:0:
160,209,184132,1,0,0:0:0:0:
133,184,184203,6,0,B|96:128|130:69|130:69|69:16,1,180,4|0,0:0|0:0,0:0:0:0:
208,125,184629,2,0,B|245:181|211:240|211:240|272:293,1,180,8|2,0:0|0:0,0:0:0:0:
344,264,185056,1,0,0:0:0:0:
352,120,185198,1,8,0:0:0:0:
208,125,185340,6,0,P|166:108|115:69,1,90,0|2,0:0|0:0,0:0:0:0:
304,125,185624,2,0,P|345:108|396:69,1,90,0|8,0:0|0:0,0:0:0:0:
334,5,185909,2,0,P|292:21|241:60,1,90,0|2,0:0|0:0,0:0:0:0:
208,125,186193,1,0,0:0:0:0:
256,279,186335,1,8,0:0:0:0:
319,215,186477,6,0,P|363:209|408:214,1,90,0|2,0:0|0:0,0:0:0:0:
256,279,186762,2,0,P|211:273|166:278,1,90,0|8,0:0|0:0,0:0:0:0:
338,314,187046,1,0,0:0:0:0:
304,125,187188,1,2,0:0:0:0:
249,196,187330,2,0,L|146:200,1,90,0|8,0:0|0:0,0:0:0:0:
6,131,187615,6,0,L|95:134,1,90,0|2,0:0|0:0,0:0:0:0:
159,199,187899,1,0,0:0:0:0:
159,73,188041,1,8,0:0:0:0:
74,212,188184,1,0,0:0:0:0:
249,196,188326,1,2,0:0:0:0:
279,203,188397,1,0,0:0:0:0:
302,215,188468,1,0,0:0:0:0:
320,228,188539,1,0,0:0:0:0:
331,241,188610,1,8,0:0:0:0:
338,251,188681,1,0,0:0:0:0:
342,258,188752,6,0,B|352:199|352:199|392:152|392:152|406:71,1,180,4|0,0:0|0:0,0:0:0:0:
336,32,189179,1,8,0:0:0:0:
336,32,189321,2,0,L|319:129,1,90,0|2,0:0|0:0,0:0:0:0:
235,150,189605,1,0,0:0:0:0:
198,67,189748,1,8,0:0:0:0:
320,120,189890,6,0,L|423:113,1,90,0|2,0:0|0:0,0:0:0:0:
198,224,190174,2,0,L|300:216,1,90,0|8,0:0|0:0,0:0:0:0:
377,210,190458,1,0,0:0:0:0:
235,150,190601,1,2,0:0:0:0:
262,291,190743,1,0,0:0:0:0:
320,120,190885,1,8,0:0:0:0:
198,224,191027,6,0,P|111:235|46:177,1,180,4|0,0:0|0:0,0:0:0:0:
158,61,191454,1,8,0:0:0:0:
222,141,191596,2,0,P|220:186|197:224,1,90,0|10,0:0|0:0,0:0:0:0:
45,176,191880,2,0,P|46:132|70:94,1,90,0|8,0:0|0:0,0:0:0:0:
222,141,192165,6,0,P|319:153|420:101,1,180,4|0,0:0|0:0,0:0:0:0:
461,64,192591,1,8,0:0:0:0:
461,64,192733,2,0,L|474:158,1,90,0|2,0:0|0:0,0:0:0:0:
402,209,193018,1,0,0:0:0:0:
381,217,193089,1,0,0:0:0:0:
363,230,193160,1,0,0:0:0:0:
350,249,193231,1,0,0:0:0:0:
344,270,193302,6,0,B|324:291|304:295|304:295|262:275|221:286,1,107.999996704102,0|2,0:0|0:0,0:0:0:0:
245,282,193729,1,12,0:0:0:0:
164,319,193871,2,0,L|149:230,1,90,0|8,0:0|0:0,0:0:0:0:
78,258,194155,2,0,L|63:169,1,90,0|8,0:0|0:0,0:0:0:0:
249,197,194439,6,0,L|263:108,1,90,0|8,0:0|0:0,0:0:0:0:
335,136,194723,2,0,L|349:47,1,90,0|8,0:0|0:0,0:0:0:0:
183,93,195008,1,0,0:0:0:0:
183,93,195079,1,0,0:0:0:0:
183,93,195150,2,0,P|163:145|175:200,1,90,10|0,0:0|0:0,0:0:0:0:
219,252,195435,1,8,0:0:0:0:
297,207,195577,6,0,L|397:218,1,90,0|10,0:0|0:0,0:0:0:0:
219,252,195861,1,0,0:0:0:0:
219,252,195932,1,0,0:0:0:0:
219,252,196003,2,0,L|119:263,1,90,8|0,0:0|0:0,0:0:0:0:
70,149,196288,1,10,0:0:0:0:
183,93,196430,2,0,P|228:86|275:99,1,90,0|8,0:0|0:0,0:0:0:0:
129,261,196714,6,0,P|70:160|79:88,1,180,4|0,0:0|0:0,0:0:0:0:
123,25,197141,1,8,0:0:0:0:
123,25,197283,2,0,L|245:18,1,90,0|10,0:0|0:0,0:0:0:0:
302,13,197567,1,0,0:0:0:0:
302,13,197639,1,0,0:0:0:0:
302,13,197710,1,8,0:0:0:0:
270,96,197852,6,0,P|264:168|346:258,1,180,4|0,0:0|0:0,0:0:0:0:
399,196,198278,1,8,0:0:0:0:
399,196,198421,2,0,L|443:83,1,90,0|6,0:0|0:0,0:0:0:0:
436,312,198705,2,0,L|480:199,1,90,0|8,0:0|0:0,0:0:0:0:
327,250,198989,6,0,B|275:254|225:294|225:294|198:270|161:263,1,180,4|0,0:0|0:0,0:0:0:0:
165,264,199345,1,0,0:0:0:0:
165,264,199416,1,8,0:0:0:0:
124,184,199558,5,0,0:0:0:0:
124,184,199629,1,0,0:0:0:0:
124,184,199700,1,2,0:0:0:0:
151,98,199842,5,0,0:0:0:0:
151,98,199913,1,0,0:0:0:0:
151,98,199984,2,0,L|251:68,1,90,8|0,0:0|0:0,0:0:0:0:
286,150,200695,2,0,L|372:124,1,90
256,287,201264,5,4,0:0:0:0:
200,207,201548,2,0,L|110:186,1,90,2|8,0:0|0:0,0:0:0:0:
312,207,201833,2,0,L|402:186,1,90,2|8,0:0|0:0,0:0:0:0:
183,279,202117,1,2,0:0:0:0:
256,105,202259,1,8,0:0:0:0:
329,279,202402,1,2,0:0:0:0:
200,207,203112,5,0,0:0:0:0:
186,203,203183,1,0,0:0:0:0:
173,200,203254,1,0,0:0:0:0:
160,197,203325,1,0,0:0:0:0:
147,194,203396,1,0,0:0:0:0:
134,191,203467,1,0,0:0:0:0:
120,187,203539,6,0,P|81:128|125:22,1,180,4|0,0:0|0:0,0:0:0:0:
196,65,203966,1,8,0:0:0:0:
196,65,204108,2,0,L|295:51,1,90,0|2,0:0|0:0,0:0:0:0:
445,121,204392,1,0,0:0:0:0:
445,121,204463,1,0,0:0:0:0:
445,121,204534,2,0,L|346:107,1,90,8|4,0:0|0:0,0:0:0:0:
285,52,204819,5,2,0:0:0:0:
235,127,204961,2,0,P|217:186|230:233,1,90,0|8,0:0|0:0,0:0:0:0:
292,268,205245,2,0,P|308:226|305:182,1,90,0|2,0:0|0:0,0:0:0:0:
196,65,205530,1,0,0:0:0:0:
355,108,205672,1,8,0:0:0:0:
221,212,205814,6,0,P|213:309|292:358,1,180,4|0,0:0|0:0,0:0:0:0:
356,342,206240,1,8,0:0:0:0:
381,255,206383,2,0,L|349:167,1,90,0|2,0:0|0:0,0:0:0:0:
221,212,206667,1,0,0:0:0:0:
221,212,206738,1,0,0:0:0:0:
221,212,206809,2,0,P|175:214|125:202,1,90,8|4,0:0|0:0,0:0:0:0:
71,138,207093,5,2,0:0:0:0:
98,51,207236,1,0,0:0:0:0:
186,35,207378,1,8,0:0:0:0:
250,97,207520,1,0,0:0:0:0:
315,158,207662,1,2,0:0:0:0:
342,172,207733,1,0,0:0:0:0:
373,175,207804,1,0,0:0:0:0:
404,167,207875,1,0,0:0:0:0:
422,155,207946,1,8,0:0:0:0:
436,137,208018,1,0,0:0:0:0:
445,116,208089,6,0,P|469:209|438:309,1,180,4|0,0:0|0:0,0:0:0:0:
386,352,208515,1,8,0:0:0:0:
321,289,208657,2,0,L|227:306,1,90,0|2,0:0|0:0,0:0:0:0:
98,212,208942,1,0,0:0:0:0:
98,212,209013,1,0,0:0:0:0:
98,212,209084,2,0,L|186:228,1,90,8|4,0:0|0:0,0:0:0:0:
232,305,209368,5,2,0:0:0:0:
280,228,209511,2,0,P|295:178|284:139,1,90,0|8,0:0|0:0,0:0:0:0:
196,150,209795,2,0,L|107:133,1,90,0|2,0:0|0:0,0:0:0:0:
186,228,210079,1,0,0:0:0:0:
167,74,210221,1,8,0:0:0:0:
98,212,210364,6,0,P|134:301|224:310,1,180,4|0,0:0|0:0,0:0:0:0:
275,254,210790,1,8,0:0:0:0:
275,254,210932,2,0,P|322:243|366:249,1,90,0|2,0:0|0:0,0:0:0:0:
410,326,211217,1,0,0:0:0:0:
410,326,211288,1,0,0:0:0:0:
410,326,211359,2,0,P|362:336|319:331,1,90,8|4,0:0|0:0,0:0:0:0:
275,254,211643,5,2,0:0:0:0:
410,176,211785,1,0,0:0:0:0:
365,254,211928,1,8,0:0:0:0:
365,98,212070,2,0,L|454:91,1,90,0|2,0:0|0:0,0:0:0:0:
320,176,212354,2,0,L|230:169,1,90,0|8,0:0|0:0,0:0:0:0:
365,98,212639,6,0,P|409:182|334:265,1,180,4|0,0:0|0:0,0:0:0:0:
283,271,213065,1,8,0:0:0:0:
202,226,213207,2,0,P|159:215|116:226,1,90,0|2,0:0|0:0,0:0:0:0:
116,317,213492,1,0,0:0:0:0:
116,317,213563,1,0,0:0:0:0:
116,317,213634,2,0,P|159:327|202:317,1,90,8|4,0:0|0:0,0:0:0:0:
283,271,213918,5,2,0:0:0:0:
272,181,214060,2,0,L|208:87,2,90,0|8|0,0:0|0:0|0:0,0:0:0:0:
203,317,214487,1,2,0:0:0:0:
202,226,214629,1,0,0:0:0:0:
281,363,214771,1,8,0:0:0:0:
116,317,214913,6,0,P|57:242|82:156,1,180,4|0,0:0|0:0,0:0:0:0:
132,95,215340,1,8,0:0:0:0:
201,151,215482,2,0,L|313:146,1,90,0|2,0:0|0:0,0:0:0:0:
454,99,215766,1,0,0:0:0:0:
454,99,215838,1,0,0:0:0:0:
454,99,215909,2,0,L|364:94,1,90,8|4,0:0|0:0,0:0:0:0:
317,234,216193,5,2,0:0:0:0:
364,95,216335,1,0,0:0:0:0:
407,234,216477,1,8,0:0:0:0:
289,147,216620,1,0,0:0:0:0:
435,150,216762,1,2,0:0:0:0:
316,234,216904,2,0,P|272:239|227:233,1,90,0|8,0:0|0:0,0:0:0:0:
364,95,217188,6,0,P|409:221|375:304,1,180,4|0,0:0|0:0,0:0:0:0:
399,261,217544,1,0,0:0:0:0:
399,261,217615,1,8,0:0:0:0:
338,327,217757,2,0,L|438:336,1,90,0|2,0:0|0:0,0:0:0:0:
227,242,218041,1,0,0:0:0:0:
227,242,218112,1,0,0:0:0:0:
227,242,218184,2,0,L|316:233,1,90,8|4,0:0|0:0,0:0:0:0:
268,309,218468,5,2,0:0:0:0:
226,162,218610,2,0,L|136:153,1,90,0|8,0:0|0:0,0:0:0:0:
216,33,218894,1,0,0:0:0:0:
252,27,218966,1,0,0:0:0:0:
287,32,219037,1,2,0:0:0:0:
315,53,219108,1,0,0:0:0:0:
332,79,219179,1,0,0:0:0:0:
352,96,219250,1,0,0:0:0:0:
373,103,219321,1,8,0:0:0:0:
395,105,219392,1,0,0:0:0:0:
417,101,219463,6,0,P|488:137|460:248,1,180,4|0,0:0|0:0,0:0:0:0:
421,293,219890,1,8,0:0:0:0:
421,293,220032,2,0,L|320:293,1,90,0|2,0:0|0:0,0:0:0:0:
303,207,220316,1,0,0:0:0:0:
284,195,220387,1,0,0:0:0:0:
264,184,220458,1,8,0:0:0:0:
245,173,220529,1,0,0:0:0:0:
226,162,220601,6,0,L|209:272,1,90,4|2,0:0|0:0,0:0:0:0:
123,88,220885,2,0,L|136:176,1,90,0|8,0:0|0:0,0:0:0:0:
50,307,221169,1,0,0:0:0:0:
56,217,221312,1,2,0:0:0:0:
131,267,221454,1,0,0:0:0:0:
131,267,221525,1,0,0:0:0:0:
131,267,221596,2,0,L|223:267,1,90,8|0,0:0|0:0,0:0:0:0:
396,128,222875,5,4,0:0:0:0:
396,128,223160,1,2,0:0:0:0:
396,128,223302,2,0,L|293:128,1,90,8|2,0:0|0:0,0:0:0:0:
300,134,223515,1,2,0:0:0:0:
294,140,223586,1,8,0:0:0:0:
288,146,223657,1,4,0:3:0:0:
282,153,223729,1,2,0:0:0:0:
276,159,223800,1,2,0:0:0:0:
270,165,223871,1,8,0:0:0:0:
206,228,224013,6,0,P|96:204|70:141,1,180,4|2,0:0|0:0,0:0:0:0:
109,69,224439,1,8,0:0:0:0:
109,69,224582,2,0,L|215:52,1,90,2|0,0:0|0:0,0:0:0:0:
286,41,224866,1,2,0:0:0:0:
286,41,224937,1,2,0:0:0:0:
286,41,225008,1,8,0:0:0:0:
352,101,225150,6,0,P|381:193|324:265,1,180,4|2,0:0|0:0,0:0:0:0:
256,296,225577,1,8,0:0:0:0:
207,220,225719,2,0,L|113:209,1,90,2|8,0:0|0:0,0:0:0:0:
305,220,226003,2,0,L|399:209,1,90,2|8,0:0|0:0,0:0:0:0:
256,124,226288,5,2,0:0:0:0:
309,154,228136,5,2,0:0:0:0:
203,230,228278,1,10,0:0:0:0:
345,237,228421,1,10,0:0:0:0:
167,147,228563,5,14,0:0:0:0:
