osu file format v14

[General]
AudioFilename: Suzumu feat.GUMI - Heart Connect.mp3
AudioLeadIn: 1000
PreviewTime: 49560
Countdown: 0
SampleSet: None
StackLeniency: 0.7
Mode: 0
LetterboxInBreaks: 0
WidescreenStoryboard: 1

[Editor]
DistanceSpacing: 1
BeatDivisor: 4
GridSize: 4
TimelineZoom: 1.7

[Metadata]
Title:Heart Connect
TitleUnicode:心臓コネクト
Artist:Suzumu
ArtistUnicode:スズム
Creator:AllStar12
Version:Hard
Source:
Tags:GUMI Vocaloid Shinzou tokiti ke-sanβ TT_Mouse
BeatmapID:647487
BeatmapSetID:242708

[Difficulty]
HPDrainRate:5
CircleSize:4
OverallDifficulty:6
ApproachRate:8
SliderMultiplier:1.4
SliderTickRate:1

[Events]
//Background and Video events
0,0,"Background.png",0,0
Video,-54,"Video.avi"
//Break Periods
2,2698,4876
2,6110,7151
2,9239,10279
2,22888,26203
2,27722,28763
2,69522,77672
2,125256,133406
2,157104,160704
2,168479,172079
//Storyboard Layer 0 (Background)
//Storyboard Layer 1 (Fail)
//Storyboard Layer 2 (Pass)
//Storyboard Layer 3 (Foreground)
//Storyboard Sound Samples

[TimingPoints]
1077,284.36018957346,4,1,1,70,1,0
30650,-100,4,1,1,50,0,0
31787,-111.111111111111,4,1,1,60,0,0
41029,284.36018957346,4,1,1,70,1,0
41029,-125,4,1,1,40,0,0
47569,-111.111111111111,4,1,1,70,0,0
49986,284.36018957346,4,1,1,70,1,1
58801,-100,4,1,1,50,0,1
59085,-166.666666666667,4,1,1,70,0,0
59369,-100,4,1,1,20,0,1
59440,-100,4,1,1,50,0,0
59512,-100,4,1,1,70,0,1
69322,-100,4,1,1,70,0,0
78422,-166.666666666667,4,2,1,40,0,0
86384,-125,4,1,1,40,0,0
87521,-111.111111111111,4,1,1,60,0,0
96763,284.36018957346,4,1,1,70,1,0
96763,-125,4,1,1,40,0,0
103303,-111.111111111111,4,1,1,70,0,0
105720,284.36018957346,4,1,1,70,1,1
114535,-100,4,1,1,50,0,1
114819,-166.666666666667,4,1,1,70,0,0
115103,-100,4,1,1,20,0,1
115174,-100,4,1,1,50,0,0
115246,-100,4,1,1,70,0,1
125056,-100,4,1,1,70,0,0
134156,-166.666666666667,4,2,1,40,0,0
143255,-100,4,1,1,60,0,0
152355,-100,4,1,1,70,0,0
161738,-100,4,1,1,40,0,0
163729,-100,4,1,1,70,0,0
164156,-100,4,1,1,40,0,0
164582,-100,4,1,1,70,0,0
168279,-166.666666666667,4,1,1,40,0,0
172829,-111.111111111111,4,1,1,60,0,0
174535,-111.111111111111,4,1,1,40,0,0
175103,-111.111111111111,4,1,1,60,0,0
177378,-166.666666666667,4,1,1,70,0,0
177663,-100,4,1,1,20,0,1
177805,284.36018957346,4,1,1,70,1,1
183065,-100,4,1,1,70,0,0
183492,-100,4,1,1,40,0,0
183847,-100,4,1,1,50,0,0
184203,284.36018957346,4,1,1,70,1,1
188326,-100,4,1,1,50,0,1
188752,-100,4,1,1,70,0,1
193018,-100,4,1,1,50,0,1
193302,-166.666666666667,4,1,1,70,0,0
193586,-100,4,1,1,20,0,1
193657,-100,4,1,1,50,0,0
193729,-100,4,1,1,70,0,1
203112,-100,4,1,1,50,0,1
203539,-100,4,1,1,70,0,0
207662,-100,4,1,1,50,0,0
208089,-100,4,1,1,70,0,0
218894,-100,4,1,1,50,0,0
219463,-100,4,1,1,70,0,0
220316,-100,4,1,1,50,0,0
220601,-100,4,1,1,70,0,0
223444,-100,4,1,1,50,0,0
223871,-100,4,1,1,70,0,0

[HitObjects]
256,186,1077,5,4,0:0:0:0:
186,255,2214,6,0,P|159:192|186:128,1,140,4|4,0:0|0:0,0:0:0:0:
325,128,5626,6,0,P|352:191|325:255,1,140,4|4,0:0|0:0,0:0:0:0:
212,62,7901,6,0,B|224:34|256:9|256:9|288:34|300:62,1,140,4|4,0:0|0:0,0:0:0:0:
256,186,9039,5,2,0:0:0:0:
256,186,11029,5,4,0:3:0:0:
256,186,11313,6,0,P|208:238|131:233,1,140,4|2,0:0|0:0,0:0:0:0:
106,162,11740,2,0,P|154:110|231:115,1,140,8|0,0:0|0:0,0:0:0:0:
303,117,12167,2,0,L|368:94,2,35,2|0|8,0:0|0:0|0:0,0:0:0:0:
256,186,12451,5,0,0:0:0:0:
256,186,12593,2,0,P|254:273|291:337,2,140,0|8|0,0:0|0:0|0:0,0:0:0:0:
303,117,13304,2,0,L|390:117,1,70,2|8,0:0|0:0,0:0:0:0:
405,39,13588,6,0,P|338:19|272:38,1,140,4|2,0:0|0:0,0:0:0:0:
220,105,14015,2,0,P|153:124|87:105,1,140,8|0,0:0|0:0,0:0:0:0:
34,40,14441,2,0,L|5:9,2,35,2|0|8,0:0|0:0|0:0,0:0:0:0:
87,105,14726,6,0,L|96:174,1,70,0|0,0:0|0:0,0:0:0:0:
142,244,15010,1,2,0:0:0:0:
142,244,15152,1,8,0:0:0:0:
215,201,15295,2,0,P|249:194|283:201,1,70,0|0,0:0|0:0,0:0:0:0:
284,284,15579,2,0,P|249:290|215:283,1,70,2|8,0:0|0:0,0:0:0:0:
142,244,15863,6,0,P|140:161|208:116,1,140,4|2,0:0|0:0,0:0:0:0:
261,134,16290,2,0,P|344:136|389:68,1,140,8|0,0:0|0:0,0:0:0:0:
367,15,16716,2,0,L|332:3,2,35,2|0|8,0:0|0:0|0:0,0:0:0:0:
445,45,17001,5,0,0:0:0:0:
445,45,17143,2,0,P|464:109|446:191,1,140,0|8,0:0|0:0,0:0:0:0:
326,293,17712,1,0,0:0:0:0:
326,293,17854,2,0,L|296:211,1,70,2|8,0:0|0:0,0:0:0:0:
236,279,18138,6,0,P|174:310|98:268,1,140,4|2,0:0|0:0,0:0:0:0:
47,231,18565,2,0,P|109:200|185:242,1,140,8|0,0:0|0:0,0:0:0:0:
236,279,18991,2,0,L|235:335,2,35,2|0|8,0:0|0:0|0:0,0:0:0:0:
250,195,19276,6,0,L|312:133,1,70,4|0,0:0|0:0,0:0:0:0:
359,87,19560,1,2,0:0:0:0:
359,87,19702,1,8,0:0:0:0:
438,112,19844,2,0,P|405:157|366:171,1,70,0|0,0:0|0:0,0:0:0:0:
279,64,20129,2,0,P|309:19|350:3,1,70,2|8,0:0|0:0,0:0:0:0:
394,163,20413,5,4,0:0:0:0:
394,163,21550,5,8,0:0:0:0:
394,163,21835,1,8,0:0:0:0:
214,228,22261,6,0,P|205:261|213:295,1,70,10|2,0:0|0:0,0:0:0:0:
298,295,22546,2,0,P|306:261|298:228,1,70,10|6,0:0|0:0,0:0:0:0:
256,209,26953,6,0,L|256:172,2,35,0|0|0,0:0|0:0|0:0,0:0:0:0:
320,267,27238,2,0,P|257:293|194:266,1,140,8|8,0:0|0:0,0:0:0:0:
192,112,29513,6,0,P|255:85|318:112,1,140,8|8,0:0|0:0,0:0:0:0:
320,266,30650,6,0,P|257:293|194:266,2,140,6|2|2,0:0|0:0|0:0,0:0:0:0:
377,204,31361,1,12,0:0:0:0:
377,204,31503,2,0,L|363:131,1,70,2|8,0:0|0:0,0:0:0:0:
293,163,31787,6,0,P|213:181|155:151,1,125.999996154785,4|2,0:0|0:0,0:0:0:0:
98,162,32214,2,0,P|46:215|48:285,1,125.999996154785,8|0,0:0|0:0,0:0:0:0:
76,330,32640,2,0,L|159:363,1,62.9999980773926,2|8,0:0|0:0,0:0:0:0:
171,287,32925,6,0,L|314:287,1,125.999996154785,0|2,0:0|0:0,0:0:0:0:
372,287,33351,1,8,0:0:0:0:
372,287,33494,2,0,P|397:244|404:212,1,62.9999980773926,0|0,0:0|0:0,0:0:0:0:
344,181,33778,2,0,P|332:133|314:105,1,62.9999980773926,2|8,0:0|0:0,0:0:0:0:
252,101,34062,6,0,P|169:111|122:75,1,125.999996154785,0|2,0:0|0:0,0:0:0:0:
111,18,34489,2,0,P|60:81|75:137,1,125.999996154785,8|0,0:0|0:0,0:0:0:0:
105,185,34915,1,2,0:0:0:0:
105,185,35058,1,8,0:0:0:0:
105,185,35200,6,0,P|158:199|205:271,1,125.999996154785,0|2,0:0|0:0,0:0:0:0:
226,323,35626,1,8,0:0:0:0:
295,352,35768,2,0,L|381:343,1,62.9999980773926,0|0,0:0|0:0,0:0:0:0:
429,321,36053,2,0,L|391:270,1,62.9999980773926,2|8,0:0|0:0,0:0:0:0:
451,223,36337,6,0,P|478:165|445:100,1,125.999996154785,4|2,0:0|0:0,0:0:0:0:
402,164,36764,2,0,P|381:103|420:42,1,125.999996154785,8|0,0:0|0:0,0:0:0:0:
336,26,37190,2,0,L|249:26,1,62.9999980773926,2|8,0:0|0:0,0:0:0:0:
226,85,37475,6,0,P|168:107|111:85,1,125.999996154785,0|2,0:0|0:0,0:0:0:0:
64,26,37901,1,8,0:0:0:0:
64,26,38043,2,0,L|24:96,1,62.9999980773926,0|0,0:0|0:0,0:0:0:0:
68,147,38328,2,0,L|89:224,1,62.9999980773926,2|8,0:0|0:0,0:0:0:0:
156,230,38612,6,0,P|222:256|246:332,1,125.999996154785,4|2,0:0|0:0,0:0:0:0:
311,340,39039,2,0,P|397:324|422:291,1,125.999996154785,8|0,0:0|0:0,0:0:0:0:
442,225,39465,1,2,0:0:0:0:
442,225,39607,1,8,0:0:0:0:
442,225,39749,6,0,L|376:106,1,125.999996154785,4|2,0:0|0:0,0:0:0:0:
316,74,40176,1,8,0:0:0:0:
240,74,40318,2,0,P|181:96|164:115,1,62.9999980773926,0|8,0:0|0:0,0:0:0:0:
156,166,40603,2,0,P|128:181|97:187,1,62.9999980773926,2|8,0:0|0:0,0:0:0:0:
46,63,41029,5,12,0:0:0:0:
101,256,41455,5,2,0:0:0:0:
101,256,41597,2,0,P|154:271|209:266,1,112,8|2,0:0|0:0,0:0:0:0:
270,237,42024,2,0,P|325:231|378:247,1,112,2|8,0:0|0:0,0:0:0:0:
430,290,42450,6,0,L|451:369,2,56,0|2|8,0:0|0:0|0:0,0:0:0:0:
441,223,42877,2,0,P|459:172|443:106,1,112,8|8,0:0|0:0,0:0:0:0:
404,65,43303,5,10,0:0:0:0:
337,51,43446,2,0,L|202:71,1,112,0|2,0:0|0:0,0:0:0:0:
173,25,43872,2,0,P|158:77|187:123,1,112,8|0,0:0|0:0,0:0:0:0:
251,144,44299,1,0,0:0:0:0:
251,144,44441,6,0,L|238:219,1,56,8|2,0:0|0:0,0:0:0:0:
232,265,44725,2,0,P|238:319|282:351,1,112,8|8,0:0|0:0,0:0:0:0:
297,285,45152,1,8,0:3:0:0:
362,305,45294,2,0,P|356:250|312:218,1,112,4|4,0:3|0:0,0:0:0:0:
256,192,47569,5,4,0:3:0:0:
206,118,47853,6,0,L|198:55,1,62.9999980773926,8|0,0:0|0:0,0:0:0:0:
306,118,48280,6,0,L|313:55,1,62.9999980773926,8|0,0:0|0:0,0:0:0:0:
169,213,48706,6,0,L|106:203,1,62.9999980773926,8|0,0:0|0:0,0:0:0:0:
343,213,49133,6,0,L|405:203,1,62.9999980773926,8|0,0:0|0:0,0:0:0:0:
206,118,49986,6,0,P|144:89|82:118,1,140,4|0,0:0|0:0,0:0:0:0:
145,173,50412,2,0,P|207:199|268:169,1,140,8|2,0:0|0:0,0:0:0:0:
288,87,50839,2,0,L|249:20,1,70,0|8,0:0|0:0,0:0:0:0:
336,27,51123,6,0,P|412:74|424:137,1,140,0|0,0:0|0:0,0:0:0:0:
367,181,51549,2,0,P|341:243|367:306,1,140,8|2,0:0|0:0,0:0:0:0:
451,320,51976,1,0,0:0:0:0:
482,244,52118,1,8,0:0:0:0:
482,244,52260,6,0,L|342:244,1,140,0|0,0:0|0:0,0:0:0:0:
278,188,52687,2,0,P|191:243|142:242,1,140,8|2,0:0|0:0,0:0:0:0:
98,183,53113,1,0,0:0:0:0:
98,183,53256,1,8,0:0:0:0:
98,183,53398,6,0,P|145:91|188:68,1,140,0|0,0:0|0:0,0:0:0:0:
256,56,53824,1,8,0:0:0:0:
329,98,53967,2,0,P|363:103|397:97,1,70,0|2,0:0|0:0,0:0:0:0:
398,13,54251,2,0,P|363:7|329:13,1,70,0|8,0:0|0:0,0:0:0:0:
256,56,54535,6,0,P|251:128|327:182,1,140,4|0,0:0|0:0,0:0:0:0:
377,192,54962,1,8,0:0:0:0:
256,308,55246,1,2,0:0:0:0:
256,308,55388,2,0,L|336:308,2,70,0|8|0,0:0|0:0|0:0,0:0:0:0:
171,308,55815,6,0,P|103:258|101:187,1,140,2|8,0:0|0:0,0:0:0:0:
108,124,56241,2,0,L|180:97,1,70,0|2,0:0|0:0,0:0:0:0:
268,145,56526,2,0,L|202:169,1,70,0|8,0:0|0:0,0:0:0:0:
245,72,56810,6,0,P|311:83|342:143,1,140,4|0,0:0|0:0,0:0:0:0:
298,215,57237,1,8,0:0:0:0:
298,215,57379,2,0,L|339:307,1,70,0|2,0:0|0:0,0:0:0:0:
361,355,57663,2,0,L|260:344,1,70,0|8,0:0|0:0,0:0:0:0:
246,275,57948,6,0,P|183:248|120:273,1,140,4|0,0:0|0:0,0:0:0:0:
82,348,58374,1,8,0:0:0:0:
82,348,58516,2,0,L|36:278,1,70,0|2,0:0|0:0,0:0:0:0:
44,205,58801,6,0,L|51:148,4,35,0|0|0|0|0,0:0|0:0|0:0|0:0|0:0,0:0:0:0:
133,158,59369,1,2,0:0:0:0:
133,158,59512,6,0,P|130:79|158:9,2,140,12|2|8,0:0|0:0|0:0,0:0:0:0:
196,212,60222,2,0,L|286:204,1,70,0|2,0:0|0:0,0:0:0:0:
349,198,60507,2,0,P|400:251|387:328,1,140,0|0,0:0|0:0,0:0:0:0:
322,353,60933,1,2,0:0:0:0:
322,353,61076,2,0,L|240:373,1,70,0|8,0:0|0:0,0:0:0:0:
266,286,61360,6,0,P|277:219|256:140,1,140,0|0,0:0|0:0,0:0:0:0:
226,72,61786,2,0,P|263:14|329:2,1,140,8|2,0:0|0:0,0:0:0:0:
309,83,62213,2,0,P|319:117|343:141,1,70,0|8,0:0|0:0,0:0:0:0:
423,168,62497,6,0,P|464:245|427:309,1,140,4|0,0:0|0:0,0:0:0:0:
380,341,62924,1,8,0:0:0:0:
380,341,63066,2,0,L|291:337,1,70,0|2,0:0|0:0,0:0:0:0:
157,265,63493,1,8,0:0:0:0:
157,265,63635,6,0,P|201:236|210:143,1,140,4|0,0:0|0:0,0:0:0:0:
136,183,64061,2,0,P|92:154|83:61,1,140,8|2,0:0|0:0,0:0:0:0:
157,102,64488,2,0,L|239:102,1,70,0|8,0:0|0:0,0:0:0:0:
284,40,64772,6,0,P|331:91|399:98,1,140,4|0,0:0|0:0,0:0:0:0:
477,130,65199,2,0,P|504:192|484:257,1,140,8|2,0:0|0:0,0:0:0:0:
402,278,65625,2,0,L|353:263,2,35,0|0|8,0:0|0:0|0:0,0:0:0:0:
461,338,65910,5,0,0:0:0:0:
196,82,67047,6,0,P|256:51|316:82,1,140,4|2,0:0|0:0,0:0:0:0:
362,153,67474,1,8,0:0:0:0:
341,234,67616,2,0,L|286:304,1,70,2|8,0:0|0:0,0:0:0:0:
214,289,67900,2,0,L|171:234,2,70,2|8|2,0:0|0:0|0:0,0:0:0:0:
88,176,68469,6,0,L|88:134,5,35,2|0|10|0|2|0,0:0|0:0|0:0|0:0|0:0|0:0,0:0:0:0:
91,99,68895,2,0,P|107:61|143:26,1,70,10|2,0:0|0:0,0:0:0:0:
199,83,69180,2,0,P|182:120|146:155,1,70,10|6,0:0|0:0,0:0:0:0:
126,117,78422,5,4,0:1:0:0:
126,117,80696,5,0,0:0:0:0:
126,117,82971,2,0,P|152:197|161:208,1,83.9999974365235,8|0,0:0|0:0,0:0:0:0:
198,214,83398,2,0,P|261:237|278:259,1,83.9999974365235,8|2,0:0|0:0,0:0:0:0:
297,290,83824,1,2,0:0:0:0:
297,290,83967,1,0,0:0:0:0:
297,290,84109,6,0,L|382:295,1,83.9999974365235,8|0,0:0|0:0,0:0:0:0:
401,248,84535,2,0,L|464:191,1,83.9999974365235,8|0,0:0|0:0,0:0:0:0:
482,145,84962,2,0,L|471:93,1,41.9999987182618,8|0,0:0|0:0,0:0:0:0:
438,67,85246,6,0,P|378:53|344:64,1,83.9999974365235,2|2,0:0|0:0,0:0:0:0:
313,82,85673,2,0,P|253:96|219:85,1,83.9999974365235,8|2,0:0|0:0,0:0:0:0:
186,71,86099,1,2,0:0:0:0:
186,71,86241,1,0,0:0:0:0:
186,71,86384,6,0,P|159:121|185:188,1,112,0|2,0:0|0:0,0:0:0:0:
221,216,86810,1,8,0:0:0:0:
221,216,86952,2,0,L|296:216,1,56,2|8,0:0|0:0,0:0:0:0:
314,291,87237,2,0,L|258:291,1,56,6|8,0:0|0:0,0:0:0:0:
164,277,87521,6,0,P|138:213|171:149,1,125.999996154785,4|0,0:0|0:0,0:0:0:0:
231,145,87948,2,0,P|285:117|301:55,1,125.999996154785,8|2,0:0|0:0,0:0:0:0:
229,35,88374,2,0,P|204:54|189:81,1,62.9999980773926,0|8,0:0|0:0,0:0:0:0:
231,145,88658,6,0,P|257:223|219:269,1,125.999996154785,0|0,0:0|0:0,0:0:0:0:
164,277,89085,1,8,0:0:0:0:
164,277,89227,2,0,P|132:272|101:276,1,62.9999980773926,0|2,0:0|0:0,0:0:0:0:
135,345,89512,2,0,P|166:349|197:345,1,62.9999980773926,0|8,0:0|0:0,0:0:0:0:
260,303,89796,6,0,P|317:280|384:312,1,125.999996154785,0|0,0:0|0:0,0:0:0:0:
450,302,90222,2,0,P|479:253|451:169,1,125.999996154785,8|2,0:0|0:0,0:0:0:0:
409,138,90649,1,0,0:0:0:0:
409,138,90791,1,8,0:0:0:0:
409,137,90933,6,0,P|347:127|302:85,1,125.999996154785,0|0,0:0|0:0,0:0:0:0:
272,14,91360,1,8,0:0:0:0:
272,14,91502,2,0,L|338:2,1,62.9999980773926,0|2,0:0|0:0,0:0:0:0:
302,85,91786,2,0,L|240:96,1,62.9999980773926,0|8,0:0|0:0,0:0:0:0:
194,35,92071,6,0,P|165:84|200:161,1,125.999996154785,4|0,0:0|0:0,0:0:0:0:
249,182,92497,2,0,P|278:231|243:308,1,125.999996154785,8|2,0:0|0:0,0:0:0:0:
202,243,92924,2,0,L|140:231,1,62.9999980773926,0|8,0:0|0:0,0:0:0:0:
66,247,93208,6,0,P|30:199|43:112,1,125.999996154785,0|0,0:0|0:0,0:0:0:0:
67,68,93635,1,8,0:0:0:0:
67,68,93777,2,0,L|144:54,1,62.9999980773926,0|2,0:0|0:0,0:0:0:0:
172,118,94061,2,0,L|233:129,1,62.9999980773926,0|8,0:0|0:0,0:0:0:0:
278,68,94346,6,0,P|335:44|392:68,1,125.999996154785,4|0,0:0|0:0,0:0:0:0:
392,143,94772,2,0,P|335:166|278:142,1,125.999996154785,8|2,0:0|0:0,0:0:0:0:
278,68,95199,2,0,L|294:3,2,62.9999980773926,0|8|4,0:0|0:0|0:0,0:0:0:0:
199,197,95767,6,0,P|125:231|88:220,2,94.499997116089,2|8|8,0:0|0:0|0:0,0:0:0:0:
269,172,96336,2,0,P|328:192|355:247,1,125.999996154785,2|0,0:0|0:0,0:0:0:0:
350,322,96763,5,4,0:0:0:0:
451,128,97189,1,2,0:0:0:0:
451,128,97331,2,0,P|367:115|335:82,1,112,8|2,0:0|0:0,0:0:0:0:
287,69,97758,2,0,P|191:104|176:123,1,112,2|8,0:0|0:0,0:0:0:0:
136,153,98184,6,0,P|109:155|81:153,2,56,0|2|8,0:0|0:0|0:0,0:0:0:0:
200,175,98611,2,0,P|238:223|231:280,1,112,8|8,0:0|0:0,0:0:0:0:
241,337,99037,5,10,0:0:0:0:
298,372,99180,2,0,P|365:374|418:342,1,112,8|0,0:0|0:0,0:0:0:0:
393,288,99606,2,0,P|428:230|427:169,1,112,8|8,0:0|0:0,0:0:0:0:
394,130,100033,1,2,0:0:0:0:
394,130,100175,6,0,L|320:126,1,56,0|8,0:0|0:0,0:0:0:0:
270,127,100459,2,0,P|200:164|154:151,1,112,2|0,0:0|0:0,0:0:0:0:
110,129,100886,1,8,0:3:0:0:
96,63,101028,6,0,L|96:15,4,28,4|0|0|0|4,0:3|0:0|0:0|0:0|0:0,0:0:0:0:
35,302,103303,5,4,0:3:0:0:
133,187,103587,6,0,L|206:200,1,62.9999980773926,8|0,0:0|0:0,0:0:0:0:
293,312,104014,6,0,L|366:325,1,62.9999980773926,8|0,0:0|0:0,0:0:0:0:
483,244,104440,6,0,L|410:231,1,62.9999980773926,8|0,0:0|0:0,0:0:0:0:
323,119,104867,6,0,L|250:106,1,62.9999980773926,8|0,0:0|0:0,0:0:0:0:
133,187,105720,6,0,P|104:249|133:311,1,140,4|0,0:0|0:0,0:0:0:0:
188,248,106146,2,0,P|214:186|184:125,1,140,8|2,0:0|0:0,0:0:0:0:
104,95,106573,2,0,L|31:95,1,70,0|8,0:0|0:0,0:0:0:0:
109,21,106857,6,0,P|176:3|243:20,1,140,0|0,0:0|0:0,0:0:0:0:
314,65,107283,2,0,P|381:81|448:64,1,140,8|2,0:0|0:0,0:0:0:0:
509,122,107710,1,0,0:0:0:0:
478,200,107852,1,8,0:0:0:0:
478,200,107994,6,0,B|429:195|393:212|393:212|368:190|340:183,1,140,0|0,0:0|0:0,0:0:0:0:
261,186,108421,2,0,P|191:215|135:185,1,140,8|2,0:0|0:0,0:0:0:0:
89,120,108847,1,0,0:0:0:0:
89,120,108990,1,8,0:0:0:0:
89,120,109132,6,0,P|53:192|83:252,1,140,0|0,0:0|0:0,0:0:0:0:
141,292,109558,1,8,0:0:0:0:
141,292,109701,2,0,P|176:298|210:292,1,70,0|2,0:0|0:0,0:0:0:0:
280,214,109985,2,0,P|245:208|211:214,1,70,0|8,0:0|0:0,0:0:0:0:
280,293,110269,6,0,P|347:255|352:183,1,140,4|0,0:0|0:0,0:0:0:0:
322,120,110696,1,8,0:0:0:0:
158,81,110980,1,2,0:0:0:0:
158,81,111122,2,0,P|142:125|140:159,2,70,0|8|0,0:0|0:0|0:0,0:0:0:0:
222,26,111549,6,0,B|270:3|308:54|359:25,1,140,2|8,0:0|0:0,0:0:0:0:
441,26,111975,2,0,P|450:59|440:92,1,70,0|2,0:0|0:0,0:0:0:0:
358,92,112260,2,0,P|348:59|358:26,1,70,0|8,0:0|0:0,0:0:0:0:
440,92,112544,6,0,P|414:154|330:171,1,140,4|0,0:0|0:0,0:0:0:0:
280,124,112971,1,8,0:0:0:0:
280,124,113113,2,0,L|194:136,1,70,0|2,0:0|0:0,0:0:0:0:
127,145,113397,2,0,L|180:213,1,70,0|8,0:0|0:0,0:0:0:0:
254,205,113682,6,0,P|293:255|271:327,1,140,4|0,0:0|0:0,0:0:0:0:
203,370,114108,1,8,0:0:0:0:
203,370,114250,2,0,L|121:364,1,70,0|2,0:0|0:0,0:0:0:0:
77,301,114535,6,0,L|57:251,4,35,0|0|0|0|0,0:0|0:0|0:0|0:0|0:0,0:0:0:0:
379,226,115103,1,2,0:0:0:0:
379,226,115246,6,0,P|382:305|354:375,2,140,12|2|8,0:0|0:0|0:0,0:0:0:0:
346,148,115956,2,0,L|447:104,1,70,0|2,0:0|0:0,0:0:0:0:
340,71,116241,2,0,P|277:40|208:45,1,140,0|0,0:0|0:0,0:0:0:0:
139,92,116667,1,2,0:0:0:0:
139,92,116810,2,0,L|121:180,1,70,0|8,0:0|0:0,0:0:0:0:
197,202,117094,6,0,P|245:256|240:337,1,140,0|0,0:0|0:0,0:0:0:0:
170,355,117520,2,0,P|121:300|126:219,1,140,8|2,0:0|0:0,0:0:0:0:
197,202,117947,2,0,L|281:202,1,70,0|8,0:0|0:0,0:0:0:0:
350,202,118231,6,0,P|408:234|467:201,1,140,4|0,0:0|0:0,0:0:0:0:
496,122,118658,1,8,0:0:0:0:
496,122,118800,2,0,L|461:31,1,70,0|2,0:0|0:0,0:0:0:0:
302,57,119227,1,8,0:0:0:0:
302,57,119369,6,0,P|239:104|158:87,1,140,4|0,0:0|0:0,0:0:0:0:
101,125,119795,2,0,P|68:208|106:279,1,140,8|2,0:0|0:0,0:0:0:0:
164,229,120222,2,0,L|250:229,1,70,0|8,0:0|0:0,0:0:0:0:
293,287,120506,6,0,P|340:236|408:229,1,140,4|0,0:0|0:0,0:0:0:0:
487,200,120933,2,0,P|507:136|473:77,1,140,8|2,0:0|0:0,0:0:0:0:
390,66,121359,2,0,L|342:86,2,35,0|0|8,0:0|0:0|0:0,0:0:0:0:
442,0,121644,5,0,0:0:0:0:
196,302,122781,6,0,P|256:333|316:302,1,140,4|2,0:0|0:0,0:0:0:0:
362,231,123208,1,8,0:0:0:0:
341,150,123350,2,0,L|286:80,1,70,2|8,0:0|0:0,0:0:0:0:
214,95,123634,2,0,L|171:150,2,70,2|8|2,0:0|0:0|0:0,0:0:0:0:
439,133,124203,6,0,P|445:167|439:201,1,70,2|8,0:0|0:0,0:0:0:0:
427,284,124487,2,0,L|443:326,2,35,2|2|8,0:0|0:0|0:0,0:0:0:0:
362,231,124772,2,0,P|334:209|316:179,1,70,8|4,0:3|0:3,0:0:0:0:
359,107,125056,1,4,0:0:0:0:
315,88,134156,5,2,0:0:0:0:
315,88,134440,2,0,L|320:46,1,41.9999987182618,0|8,0:0|0:0,0:0:0:0:
237,103,134866,2,0,L|242:61,1,41.9999987182618,8|0,0:0|0:0,0:0:0:0:
293,199,135293,6,0,L|287:157,1,41.9999987182618,0|8,0:0|0:0,0:0:0:0:
371,214,135719,2,0,L|365:172,1,41.9999987182618,8|0,0:0|0:0,0:0:0:0:
320,270,136146,1,0,0:0:0:0:
320,270,136288,6,0,P|281:313|248:327,1,83.9999974365235,8|0,0:0|0:0,0:0:0:0:
207,330,136715,1,0,0:0:0:0:
207,330,136857,2,0,P|177:294|132:268,1,83.9999974365235,0|0,0:0|0:0,0:0:0:0:
98,258,137283,1,0,0:0:0:0:
98,258,137426,6,0,P|83:201|91:159,1,83.9999974365235,0|0,0:0|0:0,0:0:0:0:
101,128,137852,1,0,0:0:0:0:
101,128,137994,2,0,P|155:114|186:83,1,83.9999974365235,0|0,0:0|0:0,0:0:0:0:
217,67,138421,2,0,L|275:67,1,41.9999987182618,0|0,0:0|0:0,0:0:0:0:
309,67,138705,1,0,0:0:0:0:
376,141,138990,6,0,L|434:141,2,41.9999987182618,0|8|0,0:0|0:0|0:0,0:0:0:0:
325,141,139416,2,0,P|290:181|284:219,1,83.9999974365235,0|8,0:0|0:0,0:0:0:0:
290,260,139843,5,0,0:0:0:0:
264,303,139985,2,0,P|215:323|171:318,1,83.9999974365235,0|8,0:0|0:0,0:0:0:0:
149,286,140411,2,0,P|119:241|81:224,1,83.9999974365235,0|0,0:0|0:0,0:0:0:0:
46,207,140838,6,0,P|34:137|42:108,1,83.9999974365235,8|0,0:0|0:0,0:0:0:0:
135,108,141407,2,0,P|189:62|218:55,1,83.9999974365235,0|0,0:0|0:0,0:0:0:0:
265,135,141975,6,0,P|331:159|352:181,1,83.9999974365235,0|8,0:0|0:0,0:0:0:0:
306,261,142544,2,0,P|318:300|315:342,2,83.9999974365235,8|8|8,0:0|0:0|0:0,0:0:0:0:
243,204,143255,5,6,0:0:0:0:
243,204,143539,2,0,L|163:199,1,70,2|2,0:0|0:0,0:0:0:0:
136,111,144392,5,6,0:0:0:0:
136,111,144676,2,0,L|56:106,1,70,2|2,0:0|0:0,0:0:0:0:
269,204,145530,5,6,0:0:0:0:
269,204,145814,2,0,L|349:199,1,70,2|2,0:0|0:0,0:0:0:0:
376,111,146667,5,6,0:0:0:0:
376,111,146951,2,0,L|456:106,1,70,2|2,0:0|0:0,0:0:0:0:
319,314,147805,6,0,P|256:340|193:313,1,140,6|2,0:0|0:0,0:0:0:0:
155,239,148231,1,2,0:0:0:0:
155,239,148374,2,0,L|79:229,1,70,2|0,0:0|0:0,0:0:0:0:
155,151,148658,2,0,L|231:141,1,70,2|2,0:0|0:0,0:0:0:0:
278,205,148942,6,0,P|330:236|408:202,1,140,6|2,0:0|0:0,0:0:0:0:
441,137,149369,1,2,0:0:0:0:
234,205,150080,6,0,P|182:236|104:202,1,140,4|2,0:0|0:0,0:0:0:0:
71,137,150507,1,2,0:0:0:0:
193,70,151217,6,0,P|255:43|318:70,1,140,2|0,0:0|0:0,0:0:0:0:
356,145,151644,1,8,0:0:0:0:
322,221,151786,2,0,P|299:247|267:261,1,70,2|8,0:0|0:0,0:0:0:0:
218,193,152070,2,0,P|240:166|272:152,1,70,2|8,0:0|0:0,0:0:0:0:
267,261,152355,5,4,0:0:0:0:
256,192,152426,12,4,156904,0:0:0:0:
256,192,161454,5,4,0:0:0:0:
123,69,161738,2,0,L|156:77,5,35,2|0|8|0|0|0,0:0|0:0|0:0|0:0|0:0|0:0,0:0:0:0:
191,87,162165,2,0,P|256:64|321:87,1,140,8|8,0:0|0:0,0:0:0:0:
321,297,162734,6,0,P|255:319|190:296,1,140,8|8,0:0|0:0,0:0:0:0:
256,192,163302,2,0,P|321:169|386:192,1,140,8|8,0:0|0:0,0:0:0:0:
440,256,163729,6,0,P|481:248|509:236,1,70,0|0,0:0|0:0,0:0:0:0:
469,40,164156,2,0,L|446:67,5,35,8|0|0|0|0|0,0:0|0:0|0:0|0:0|0:0|0:0,0:0:0:0:
422,92,164582,2,0,L|334:80,1,70,0|8,0:0|0:0,0:0:0:0:
270,64,164866,6,0,P|227:98|131:83,1,140,4|2,0:0|0:0,0:0:0:0:
73,47,165293,1,8,0:0:0:0:
73,47,165435,2,0,P|49:112|76:185,1,140,0|2,0:0|0:0,0:0:0:0:
137,227,165862,1,8,0:0:0:0:
219,213,166004,6,0,P|308:222|336:261,1,140,4|2,0:0|0:0,0:0:0:0:
307,337,166430,2,0,P|217:327|189:288,1,140,8|0,0:0|0:0,0:0:0:0:
219,213,166857,1,2,0:0:0:0:
299,189,166999,1,8,0:0:0:0:
299,189,167070,1,0,0:0:0:0:
299,189,167141,6,0,P|338:127|316:51,1,140,4|2,0:0|0:0,0:0:0:0:
256,18,167568,1,8,0:0:0:0:
256,18,167710,2,0,L|172:11,1,70,8|8,0:0|0:0,0:0:0:0:
115,89,167994,2,0,L|199:82,1,70,8|8,0:0|0:0,0:0:0:0:
256,18,168279,5,4,0:2:0:0:
137,96,172829,5,4,0:0:0:0:
137,96,173113,6,0,L|91:92,2,31.4999990386963,0|0|8,0:0|0:0|0:0,0:0:0:0:
192,147,173397,2,0,L|238:143,2,31.4999990386963,0|0|2,0:0|0:0|0:0,0:0:0:0:
137,198,173682,2,0,L|91:194,2,31.4999990386963,0|0|8,0:0|0:0|0:0,0:0:0:0:
208,220,173966,6,0,P|267:270|275:318,1,125.999996154785,4|0,0:0|0:0,0:0:0:0:
275,314,174321,1,0,0:0:0:0:
275,314,174392,1,8,0:0:0:0:
329,237,174535,2,0,L|347:202,7,31.4999990386963,0|0|2|0|0|0|8|0,0:0|0:0|0:0|0:0|0:0|0:0|0:0|0:0,0:0:0:0:
358,181,175103,6,0,P|342:107|283:65,1,125.999996154785,4|2,0:0|0:0,0:0:0:0:
230,75,175530,1,8,0:0:0:0:
230,75,175672,2,0,P|157:109|87:95,1,125.999996154785,4|2,0:0|0:0,0:0:0:0:
39,124,176099,1,8,0:0:0:0:
39,124,176241,6,0,P|8:178|22:240,1,125.999996154785,4|2,0:0|0:0,0:0:0:0:
94,256,176667,1,8,0:0:0:0:
94,256,176810,2,0,P|173:288|200:336,1,125.999996154785,4|2,0:0|0:0,0:0:0:0:
257,361,177236,6,0,L|300:367,2,31.4999990386963,8|0|0,0:0|0:0|0:0,0:0:0:0:
379,158,177663,1,2,0:0:0:0:
379,158,177806,6,0,P|382:79|354:9,2,140,12|0|0,0:0|0:0|0:0,0:0:0:0:
346,236,178516,2,0,L|447:280,1,70,0|2,0:0|0:0,0:0:0:0:
340,313,178801,2,0,P|277:344|208:339,1,140,0|0,0:0|0:0,0:0:0:0:
139,292,179227,1,2,0:0:0:0:
139,292,179368,2,0,L|121:204,1,70,0|8,0:0|0:0,0:0:0:0:
197,182,179654,6,0,P|246:128|242:47,1,140,0|0,0:0|0:0,0:0:0:0:
173,28,180080,2,0,P|123:81|127:162,1,140,8|2,0:0|0:0,0:0:0:0:
197,182,180507,2,0,L|281:182,1,70,0|0,0:0|0:0,0:0:0:0:
350,182,180791,6,0,P|408:150|467:183,1,140,0|0,0:0|0:0,0:0:0:0:
496,262,181218,1,8,0:0:0:0:
496,262,181360,2,0,L|461:353,1,70,0|0,0:0|0:0,0:0:0:0:
302,327,181787,1,8,0:0:0:0:
302,327,181929,6,0,P|239:280|158:297,1,140,4|0,0:0|0:0,0:0:0:0:
101,259,182355,2,0,P|68:176|106:105,1,140,8|2,0:0|0:0,0:0:0:0:
164,155,182782,2,0,L|250:155,2,70,0|0|0,0:0|0:0|0:0,0:0:0:0:
461,69,183776,6,0,L|434:91,5,35,8|0|8|0|8|0,0:0|0:0|0:0|0:0|0:0|0:0,0:0:0:0:
405,112,184203,6,0,P|341:89|276:113,1,140,4|0,0:0|0:0,0:0:0:0:
237,187,184629,2,0,P|172:210|107:186,1,140,8|2,0:0|0:0,0:0:0:0:
82,106,185056,2,0,L|107:40,1,70,0|8,0:0|0:0,0:0:0:0:
180,81,185340,6,0,P|246:100|312:81,1,140,0|0,0:0|0:0,0:0:0:0:
395,93,185766,2,0,P|433:152|413:218,1,140,8|2,0:0|0:0,0:0:0:0:
351,271,186193,1,0,0:0:0:0:
278,228,186335,1,8,0:0:0:0:
278,228,186477,6,0,P|213:204|149:227,1,140,0|0,0:0|0:0,0:0:0:0:
149,312,186904,2,0,P|213:335|277:312,1,140,8|2,0:0|0:0,0:0:0:0:
351,271,187330,2,0,L|429:302,1,70,0|8,0:0|0:0,0:0:0:0:
399,213,187615,6,0,B|379:167|402:124|402:124|359:78,1,140,0|0,0:0|0:0,0:0:0:0:
313,27,188041,1,8,0:0:0:0:
313,27,188184,2,0,L|227:47,1,70,0|2,0:0|0:0,0:0:0:0:
211,54,188397,2,0,L|176:101,5,35,0|0|0|8|0|4,0:0|0:0|0:0|0:0|0:0|0:0,0:0:0:0:
90,181,189037,5,0,0:0:0:0:
90,181,189179,2,0,P|139:180|226:254,1,140,8|2,0:0|0:0,0:0:0:0:
280,278,189605,1,0,0:0:0:0:
280,278,189748,1,8,0:0:0:0:
280,278,189890,6,0,P|329:279|416:205,1,140,0|0,0:0|0:0,0:0:0:0:
428,150,190316,1,8,0:0:0:0:
366,92,190458,2,0,P|347:50|345:18,1,70,0|2,0:0|0:0,0:0:0:0:
426,3,190743,2,0,P|445:45|447:77,1,70,0|8,0:0|0:0,0:0:0:0:
428,150,191027,6,0,P|344:175|286:124,1,140,4|0,0:0|0:0,0:0:0:0:
253,82,191454,1,8,0:0:0:0:
253,82,191596,2,0,L|172:88,1,70,0|10,0:0|0:0,0:0:0:0:
99,23,191880,2,0,L|168:17,1,70,0|8,0:0|0:0,0:0:0:0:
253,82,192165,6,0,P|271:147|245:232,1,140,4|0,0:0|0:0,0:0:0:0:
195,275,192591,1,8,0:0:0:0:
134,216,192733,2,0,P|94:202|56:199,1,70,0|2,0:0|0:0,0:0:0:0:
16,268,193018,6,0,L|6:301,4,35,0|0|0|0|0,0:0|0:0|0:0|0:0|0:0,0:0:0:0:
137,136,193586,1,2,0:0:0:0:
137,136,193729,6,0,B|172:140|198:166|198:166|228:143|263:145,1,140,12|8,0:0|0:0,0:0:0:0:
342,175,194155,2,0,L|356:264,1,70,0|8,0:0|0:0,0:0:0:0:
421,165,194439,6,0,P|434:92|411:26,1,140,0|0,0:0|0:0,0:0:0:0:
338,70,194866,2,0,P|273:92|208:69,1,140,8|10,0:0|0:0,0:0:0:0:
137,24,195293,1,0,0:0:0:0:
58,54,195435,1,8,0:0:0:0:
58,54,195577,6,0,P|34:133|64:207,1,140,0|0,0:0|0:0,0:0:0:0:
112,241,196003,1,8,0:0:0:0:
176,186,196146,2,0,L|257:173,1,70,0|10,0:0|0:0,0:0:0:0:
296,241,196430,2,0,L|365:252,1,70,0|8,0:0|0:0,0:0:0:0:
318,158,196714,6,0,P|313:102|369:32,1,140,4|0,0:0|0:0,0:0:0:0:
441,12,197141,1,8,0:0:0:0:
499,72,197283,2,0,P|500:116|490:159,1,70,0|10,0:0|0:0,0:0:0:0:
410,202,197567,2,0,P|408:167|413:132,1,70,0|8,0:0|0:0,0:0:0:0:
318,158,197852,6,0,P|253:162|193:108,1,140,4|0,0:0|0:0,0:0:0:0:
121,79,198278,2,0,P|37:113|15:179,1,140,8|6,0:0|0:0,0:0:0:0:
84,204,198705,2,0,L|99:287,1,70,0|8,0:0|0:0,0:0:0:0:
168,229,198989,6,0,P|231:204|295:229,1,140,4|0,0:0|0:0,0:0:0:0:
295,229,199345,1,0,0:0:0:0:
295,229,199416,1,8,0:0:0:0:
342,298,199558,2,0,L|351:355,2,35,0|0|2,0:0|0:0|0:0,0:0:0:0:
390,229,199842,2,0,L|395:194,2,35,0|0|8,0:0|0:0|0:0,0:0:0:0:
438,298,200127,5,0,0:0:0:0:
256,192,201264,5,4,0:0:0:0:
186,261,201548,2,0,P|197:300|218:328,1,70,2|8,0:0|0:0,0:0:0:0:
298,323,201833,2,0,P|317:294|326:261,1,70,2|8,0:0|0:0,0:0:0:0:
256,192,202117,2,0,L|256:116,2,70,2|8|2,0:0|0:0|0:0,0:0:0:0:
404,28,203112,6,0,L|381:55,5,35,0|0|0|0|0|0,0:0|0:0|0:0|0:0|0:0|0:0,0:0:0:0:
359,81,203539,6,0,P|289:69|231:120,1,140,4|0,0:0|0:0,0:0:0:0:
256,192,203966,2,0,P|323:203|377:162,1,140,8|2,0:0|0:0,0:0:0:0:
439,105,204393,2,0,L|504:83,2,35,0|0|0,0:0|0:0|0:0,0:0:0:0:
378,163,204676,5,4,0:0:0:0:
378,163,204819,2,0,P|366:232|417:290,1,140,2|8,0:0|0:0,0:0:0:0:
239,263,205387,1,2,0:0:0:0:
239,263,205530,2,0,L|157:263,1,70,0|8,0:0|0:0,0:0:0:0:
88,239,205814,6,0,P|62:180|90:105,1,140,4|0,0:0|0:0,0:0:0:0:
163,138,206240,2,0,P|230:153|298:138,1,140,8|2,0:0|0:0,0:0:0:0:
364,85,206667,2,0,L|382:40,2,35,0|0|8,0:0|0:0|0:0,0:0:0:0:
377,167,206951,5,4,0:0:0:0:
377,167,207093,2,0,P|386:216|378:249,1,70,2|0,0:0|0:0,0:0:0:0:
306,271,207378,2,0,P|297:222|305:189,1,70,8|0,0:0|0:0,0:0:0:0:
285,120,207662,2,0,L|258:78,6,35,2|0|0|0|8|0|4,0:0|0:0|0:0|0:0|0:0|0:0|0:0,0:0:0:0:
189,258,208373,5,0,0:0:0:0:
189,258,208515,2,0,P|131:248|99:174,1,140,8|2,0:0|0:0,0:0:0:0:
73,98,208942,2,0,L|30:60,2,35,0|0|8,0:0|0:0|0:0,0:0:0:0:
154,117,209226,5,4,0:0:0:0:
154,117,209368,2,0,P|202:92|226:12,2,140,2|8|2,0:0|0:0|0:0,0:0:0:0:
98,179,210079,2,0,L|96:279,1,70,0|8,0:0|0:0,0:0:0:0:
96,333,210364,6,0,P|160:310|225:333,1,140,4|0,0:0|0:0,0:0:0:0:
308,348,210790,2,0,P|367:313|372:224,1,140,8|2,0:0|0:0,0:0:0:0:
327,181,211217,2,0,L|285:135,2,35,0|0|8,0:0|0:0|0:0,0:0:0:0:
380,246,211501,6,0,P|415:250|449:247,1,70,4|2,0:0|0:0,0:0:0:0:
492,174,211785,1,0,0:0:0:0:
461,95,211928,1,8,0:0:0:0:
461,95,212070,2,0,P|474:62|495:34,1,70,0|2,0:0|0:0,0:0:0:0:
390,50,212354,2,0,P|354:55|320:51,1,70,0|8,0:0|0:0,0:0:0:0:
386,133,212639,6,0,P|421:194|407:286,1,140,4|0,0:0|0:0,0:0:0:0:
336,281,213065,2,0,P|301:220|315:128,1,140,8|2,0:0|0:0,0:0:0:0:
330,71,213492,2,0,L|348:20,2,35,0|0|8,0:0|0:0|0:0,0:0:0:0:
303,152,213776,5,4,0:0:0:0:
303,152,213918,2,0,P|242:119|164:124,1,140,2|8,0:0|0:0,0:0:0:0:
109,276,214487,1,2,0:0:0:0:
194,276,214629,1,0,0:0:0:0:
150,348,214771,1,8,0:0:0:0:
150,348,214913,6,0,P|101:358|30:302,1,140,4|0,0:0|0:0,0:0:0:0:
108,276,215340,2,0,P|138:214|113:151,1,140,8|2,0:0|0:0,0:0:0:0:
41,107,215766,2,0,L|2:83,2,35,0|0|8,0:0|0:0|0:0,0:0:0:0:
113,152,216051,5,4,0:0:0:0:
113,152,216193,1,2,0:0:0:0:
181,103,216335,2,0,P|191:72|199:22,2,70,0|8|0,0:0|0:0|0:0,0:0:0:0:
213,180,216762,2,0,P|219:214|229:247,2,70,2|0|8,0:0|0:0|0:0,0:0:0:0:
264,113,217188,6,0,P|353:111|393:175,1,140,4|0,0:0|0:0,0:0:0:0:
402,226,217615,1,8,0:0:0:0:
274,334,217899,1,2,0:0:0:0:
190,323,218041,1,0,0:0:0:0:
190,323,218112,1,0,0:0:0:0:
190,323,218184,2,0,L|151:252,1,70,8|4,0:0|0:0,0:0:0:0:
222,210,218468,6,0,P|241:141|198:69,1,140,2|8,0:0|0:0,0:0:0:0:
131,62,218894,2,0,L|74:90,7,35,0|0|2|0|0|0|8|0,0:0|0:0|0:0|0:0|0:0|0:0|0:0|0:0,0:0:0:0:
67,93,219463,6,0,L|51:238,1,140,4|0,0:0|0:0,0:0:0:0:
122,277,219890,2,0,P|157:320|241:332,1,140,8|2,0:0|0:0,0:0:0:0:
309,289,220316,2,0,L|337:259,3,35,0|0|8|0,0:0|0:0|0:0|0:0,0:0:0:0:
356,237,220601,6,0,P|367:182|360:146,1,70,4|2,0:0|0:0,0:0:0:0:
311,104,220885,2,0,P|300:49|307:13,1,70,0|8,0:0|0:0,0:0:0:0:
384,21,221169,2,0,P|395:76|388:112,1,70,0|2,0:0|0:0,0:0:0:0:
365,168,221454,5,0,0:0:0:0:
365,168,221525,1,0,0:0:0:0:
365,168,221596,2,0,L|285:178,1,70,8|0,0:0|0:0,0:0:0:0:
105,192,222875,5,4,0:0:0:0:
105,192,223160,2,0,L|127:274,1,70,2|8,0:0|0:0,0:0:0:0:
181,319,223444,2,0,L|230:331,5,35,2|2|8|4|2|2,0:0|0:0|0:0|0:3|0:0|0:0,0:0:0:0:
250,331,223871,2,0,P|307:311|328:289,1,70,8|4,0:0|0:0,0:0:0:0:
432,180,224297,5,2,0:0:0:0:
432,180,224439,1,8,0:0:0:0:
432,180,224582,2,0,L|394:109,1,70,2|0,0:0|0:0,0:0:0:0:
399,34,224866,2,0,L|415:3,2,35,2|2|8,0:0|0:0|0:0,0:0:0:0:
326,76,225150,6,0,P|255:79|186:22,1,140,4|2,0:0|0:0,0:0:0:0:
153,113,225577,1,8,0:0:0:0:
153,113,225719,2,0,P|133:166|132:197,1,70,2|8,0:0|0:0,0:0:0:0:
201,225,226003,2,0,P|220:278|221:309,1,70,2|8,0:0|0:0,0:0:0:0:
178,363,226288,5,2,0:0:0:0:
298,156,228136,6,0,P|307:123|299:89,1,70,2|10,0:0|0:0,0:0:0:0:
214,89,228421,2,0,P|206:123|214:156,1,70,10|14,0:0|0:0,0:0:0:0:
