osu file format v14

[General]
AudioFilename: Suzumu feat.GUMI - Heart Connect.mp3
AudioLeadIn: 1000
PreviewTime: 49560
Countdown: 0
SampleSet: Normal
StackLeniency: 0.7
Mode: 0
LetterboxInBreaks: 0
WidescreenStoryboard: 1

[Editor]
Bookmarks: 19986
DistanceSpacing: 1
BeatDivisor: 4
GridSize: 4
TimelineZoom: 1.7

[Metadata]
Title:Heart Connect
TitleUnicode:心臓コネクト
Artist:Suzumu
ArtistUnicode:スズム
Creator:AllStar12
Version:Easy
Source:
Tags:GUMI Vocaloid Shinzou tokiti ke-sanβ TT_Mouse
BeatmapID:589197
BeatmapSetID:242708

[Difficulty]
HPDrainRate:2
CircleSize:3
OverallDifficulty:2
ApproachRate:3
SliderMultiplier:0.8
SliderTickRate:1

[Events]
//Background and Video events
0,0,"Background.png",0,0
Video,-54,"Video.avi"
//Break Periods
2,2698,4186
2,22887,25513
2,69522,76982
2,125256,132716
2,157104,160014
2,168478,171389
//Storyboard Layer 0 (Background)
//Storyboard Layer 1 (Fail)
//Storyboard Layer 2 (Pass)
//Storyboard Layer 3 (Foreground)
//Storyboard Sound Samples

[TimingPoints]
1077,284.36018957346,4,1,1,70,1,0
30650,-100,4,1,1,50,0,0
31787,-100,4,1,1,60,0,0
41029,284.36018957346,4,1,1,40,1,0
47569,-100,4,1,1,70,0,0
49986,284.36018957346,4,1,1,70,1,1
58801,-100,4,1,1,50,0,1
59085,-100,4,1,1,70,0,0
59512,-100,4,1,1,70,0,1
69322,-100,4,1,1,70,0,0
78422,-100,4,2,1,40,0,0
86384,-100,4,1,1,40,0,0
87521,-100,4,1,1,60,0,0
96763,284.36018957346,4,1,1,40,1,0
103303,-100,4,1,1,70,0,0
105720,284.36018957346,4,1,1,70,1,1
114535,-100,4,1,1,50,0,1
114819,-100,4,1,1,70,0,0
115246,-100,4,1,1,70,0,1
125056,-100,4,1,1,70,0,0
134156,-100,4,2,1,40,0,0
143255,-100,4,1,1,60,0,0
152355,-100,4,1,1,70,0,0
161738,-100,4,1,1,40,0,0
163729,-100,4,1,1,70,0,0
164156,-100,4,1,1,40,0,0
164582,-100,4,1,1,70,0,0
168279,-100,4,1,1,40,0,0
172829,-100,4,1,1,60,0,0
174535,-100,4,1,1,40,0,0
175103,-100,4,1,1,60,0,0
177378,-100,4,1,1,70,0,0
177805,284.36018957346,4,1,1,70,1,1
183065,-100,4,1,1,70,0,0
183492,-100,4,1,1,40,0,0
183847,-100,4,1,1,50,0,0
184203,284.36018957346,4,1,1,70,1,1
188326,-100,4,1,1,50,0,1
188752,-100,4,1,1,70,0,1
193018,-100,4,1,1,50,0,1
193302,-100,4,1,1,70,0,0
193729,-100,4,1,1,70,0,1
203539,-100,4,1,1,70,0,0
207662,-100,4,1,1,50,0,0
208089,-100,4,1,1,70,0,0
218894,-100,4,1,1,50,0,0
219463,-100,4,1,1,70,0,0
223444,-100,4,1,1,50,0,0
223871,-100,4,1,1,70,0,0

[HitObjects]
256,192,1077,5,4,0:0:0:0:
217,71,2214,6,0,P|256:65|295:72,1,80,4|4,0:0|0:0,0:0:0:0:
379,218,5626,6,0,P|365:255|339:285,1,80,4|4,0:0|0:0,0:0:0:0:
171,285,7901,6,0,P|146:254|133:217,1,80,4|4,0:0|0:0,0:0:0:0:
256,192,9039,5,2,0:0:0:0:
199,52,11313,6,0,P|256:36|313:52,1,120,4|8,0:0|0:0,0:0:0:0:
313,132,12024,2,0,P|255:147|198:131,2,120,0|0|8,0:0|0:0|0:0,0:0:0:0:
383,93,13162,1,0,0:0:0:0:
449,193,13588,6,0,P|446:252|413:301,1,120,4|8,0:0|0:0,0:0:0:0:
344,341,14299,2,0,L|213:341,1,120,0|0,0:0|0:0,0:0:0:0:
106,314,15152,2,0,L|65:226,1,80,8|0,0:0|0:0,0:0:0:0:
111,126,15863,6,0,P|157:88|215:77,1,120,4|8,0:0|0:0,0:0:0:0:
296,77,16574,2,0,P|354:88|400:126,2,120,0|0|8,0:0|0:0|0:0,0:0:0:0:
256,147,17712,1,0,0:0:0:0:
296,259,18138,6,0,P|373:303|427:300,1,120,4|8,0:0|0:0,0:0:0:0:
478,278,18849,2,0,L|498:156,1,120,0|4,0:0|0:0,0:0:0:0:
444,51,19702,1,8,0:0:0:0:
369,21,19986,2,0,P|285:21|234:48,1,120,0|4,0:0|0:0,0:0:0:0:
256,152,21550,6,0,L|256:232,1,80,8|8,0:0|0:0,0:0:0:0:
313,337,22261,2,0,P|256:351|198:337,1,120,10|6,0:0|0:0,0:0:0:0:
216,251,26953,5,0,0:0:0:0:
296,251,27238,2,0,L|382:251,1,80,8|8,0:0|0:0,0:0:0:0:
216,133,29513,6,0,L|130:133,1,80,8|8,0:0|0:0,0:0:0:0:
288,318,30650,6,0,L|393:273,1,80,6|2,0:0|0:0,0:0:0:0:
418,229,31219,2,0,L|427:149,1,80,2|2,0:0|0:0,0:0:0:0:
396,76,31787,6,0,P|333:41|253:52,1,120,4|8,0:0|0:0,0:0:0:0:
211,70,32498,2,0,P|148:105|68:94,1,120,0|0,0:0|0:0,0:0:0:0:
30,142,33209,2,0,P|19:199|25:231,1,80,2|0,0:0|0:0,0:0:0:0:
140,327,34062,6,0,L|266:327,1,120,0|8,0:0|0:0,0:0:0:0:
380,327,34915,1,2,0:0:0:0:
436,268,35200,2,0,P|454:212|435:157,1,120,0|8,0:0|0:0,0:0:0:0:
380,98,35911,1,0,0:0:0:0:
261,113,36337,6,0,P|194:108|143:68,1,120,4|8,0:0|0:0,0:0:0:0:
71,79,37048,2,0,P|22:155|32:218,1,120,0|0,0:0|0:0,0:0:0:0:
53,255,37759,2,0,L|128:296,1,80,2|0,0:0|0:0,0:0:0:0:
278,254,38612,6,0,P|334:235|390:254,1,120,4|8,0:0|0:0,0:0:0:0:
390,334,39323,2,0,P|333:352|277:333,1,120,0|4,0:0|0:0,0:0:0:0:
194,247,40176,1,8,0:0:0:0:
243,137,40603,2,0,L|375:88,1,120,2|12,0:0|0:0,0:0:0:0:
213,19,41597,6,0,P|155:20|95:51,1,120,8|2,0:0|0:0,0:0:0:0:
40,151,42450,2,0,L|56:259,1,80,0|8,0:0|0:0,0:0:0:0:
95,297,43019,1,0,0:0:0:0:
165,334,43303,6,0,P|223:345|281:334,1,120,10|2,0:0|0:0,0:0:0:0:
372,255,44156,2,0,L|390:162,1,80,0|8,0:0|0:0,0:0:0:0:
372,97,44725,1,8,0:0:0:0:
311,44,45010,2,0,P|270:31|230:28,2,80,8|4|4,0:0|0:3|0:0,0:0:0:0:
256,192,47569,5,4,0:3:0:0:
195,139,47853,2,0,P|173:84|195:29,1,120,0|0,0:0|0:0,0:0:0:0:
316,29,48706,2,0,P|338:84|317:139,1,120,0|0,0:0|0:0,0:0:0:0:
126,285,49986,6,0,P|68:272|31:226,1,120,4|8,0:0|0:0,0:0:0:0:
75,160,50696,2,0,P|132:172|169:218,1,120,2|0,0:0|0:0,0:0:0:0:
207,289,51407,1,0,0:0:0:0:
320,327,51834,1,2,0:0:0:0:
407,245,52260,6,0,P|430:200|427:130,1,120,0|8,0:0|0:0,0:0:0:0:
374,71,52971,2,0,L|238:42,1,120,2|0,0:0|0:0,0:0:0:0:
136,56,53824,2,0,L|72:129,1,80,8|2,0:0|0:0,0:0:0:0:
66,235,54535,6,0,P|118:305|155:320,1,120,4|8,0:0|0:0,0:0:0:0:
222,294,55246,2,0,P|296:279|349:297,1,120,2|0,0:0|0:0,0:0:0:0:
444,346,56099,2,0,L|483:267,1,80,8|2,0:0|0:0,0:0:0:0:
490,154,56810,6,0,P|435:73|385:57,1,120,4|8,0:0|0:0,0:0:0:0:
340,45,57521,1,2,0:0:0:0:
228,90,57948,2,0,P|130:101|98:85,1,120,4|8,0:0|0:0,0:0:0:0:
36,115,58658,2,0,P|6:186|15:237,1,120,2|0,0:0|0:0,0:0:0:0:
86,320,59512,5,12,0:0:0:0:
156,357,59796,2,0,P|235:357|277:331,1,120,2|0,0:0|0:0,0:0:0:0:
321,277,60507,1,0,0:0:0:0:
351,161,60933,1,2,0:0:0:0:
256,85,61360,6,0,P|197:79|145:107,1,120,0|8,0:0|0:0,0:0:0:0:
141,187,62071,2,0,P|188:221|247:223,1,120,2|4,0:0|0:0,0:0:0:0:
351,161,62924,1,8,0:0:0:0:
425,190,63208,2,0,P|471:245|475:309,1,120,2|4,0:0|0:0,0:0:0:0:
382,364,64061,6,0,L|284:376,1,80,8|2,0:0|0:0,0:0:0:0:
191,328,64772,2,0,P|174:246|215:195,1,120,4|8,0:0|0:0,0:0:0:0:
251,166,65483,2,0,P|268:84|227:33,1,120,2|0,0:0|0:0,0:0:0:0:
333,240,67047,6,0,P|415:249|459:219,1,120,4|8,0:0|0:0,0:0:0:0:
445,151,67758,2,0,P|390:130|333:144,1,120,8|2,0:0|0:0,0:0:0:0:
269,192,68469,2,0,L|216:272,1,80,2|2,0:0|0:0,0:0:0:0:
165,312,69038,6,0,L|93:340,2,40,2|10|6,0:0|0:0|0:0,0:0:0:0:
366,111,78422,5,4,0:1:0:0:
366,111,80696,5,0,0:0:0:0:
366,111,82971,6,0,P|329:182|291:203,1,120,8|8,0:0|0:0,0:0:0:0:
216,201,83682,1,2,0:0:0:0:
119,129,84109,2,0,P|115:57|146:12,1,120,8|8,0:0|0:0,0:0:0:0:
218,4,84820,2,0,P|263:41|278:98,1,120,0|2,0:0|0:0,0:0:0:0:
216,201,85673,5,8,0:0:0:0:
216,201,85957,1,2,0:0:0:0:
297,288,86384,2,0,P|335:303|396:295,1,80,0|2,0:0|0:0,0:0:0:0:
441,260,86952,2,0,P|456:222|448:161,1,80,2|6,0:0|0:0,0:0:0:0:
411,116,87521,6,0,L|300:54,1,120,4|8,0:0|0:0,0:0:0:0:
236,18,88232,1,2,0:0:0:0:
116,18,88658,2,0,L|25:18,2,80,0|0|0,0:0|0:0|0:0,0:0:0:0:
245,113,89796,6,0,P|273:178|255:255,1,120,0|8,0:0|0:0,0:0:0:0:
194,320,90649,1,0,0:0:0:0:
115,304,90933,2,0,P|58:261|35:186,1,120,0|8,0:0|0:0,0:0:0:0:
35,138,91644,1,2,0:0:0:0:
97,35,92071,6,0,L|234:35,1,120,4|8,0:0|0:0,0:0:0:0:
297,35,92782,2,0,P|384:86|401:113,1,120,2|0,0:0|0:0,0:0:0:0:
413,177,93493,2,0,L|386:258,1,80,0|0,0:0|0:0,0:0:0:0:
256,343,94346,6,0,P|200:323|163:276,1,120,4|8,0:0|0:0,0:0:0:0:
145,198,95057,1,2,0:0:0:0:
199,90,95483,2,0,P|256:75|313:91,2,120,4|0|2,0:0|0:0|0:0,0:0:0:0:
256,196,96763,5,4,0:0:0:0:
388,285,97331,2,0,P|432:241|455:180,1,120,8|2,0:0|0:0,0:0:0:0:
447,68,98184,2,0,L|505:7,2,80,0|8|0,0:0|0:0|0:0,0:0:0:0:
378,109,99037,6,0,P|304:112|249:87,1,120,10|0,0:0|0:0,0:0:0:0:
168,20,99890,2,0,L|100:86,1,80,8|0,0:0|0:0,0:0:0:0:
70,145,100459,1,2,0:0:0:0:
86,223,100744,2,0,P|110:272|136:300,2,80,0|4|4,0:0|0:3|0:0,0:0:0:0:
256,192,103303,5,4,0:3:0:0:
317,138,103587,2,0,P|337:83|316:29,1,120,0|0,0:0|0:0,0:0:0:0:
194,29,104440,2,0,P|173:84|195:139,1,120,0|0,0:0|0:0,0:0:0:0:
386,285,105720,6,0,P|444:272|481:226,1,120,4|8,0:0|0:0,0:0:0:0:
437,160,106430,2,0,P|380:172|343:218,1,120,2|0,0:0|0:0,0:0:0:0:
305,289,107141,1,0,0:0:0:0:
192,327,107568,1,2,0:0:0:0:
105,245,107994,6,0,P|82:200|85:130,1,120,0|8,0:0|0:0,0:0:0:0:
138,71,108705,2,0,L|274:42,1,120,2|0,0:0|0:0,0:0:0:0:
376,56,109558,2,0,L|440:129,1,80,8|2,0:0|0:0,0:0:0:0:
446,235,110269,6,0,P|394:305|357:320,1,120,4|8,0:0|0:0,0:0:0:0:
290,294,110980,2,0,P|216:279|163:297,1,120,2|0,0:0|0:0,0:0:0:0:
68,346,111833,2,0,L|29:267,1,80,8|2,0:0|0:0,0:0:0:0:
22,154,112544,6,0,P|77:73|127:57,1,120,4|8,0:0|0:0,0:0:0:0:
172,45,113255,1,2,0:0:0:0:
284,90,113682,2,0,P|382:101|414:85,1,120,4|8,0:0|0:0,0:0:0:0:
476,115,114392,2,0,P|506:186|497:237,1,120,2|0,0:0|0:0,0:0:0:0:
426,320,115246,5,12,0:0:0:0:
356,357,115530,2,0,P|277:357|235:331,1,120,2|0,0:0|0:0,0:0:0:0:
191,277,116241,1,0,0:0:0:0:
161,161,116667,1,2,0:0:0:0:
256,85,117094,6,0,P|315:79|367:107,1,120,0|8,0:0|0:0,0:0:0:0:
371,187,117805,2,0,P|324:221|265:223,1,120,2|4,0:0|0:0,0:0:0:0:
161,161,118658,1,8,0:0:0:0:
87,190,118942,2,0,P|41:245|37:309,1,120,2|4,0:0|0:0,0:0:0:0:
130,364,119795,6,0,L|228:376,1,80,8|2,0:0|0:0,0:0:0:0:
321,328,120506,2,0,P|338:246|297:195,1,120,4|8,0:0|0:0,0:0:0:0:
261,166,121217,2,0,P|244:84|285:33,1,120,2|0,0:0|0:0,0:0:0:0:
179,240,122781,6,0,P|97:249|53:219,1,120,4|8,0:0|0:0,0:0:0:0:
67,151,123492,2,0,P|122:130|179:144,1,120,8|2,0:0|0:0,0:0:0:0:
243,192,124203,2,0,L|296:272,1,80,2|2,0:0|0:0,0:0:0:0:
347,312,124772,6,0,L|419:340,2,40,8|4|4,0:3|0:3|0:0,0:0:0:0:
201,93,134156,6,0,P|261:73|331:98,1,120,2|8,0:0|0:0,0:0:0:0:
369,193,135009,2,0,P|356:255|299:303,1,120,0|8,0:0|0:0,0:0:0:0:
197,289,135862,2,0,P|150:247|137:174,1,120,0|8,0:0|0:0,0:0:0:0:
201,94,136573,6,0,L|266:40,2,80,0|0|0,0:0|0:0|0:0,0:0:0:0:
354,139,137710,2,0,L|415:87,2,80,0|0|0,0:0|0:0|0:0,0:0:0:0:
256,209,138705,6,0,L|124:209,1,120,0|8,0:0|0:0,0:0:0:0:
64,173,139416,2,0,P|44:104|126:23,1,160,0|0,0:0|0:0,0:0:0:0:
168,49,140269,2,0,P|243:63|317:16,1,160,8|8,0:0|0:0,0:0:0:0:
256,192,140980,12,0,142686,0:0:0:0:
199,136,143255,6,0,B|169:109|169:64|169:64|127:38,1,120,6|2,0:0|0:0,0:0:0:0:
313,136,144392,6,0,B|342:109|342:64|342:64|384:38,1,120,6|2,0:0|0:0,0:0:0:0:
199,226,145530,6,0,B|159:227|129:194|129:194|80:203,1,120,6|2,0:0|0:0,0:0:0:0:
313,226,146667,6,0,B|353:227|383:194|383:194|432:203,1,120,6|2,0:0|0:0,0:0:0:0:
174,149,147805,6,0,P|182:83|240:32,1,120,6|2,0:0|0:0,0:0:0:0:
296,43,148516,2,0,P|333:90|338:149,1,120,2|6,0:0|0:0,0:0:0:0:
256,237,149369,1,2,0:0:0:0:
314,349,150080,6,0,P|256:362|198:349,1,120,4|2,0:0|0:0,0:0:0:0:
157,153,151217,2,0,P|230:107|304:109,1,160,2|2,0:0|0:0,0:0:0:0:
367,153,152070,2,0,L|390:246,1,80,2|4,0:0|0:0,0:0:0:0:
256,192,152426,12,4,156904,0:0:0:0:
104,75,161454,5,4,0:0:0:0:
178,47,161738,2,0,P|264:51|302:79,1,120,2|8,0:0|0:0,0:0:0:0:
350,121,162449,2,0,L|430:95,2,80,8|8|8,0:0|0:0|0:0,0:0:0:0:
274,146,163302,1,8,0:0:0:0:
198,239,163729,6,0,P|200:301|263:365,2,120,0|8|0,0:0|0:0|0:0,0:0:0:0:
196,159,164866,2,0,P|173:101|111:62,1,120,4|8,0:0|0:0,0:0:0:0:
50,48,165577,1,0,0:0:0:0:
17,163,166004,6,0,P|31:231|84:278,1,120,4|8,0:0|0:0,0:0:0:0:
137,298,166715,1,0,0:0:0:0:
256,286,167141,2,0,P|312:228|308:142,1,160,4|8,0:0|0:0,0:0:0:0:
276,81,167994,2,0,L|240:14,2,40,8|8|4,0:0|0:0|0:2,0:0:0:0:
52,277,172829,6,0,P|117:306|181:292,1,120,4|8,0:0|0:0,0:0:0:0:
232,260,173539,2,0,P|297:231|361:245,1,120,2|4,0:0|0:0,0:0:0:0:
481,93,174677,1,2,0:0:0:0:
360,80,175103,6,0,P|286:104|240:168,1,160,4|4,0:0|0:0,0:0:0:0:
334,299,176241,2,0,P|408:274|455:212,1,160,4|4,0:0|0:0,0:0:0:0:
360,80,177378,1,0,0:0:0:0:
256,19,177805,5,12,0:0:0:0:
181,48,178089,2,0,P|131:120|122:171,1,120,2|0,0:0|0:0,0:0:0:0:
127,230,178800,1,0,0:0:0:0:
216,309,179226,1,2,0:0:0:0:
305,228,179653,6,0,P|375:209|435:237,1,120,0|8,0:0|0:0,0:0:0:0:
436,302,180364,2,0,P|389:339|331:344,1,120,2|0,0:0|0:0,0:0:0:0:
216,309,181217,2,0,L|174:233,1,80,8|2,0:0|0:0,0:0:0:0:
167,119,181928,6,0,P|188:63|236:29,1,120,4|8,0:0|0:0,0:0:0:0:
316,25,182639,2,0,L|440:60,1,120,2|0,0:0|0:0,0:0:0:0:
495,159,183492,6,0,P|480:254|398:306,1,200,0|4,0:0|0:0,0:0:0:0:
278,295,184629,2,0,L|202:227,1,80,8|2,0:0|0:0,0:0:0:0:
220,121,185340,2,0,L|160:67,1,80,0|0,0:0|0:0,0:0:0:0:
40,70,186051,1,2,0:0:0:0:
12,186,186477,6,0,P|23:244|64:295,1,120,0|8,0:0|0:0,0:0:0:0:
139,294,187188,2,0,P|207:299|259:349,1,120,2|0,0:0|0:0,0:0:0:0:
366,329,188041,2,0,L|452:275,1,80,8|2,0:0|0:0,0:0:0:0:
476,174,188752,6,0,P|470:106|411:49,1,120,4|8,0:0|0:0,0:0:0:0:
366,32,189463,1,2,0:0:0:0:
262,92,189890,2,0,P|188:110|124:81,1,120,0|8,0:0|0:0,0:0:0:0:
67,98,190601,2,0,P|28:142|18:201,1,120,2|4,0:0|0:0,0:0:0:0:
78,305,191454,6,0,L|161:348,1,80,8|10,0:0|0:0,0:0:0:0:
256,288,192165,2,0,P|335:268|401:285,1,120,4|8,0:0|0:0,0:0:0:0:
451,273,192875,2,0,P|493:232|510:175,1,120,2|0,0:0|0:0,0:0:0:0:
464,64,193729,5,12,0:0:0:0:
387,40,194013,2,0,P|321:43|257:88,1,120,8|0,0:0|0:0,0:0:0:0:
212,171,194866,2,0,L|207:272,1,80,8|10,0:0|0:0,0:0:0:0:
300,327,195577,6,0,P|356:343|413:326,1,120,0|8,0:0|0:0,0:0:0:0:
413,246,196288,2,0,P|356:229|299:246,1,120,10|4,0:0|0:0,0:0:0:0:
231,287,196999,1,0,0:0:0:0:
127,347,197425,1,10,0:0:0:0:
21,286,197852,6,0,P|5:230|21:173,1,120,4|8,0:0|0:0,0:0:0:0:
85,124,198563,1,6,0:0:0:0:
199,160,198989,2,0,P|256:175|313:159,1,120,4|8,0:0|0:0,0:0:0:0:
313,79,199700,2,0,P|255:63|198:79,1,120,2|0,0:0|0:0,0:0:0:0:
296,235,201264,6,0,B|319:290|319:290|296:346,1,120,4|8,0:0|0:0,0:0:0:0:
216,346,201975,2,0,B|193:290|193:290|215:235,1,120,8|2,0:0|0:0,0:0:0:0:
460,29,203539,6,0,P|417:95|420:153,1,120,4|8,0:0|0:0,0:0:0:0:
456,203,204250,2,0,P|499:269|496:327,1,120,2|4,0:0|0:0,0:0:0:0:
396,369,205103,2,0,L|289:369,1,80,8|2,0:0|0:0,0:0:0:0:
199,341,205814,6,0,P|152:269|160:201,1,120,4|8,0:0|0:0,0:0:0:0:
167,159,206525,1,2,0:0:0:0:
256,79,206951,1,4,0:0:0:0:
345,159,207378,2,0,L|308:258,1,80,8|2,0:0|0:0,0:0:0:0:
200,264,208089,6,0,P|127:261|79:224,1,120,4|8,0:0|0:0,0:0:0:0:
49,166,208800,2,0,L|100:45,1,120,2|4,0:0|0:0,0:0:0:0:
205,8,209653,1,8,0:0:0:0:
283,20,209937,2,0,P|351:53|384:91,1,120,2|4,0:0|0:0,0:0:0:0:
417,199,210790,5,8,0:0:0:0:
429,278,211075,2,0,P|454:342|498:378,2,120,2|4|8,0:0|0:0|0:0,0:0:0:0:
417,198,212212,1,2,0:0:0:0:
327,117,212639,6,0,P|272:93|209:111,1,120,4|8,0:0|0:0,0:0:0:0:
153,157,213349,2,0,P|98:180|35:163,1,120,2|4,0:0|0:0,0:0:0:0:
54,47,214203,1,8,0:0:0:0:
128,17,214487,2,0,P|182:11|269:49,1,120,2|4,0:0|0:0,0:0:0:0:
327,117,215340,5,8,0:0:0:0:
361,189,215624,2,0,P|359:293|341:321,1,120,2|4,0:0|0:0,0:0:0:0:
249,365,216477,2,0,B|210:377|210:377|173:365,1,80,8|2,0:0|0:0,0:0:0:0:
68,304,217188,6,0,P|50:247|59:188,1,120,4|8,0:0|0:0,0:0:0:0:
97,117,217899,1,2,0:0:0:0:
213,141,218326,2,0,P|272:141|327:117,1,120,4|8,0:0|0:0,0:0:0:0:
404,97,219037,2,0,P|484:130|511:178,1,120,2|4,0:0|0:0,0:0:0:0:
502,275,219890,6,0,L|455:346,1,80,8|2,0:0|0:0,0:0:0:0:
337,342,220601,2,0,P|297:283|305:210,1,120,4|8,0:0|0:0,0:0:0:0:
317,158,221312,2,0,P|321:87|278:28,1,120,2|0,0:0|0:0,0:0:0:0:
105,301,222875,6,0,L|204:344,1,80,4|2,0:0|0:0,0:0:0:0:
256,350,223444,2,0,P|346:342|419:272,1,160,2|4,0:0|0:0,0:0:0:0:
449,192,224439,5,8,0:0:0:0:
399,82,224866,2,0,L|314:59,1,80,2|4,0:0|0:0,0:0:0:0:
242,61,225435,2,0,P|192:137|213:216,1,160,2|2,0:0|0:0,0:0:0:0:
256,261,226288,5,2,0:0:0:0:
256,261,228136,6,0,L|256:332,3,40,2|10|10|14,0:0|0:0|0:0|0:0,0:0:0:0:
