osu file format v6

[General]
AudioFilename: - Super Driver.mp3
AudioLeadIn: 0
PreviewTime: -1
Countdown: 1
SampleSet: Soft
StackLeniency: 0.7
Mode: 0
LetterboxInBreaks: 1

[Editor]
DistanceSpacing: 0.200000002980232
BeatDivisor: 1
GridSize: 32

[Metadata]
Title:Super Driver (Hardcore Mix!)
Artist:Suzumiya Haruhi No Yuutsu II
Creator:Natteke desu
Version:Insane
Source:
Tags:Haruhi, suzumiya, kyon, meloncholy, anime

[Difficulty]
HPDrainRate:5
CircleSize:4
OverallDifficulty:7
SliderMultiplier:1.4
SliderTickRate:2

[Events]
//Background and Video events
0,0,"background.jpg"
//Break Periods
2,125056,143156
2,163456,167156
2,168256,169556
//Storyboard Layer 0 (Background)
//Storyboard Layer 1 (Fail)
//Storyboard Layer 2 (Pass)
//Storyboard Layer 3 (Foreground)
//Storyboard Sound Samples
//Background Colour Transformations
3,100,163,162,255

[TimingPoints]
85,300,4,2,0,100,1,0
38456,-100,4,2,0,100,0,1
49856,-100,4,1,0,100,0,1
53006,-100,4,1,0,100,0,0
75506,-100,4,2,0,100,0,0
77006,-100,4,1,0,100,0,0
81806,-100,4,2,0,100,0,0
90956,-100,4,2,0,100,0,0
95906,-100,4,2,0,100,0,0
110456,-100,4,2,0,100,0,1
124856,-100,4,1,0,100,0,0
144056,-100,4,2,0,100,0,0
162056,-100,4,1,0,100,0,0
173006,-100,4,2,0,100,0,1
181256,-100,4,1,0,100,0,0

[HitObjects]
111,342,18654,1,0
71,268,18954,1,0
35,191,19254,2,0,B|257:9|476:245,1,490
416,188,20454,6,0,B|256:386|-61:116,1,490
82,154,21654,2,0,B|99:121|99:121|99:179|99:179|127:121|127:121|136:181|136:181|162:115|162:115|165:184|165:184|194:119,2,420
82,232,23754,5,0
177,234,24054,2,0,B|418:229|30:156|356:68,2,280
403,84,25854,1,0
340,175,26154,1,0
287,261,26454,6,0,B|257:351|174:257,4,140
324,191,27954,1,0
341,104,28254,1,2
305,104,28404,1,2
271,104,28554,1,2
180,101,28854,6,2,B|32:191|206:283,1,210
57,231,29454,6,2,B|0:313|167:360,1,140
128,279,30054,6,2,B|252:289|211:149,1,140
125,204,30654,6,2,B|70:121|267:84,1,210
252,90,31254,2,2,B|336:192|337:68|448:164|269:259,2,280
253,18,32754,1,0
192,95,33054,5,0
64,96,33354,1,0
129,193,33654,1,4
289,154,34254,1,0
313,118,34404,1,0
336,79,34554,1,0
241,70,34854,1,4
156,191,35454,5,0
353,192,35754,1,0
255,306,36054,1,0
258,194,36354,6,0,B|257:114,1,70
256,42,36804,1,0
257,121,37104,2,0,B|162:159|354:161|162:224|277:308,1,210
97,32,38456,5,0
257,191,39056,1,0
431,348,39656,1,0
428,193,40256,1,0
257,190,40856,1,0
72,189,41456,1,0
257,190,42056,6,0,B|383:124|384:290|503:124,2,280,0|0|4
256,101,43556,6,0,B|107:100,1,140
258,174,44156,2,0,B|409:174,1,140
256,248,44756,2,0,B|94:247,1,140
116,247,45356,5,0
59,164,45656,1,0
152,131,45956,1,0
95,54,46256,1,0
197,51,46556,1,0
248,142,46856,1,0
184,221,47156,1,0
291,215,47456,1,0
252,294,47756,1,0
367,302,48056,5,4
398,266,48206,1,0
366,237,48356,1,0
398,205,48506,1,0
366,174,48656,1,4
404,152,48806,1,0
371,121,48956,1,0
407,96,49106,1,0
356,67,49256,5,4
267,66,49556,1,4
175,107,49856,1,0
170,111,49931,1,0
165,116,50006,1,0
160,121,50081,1,0
155,126,50156,1,0
115,179,50306,1,0
162,234,50456,1,0
209,177,50606,1,0
261,117,50756,5,0
309,184,50906,1,0
366,120,51056,1,0
370,124,51131,1,0
375,129,51206,1,0
423,191,51356,1,0
361,249,51506,1,0
296,298,51656,5,0
233,239,51806,1,0
156,164,51956,1,0
154,76,52106,1,0
256,78,52256,5,0
256,85,52331,1,0
256,92,52406,1,0
256,99,52481,1,0
256,106,52556,1,0
256,113,52631,1,0
256,120,52706,1,0
256,127,52781,1,0
256,134,52856,1,4
330,193,53156,5,0
256,292,53456,1,0
144,146,53756,1,0
209,78,53906,1,0
348,78,54206,1,0
383,197,54506,1,0
293,199,54806,2,0,B|212:199,3,70
95,199,55556,5,0
174,76,55856,1,0
246,77,56006,1,0
358,134,56306,1,0
353,249,56606,1,0
169,273,56906,5,0
256,274,57056,2,0,B|257:95,1,140
257,17,57656,2,0,B|449:191|255:386,1,420
174,266,58856,5,0
176,189,59006,1,0
177,64,59306,1,0
300,65,59606,1,0
300,176,59906,2,0,B|198:174|198:174|311:241|311:241|204:287,1,280
95,288,60956,5,0
97,187,61256,1,0
97,180,61331,1,0
97,173,61406,1,0
99,61,61706,1,4
195,136,62006,5,4
295,55,62156,1,4
386,139,62306,1,4
294,230,62456,1,0
141,232,62756,5,0
144,78,63056,1,0
260,80,63356,1,0
327,79,63506,1,0
326,153,63656,1,0
257,152,63806,1,0
154,154,64106,1,0
154,285,64406,5,0
251,223,64556,1,0
340,296,64706,1,0
403,212,64856,1,0
328,63,65156,1,0
176,65,65456,1,0
94,170,65756,1,0
133,234,65906,1,0
249,339,66206,1,0
361,249,66656,5,0
427,171,66956,1,0
403,83,67256,2,0,B|244:12|47:84|17:251,1,420
135,264,68456,5,0
209,215,68606,1,0
214,211,68681,1,0
220,207,68756,1,0
299,163,68906,1,0
375,114,69206,1,0
460,56,69656,2,0,B|507:219|368:328|183:291,1,420
185,217,70856,1,0
229,157,71006,1,0
233,152,71081,1,0
237,146,71156,1,0
317,169,71306,5,0
320,162,71381,1,0
324,157,71456,1,0
404,165,71606,5,0
401,171,71681,1,0
398,178,71756,1,0
395,184,71831,1,0
392,190,71906,1,0
389,196,71981,1,0
386,203,72056,1,4
349,282,72206,5,0
248,283,72356,1,0
62,69,72656,1,0
181,48,72806,1,0
126,147,72956,1,0
251,133,73106,1,0
404,70,73406,1,0
463,175,73556,1,0
290,264,73856,1,0
128,268,74156,5,0
194,182,74306,1,0
129,96,74456,1,0
261,48,74756,1,0
407,138,75056,1,0
313,191,75206,1,0
401,269,75356,1,0
363,353,75506,5,4
284,311,75656,6,0,B|224:261,1,70
230,266,75956,2,2,B|292:198,1,70
277,214,76256,2,0,B|220:167,1,70
223,169,76556,2,2,B|285:107,1,70
331,65,76856,1,4
394,148,77006,5,0
322,228,77156,1,0
180,234,77456,1,0
111,149,77606,1,0
183,59,77756,1,0
258,147,77906,1,0
383,295,78206,6,0,B|384:213,1,70
381,113,78656,1,0
244,54,78956,1,0
152,97,79106,1,0
95,189,79256,1,0
161,326,79556,1,0
282,237,79856,1,0
356,182,80006,1,0
277,57,80306,1,4
152,50,80606,5,4
82,107,80756,1,4
72,196,80906,1,4
114,277,81056,1,4
257,333,81356,5,0
257,326,81431,1,0
257,319,81506,1,0
257,312,81581,1,0
257,305,81656,1,4
453,326,81956,5,8
450,41,82556,1,8
53,41,83156,1,8
50,328,83756,1,8
461,330,84356,1,2
458,48,84956,1,2
55,49,85556,1,2
50,338,86156,1,2
145,338,86456,6,0,B|261:245,1,140,0|8
312,204,87056,2,0,B|209:72,1,140,0|8
297,58,87656,2,0,B|395:183,1,140,0|8
435,225,88256,2,0,B|301:321,1,140,0|8
263,244,88856,5,0
156,186,89156,1,8
268,113,89456,1,0
159,54,89756,1,8
167,145,90056,5,0
162,201,90206,1,2
202,237,90356,1,8
255,220,90506,1,2
263,172,90656,1,0
238,127,90806,1,2
221,90,90956,1,8
231,47,91106,1,2
256,3,91256,6,0,B|126:191|415:192|236:384,1,420
69,201,92456,2,0,B|326:32|323:382|466:149,1,420
262,346,93656,2,0,B|10:158|517:155|233:43,1,420
124,67,94856,6,0,B|225:326|333:52|405:364,1,420
254,290,96056,6,0,B|254:214,1,70
334,224,96356,2,2,B|335:146,1,70
254,156,96656,2,0,B|254:79,1,70
337,79,96956,2,2,B|337:-2,1,70
256,82,97256,6,0,B|257:169,1,70
338,158,97556,2,2,B|339:243,1,70
260,234,97856,2,0,B|261:323,1,70
184,301,98156,2,2,B|106:301,1,70
331,304,98456,2,0,B|421:305,1,70
259,218,98906,5,0
261,104,99206,1,0
260,3,99506,1,6
257,177,100256,6,0,B|331:176,4,70,0|2|0|2|4
90,73,101456,5,0
197,132,101756,1,0
303,77,102056,1,0
381,195,102356,1,0
269,243,102656,1,0
158,289,102956,1,0
99,181,103256,6,0,B|177:57|218:176|344:40,2,280
257,301,105056,5,0
192,250,105206,1,2
167,178,105356,1,0
169,97,105506,1,2
173,22,105656,1,4
257,301,106256,5,0
321,244,106406,1,2
342,176,106556,1,0
343,103,106706,1,2
338,28,106856,1,4
255,253,107456,5,0
373,119,107756,1,0
133,115,108056,1,0
256,52,108356,1,0
256,130,108506,1,0
370,248,108806,1,0
141,247,109106,1,0
256,306,109406,6,0,B|256:222,1,70
256,236,109706,2,2,B|257:154,1,70
256,166,110006,2,0,B|256:79,1,70
256,96,110306,2,2,B|257:6,1,70,2|6
385,99,110756,5,2
385,225,111056,1,0
254,226,111356,1,2
256,95,111656,1,0
174,99,111806,2,2,B|97:98,1,70
102,222,112256,1,0
103,339,112556,5,2
244,340,112856,1,0
246,221,113156,1,2
379,221,113456,1,0
379,95,113756,1,2
249,92,114056,6,2,B|35:186|39:301|282:331,1,420
386,320,115256,5,0
386,269,115406,1,2
386,214,115556,1,0
272,211,115856,1,0
272,163,116006,1,2
272,119,116156,1,0
272,73,116306,1,2
151,70,116606,1,2
151,115,116756,1,0
153,221,117056,1,6
256,323,117356,6,0,B|363:217,1,140
298,146,117956,2,0,B|246:92,1,70
315,42,118256,2,2,B|377:-5,1,70
434,57,118556,2,0,B|491:107,1,70
437,166,118856,2,0,B|339:282,3,140
223,254,120056,6,0,B|122:149,1,140
291,253,120656,2,0,B|411:135,1,140
256,189,121256,2,0,B|257:113,7,70
342,120,122456,6,0,B|427:121,1,70
413,199,122756,2,2,B|413:277,1,70
323,271,123056,2,0,B|244:272|244:271,1,70
252,186,123356,2,4,B|252:103,1,70
162,113,123656,6,6,B|121:115,16,35,6|2|2|2|2|2|2|2|2|2|2|2|2|2|2|2|6
256,287,144056,5,0
189,225,144206,1,2
257,171,144356,1,0
126,40,144656,1,0
52,104,144806,1,2
126,169,144956,1,0
196,102,145106,1,2
376,64,145406,5,0
376,151,145556,1,0
375,289,145856,1,0
269,322,146156,1,0
197,278,146306,1,0
258,213,146456,1,0
256,118,146756,1,0
357,116,147056,6,0,B|356:206|359:209,2,70
357,33,147506,2,0,B|195:16|80:83|77:186,1,350
254,254,148856,6,0,B|340:254,2,70
256,141,149456,2,0,B|257:67,3,70
383,148,150206,2,0,B|383:234,1,70
381,328,150656,1,0
252,325,150956,5,0
252,217,151106,1,0
253,103,151256,1,0
253,103,151556,1,0
252,217,151856,2,0,B|338:219,3,70
254,353,152756,5,0
438,190,153056,1,0
253,31,153356,1,0
257,192,153656,6,0,B|257:117,2,70
257,193,154256,2,0,B|256:270,3,70
353,194,155006,2,0,B|407:171|309:104,1,70
281,79,155456,1,0
151,143,155756,5,0
74,198,155906,1,0
75,289,156056,1,0
202,295,156356,1,0
333,298,156656,2,0,B|333:210,3,70
477,133,157556,5,0
252,31,157856,1,0
54,134,158156,1,0
256,196,158456,6,0,B|256:109,2,70
256,196,159056,2,0,B|255:299,3,70
344,265,159806,1,0
344,189,159956,1,0
344,69,160256,1,0
232,75,160556,5,0
158,128,160706,1,0
111,206,160856,1,0
103,328,161156,1,0
255,332,161456,1,4
257,209,161606,1,4
258,59,161906,1,4
361,118,162206,5,0
361,125,162281,1,0
361,132,162356,1,0
285,164,162506,1,0
285,171,162581,1,0
285,178,162656,1,0
202,199,162806,5,0
202,206,162881,1,0
202,213,162956,1,0
202,220,163031,1,0
202,227,163106,1,0
202,234,163181,1,0
202,241,163256,1,4
255,189,168056,5,4
255,190,170456,5,4
255,190,171056,5,4
255,190,171656,5,4
255,190,171956,1,4
255,190,172256,1,4
255,190,172556,2,0,B|255:231,4,35
256,108,173006,6,2,B|256:29,1,70
331,37,173306,2,0,B|432:39,1,70
403,115,173606,2,2,B|403:196,1,70
401,257,173906,2,0,B|401:343,1,70
325,329,174206,2,2,B|239:329,1,70
182,330,174506,2,0,B|104:329,1,70
111,251,174806,2,2,B|112:164,1,70
111,113,175106,5,2
111,106,175181,1,2
111,99,175256,1,0
111,25,175406,2,2,B|191:26,1,70
256,29,175706,2,0,B|349:29,1,70
400,31,176006,2,2,B|401:122,1,70
401,180,176306,2,0,B|401:273,1,70
401,326,176606,2,2,B|307:325,1,70
259,325,176906,1,0
185,327,177056,1,0
109,325,177206,2,2,B|109:234,1,70
109,175,177506,5,2
109,168,177581,1,2
109,161,177656,1,2
111,70,177806,1,0
177,122,177956,1,2
240,63,178106,1,0
300,127,178256,1,2
357,61,178406,1,0
419,135,178556,1,2
419,222,178706,1,0
364,287,178856,5,2
293,224,179006,1,0
229,288,179156,1,2
161,222,179306,1,0
86,292,179456,1,2
29,217,179606,1,0
94,147,179756,1,2
164,88,179906,1,0
260,89,180056,5,2
346,92,180206,1,0
396,167,180356,1,2
364,247,180506,1,0
282,277,180656,1,2
206,231,180806,1,0
181,153,180956,1,2
231,85,181106,1,0
313,63,181256,5,0
313,70,181331,1,0
313,77,181406,1,0
313,84,181481,1,0
313,91,181556,1,0
313,98,181631,1,0
316,103,181706,1,0
320,110,181781,1,0
325,114,181856,1,0
329,120,181931,1,0
333,125,182006,1,0
339,129,182081,1,0
344,134,182156,1,0
407,150,182306,1,2
408,67,182456,5,0
323,164,182656,1,0
236,262,182906,1,0
98,76,183356,5,0
94,176,183506,1,2
198,181,183656,1,0
302,103,183856,1,0
407,215,184106,1,0
252,323,184556,5,0
308,228,184706,1,2
244,124,184856,1,0
111,114,185056,1,0
89,224,185306,1,0
214,316,185756,5,0
308,306,185906,1,2
374,229,186056,1,0
385,96,186256,1,0
256,51,186506,1,0
123,98,186956,5,0
60,179,187106,1,2
107,274,187256,1,0
221,286,187406,1,0
221,279,187481,1,0
221,272,187556,1,0
309,271,187706,5,0
309,264,187781,1,0
309,257,187856,1,0
402,199,188006,1,8
363,104,188156,1,0
274,67,188306,1,8
167,94,188456,5,0
167,101,188531,1,0
167,108,188606,1,0
97,154,188756,1,0
97,161,188831,1,0
97,168,188906,1,0
169,235,189056,5,0
169,242,189131,1,0
169,249,189206,1,8
258,290,189356,1,0
358,269,189506,1,8
406,184,189656,5,0
409,92,189806,1,8
320,32,189956,1,0
224,32,190106,1,8
128,96,190256,1,0
128,192,190406,1,8
192,256,190556,1,0
288,288,190706,1,8
383,255,190856,1,0
415,192,191006,5,8
399,94,191156,1,0
320,32,191306,1,8
204,33,191456,1,0
128,113,191606,1,8
132,212,191756,1,0
209,276,191906,1,8
277,229,192056,5,8
281,224,192131,1,0
286,219,192206,1,8
291,214,192281,1,0
296,209,192356,1,8
301,204,192431,1,0
303,197,192506,1,8
303,190,192581,1,0
301,183,192656,1,8
297,177,192731,1,0
292,172,192806,1,8
287,168,192881,1,0
281,165,192956,1,8
275,161,193031,1,0
268,158,193106,5,8
262,156,193181,1,0
255,153,193256,1,8
248,151,193331,1,0
241,151,193406,1,8
235,154,193481,1,0
228,157,193556,1,8
223,162,193631,1,0
219,167,193706,1,8
219,174,193781,1,0
219,181,193856,1,8
221,188,193931,5,0
221,195,194006,1,8
217,201,194081,1,0
214,207,194156,1,8
209,212,194231,1,0
204,217,194306,1,8
197,220,194381,1,0
191,223,194456,1,8
124,259,194606,5,0
60,194,194756,1,0
120,128,194906,1,0
209,80,195056,1,0
297,130,195206,1,0
314,230,195356,1,0
239,304,195506,1,0
256,208,195656,12,0,196856
