osu file format v9

[General]
AudioFilename: Otome.mp3
AudioLeadIn: 3000
PreviewTime: 61742
Countdown: 0
SampleSet: Soft
StackLeniency: 0.7
Mode: 0
LetterboxInBreaks: 0
SkinPreference:XiStyle

[Editor]
Bookmarks: 6644,19704,45825
DistanceSpacing: 0.6
BeatDivisor: 4
GridSize: 8

[Metadata]
Title:Otome
Artist:Suzumetune
Creator:XepherX3
Version:Normal
Source:cytus tone sphere
Tags:

[Difficulty]
HPDrainRate:4
CircleSize:5
OverallDifficulty:5
ApproachRate:7
SliderMultiplier:1.4
SliderTickRate:2

[Events]
//Background and Video events
0,0,"vlcsnap-2012-08-19-15h06m20s147.jpg"
//Break Periods
2,6844,18804
//Storyboard Layer 0 (Background)
//Storyboard Layer 1 (Fail)
//Storyboard Layer 2 (Pass)
//Storyboard Layer 3 (Foreground)
//Storyboard Sound Samples
//Background Colour Transformations
3,100,255,206,231

[TimingPoints]
5012,408.135500986327,3,2,0,100,1,0
32459,-100,3,1,0,100,0,0
32867,-100,3,2,0,100,0,0
61130,-100,3,1,0,50,0,0
61334,-100,3,1,0,75,0,0
61538,-100,3,1,0,90,0,0
61742,-100,3,1,0,100,0,0
62150,-100,3,1,0,100,0,1
75211,-100,3,2,0,100,0,0
82557,-100,3,1,0,100,0,1
93985,-100,3,1,0,100,0,0
95618,-100,3,1,0,100,0,1
108678,-100,3,1,0,100,0,0

[Colours]
Combo1 : 209,182,182
Combo2 : 183,210,183
Combo3 : 201,201,222
Combo4 : 177,177,177

[HitObjects]
32,32,114,1,8
180,180,1134,1,8
180,96,1542,1,8
480,352,3379,5,8
332,204,4399,1,8
332,288,4807,1,8
40,40,6644,1,4
80,192,19704,5,4
80,107,20113,1,8
163,107,20521,1,0
192,77,20725,1,0
221,47,20929,1,8
262,47,21133,6,0,B|424:47,1,140
402,130,21949,1,0
402,171,22153,2,0,B|473:171,4,70,0|0|8|0|0
402,86,23378,5,8
360,86,23582,1,0
330,115,23786,1,0
270,174,24194,1,8
270,132,24398,6,0,B|168:96|104:152|88:240|176:296,1,280
183,308,25418,1,0
212,337,25622,1,0
253,337,25826,1,8
282,307,26030,1,0
282,264,26235,5,0
222,204,26643,1,8
281,144,27051,1,0
310,114,27255,1,0
339,143,27459,1,8
368,172,27663,6,0,B|368:20,1,140
284,32,28479,2,0,B|284:184,1,140
284,213,29091,1,8
313,242,29296,1,0
283,271,29500,1,0
223,330,29908,6,8,B|135:329|71:273|55:209|71:137|159:81,1,350
205,30,31336,1,0
246,30,31540,1,8
275,59,31744,2,0,B|330:109|330:173|275:229|234:229,1,210,0|8
202,227,32561,1,0
181,227,32663,1,0
166,212,32765,1,4
166,128,33173,5,8
225,68,33581,1,0
254,97,33785,1,0
283,67,33989,1,8
312,96,34193,2,0,B|456:96,1,140
392,155,35009,6,0,B|248:155,1,140,0|0
209,155,35622,1,8
179,184,35826,1,0
149,214,36030,1,0
208,273,36438,1,8
208,273,36642,5,0
249,273,36846,1,0
278,243,37050,1,0
307,213,37254,1,8
336,183,37458,2,0,B|384:88|336:48|280:32|224:64,3,210,0|8|0|0
167,52,39703,5,8
107,111,40111,1,0
136,140,40315,1,0
166,170,40519,1,8
166,170,40723,2,0,B|308:170,1,140
390,170,41540,2,0,B|390:253|390:253|313:253,2,140
390,128,42560,6,0,B|352:64|272:64,1,140,0|8
243,93,43172,1,0
213,63,43376,2,0,B|133:63|95:127,1,140,0|8
95,167,43988,2,0,B|120:240|192:272|360:272|384:144,1,350
256,56,45825,5,0
196,115,46233,1,8
255,174,46641,1,0
314,233,47049,1,8
254,173,47458,1,0
283,143,47662,1,0
253,172,47866,1,8
223,201,48070,2,0,B|120:256|72:208,1,140
60,191,48682,1,8
60,191,48886,1,0
60,149,49090,5,2
119,89,49498,1,10
202,89,49906,1,2
256,152,50315,1,10
256,152,50723,1,2
310,89,51132,1,10
393,89,51540,1,2
452,149,51947,1,14
452,149,52355,5,0
368,149,52763,1,8
308,208,53171,1,0
278,237,53376,1,0
278,278,53580,1,8
278,278,53988,5,0
236,278,54192,1,0
152,278,54600,1,0
152,194,55008,2,0,B|152:96,3,70,0|8|0|4
152,40,56028,5,10
256,40,56437,1,10
360,40,56845,1,10
300,99,57253,5,10
196,99,57661,1,10
92,99,58070,1,10
151,158,58477,5,10
255,158,58886,1,14
359,158,59294,1,10
299,217,59702,5,10
195,217,60111,1,10
91,217,60518,5,4
91,217,60722,1,4
91,217,60926,1,12
91,175,61130,2,2,B|96:102|160:70|216:70|264:102|288:134|304:200|240:240,1,350,0|4
37,234,63171,5,0
37,192,63375,1,0
66,162,63579,2,0,B|207:162,1,140
306,162,64395,2,0,B|446:162,1,140
247,120,65007,5,0
306,60,65416,2,2,B|199:20|113:61|48:128|88:232,1,350
114,254,66640,1,0
143,224,66844,2,0,B|180:140|244:124|316:164|324:220|316:276,1,280
443,265,68273,5,0
443,265,68681,2,2,B|442:106|241:105,1,280
225,134,69701,1,0
195,104,69905,1,0
165,133,70109,2,0,B|165:271,1,140
224,216,70925,2,0,B|73:216,1,140
162,299,71538,5,0
78,299,71946,2,2,B|435:300,1,350
457,270,73170,1,0
457,270,73374,2,0,B|448:176|384:64|256:40|144:80|104:152|104:216|104:296|192:336,1,630
120,192,76231,5,8
120,275,76639,1,8
256,192,78476,12,4,81537
256,192,82557,5,4
37,234,83578,5,0
37,192,83782,1,0
66,162,83986,2,0,B|207:162,1,140
306,162,84802,2,0,B|446:162,1,140
247,120,85414,5,0
306,60,85823,2,2,B|199:20|113:61|48:128|88:232,1,350
114,254,87047,1,0
143,224,87251,2,0,B|180:140|244:124|316:164|324:220|316:276,1,280
443,265,88680,5,0
443,265,89088,2,2,B|442:106|241:105,1,280
225,134,90108,1,0
195,104,90312,1,0
165,74,90516,2,0,B|168:221,1,140
108,154,91332,2,0,B|112:304,1,140
69,293,91944,5,0
70,293,92353,2,2,B|427:294,1,350
457,270,93577,1,0
457,270,93781,2,0,B|448:176|384:64|256:40|144:80|104:152|104:216|104:296|192:336,1,630
475,234,96638,5,0
475,192,96842,1,0
446,162,97046,2,0,B|305:162,1,140
206,162,97862,2,0,B|66:162,1,140
265,120,98474,5,0
206,60,98883,2,2,B|313:20|399:61|464:128|424:232,1,350
398,254,100107,1,0
369,224,100311,2,0,B|332:140|268:124|196:164|188:220|196:276,1,280
69,265,101740,5,0
69,265,102148,2,2,B|70:106|271:105,1,280
287,134,103168,1,0
317,104,103372,1,0
346,74,103576,2,0,B|343:221,1,140
402,154,104392,2,0,B|400:320,1,140
350,299,105005,5,0
434,299,105413,2,2,B|77:300,1,350
55,270,106637,1,0
55,270,106841,2,0,B|64:176|128:64|256:40|368:80|408:152|408:216|408:296|320:336,1,630
