osu file format v12

[General]
AudioFilename: Suzumetune - Otome.mp3
AudioLeadIn: 0
PreviewTime: 152517
Countdown: 0
SampleSet: Normal
StackLeniency: 0.7
Mode: 1
LetterboxInBreaks: 0

[Editor]
Bookmarks: 1905,8435,21496,47619,63945,77007,90068,91496,116190,132517,145578,148843,165986,179047,180476,184761
DistanceSpacing: 0.7
BeatDivisor: 4
GridSize: 4

[Metadata]
Title:Otome
TitleUnicode:Otome
Artist:Suzumetune
ArtistUnicode:Suzumetune
Creator:MMzz
Version:Futsuu
Source:Cytus
Tags:The Prologue
BeatmapID:274472
BeatmapSetID:102861

[Difficulty]
HPDrainRate:5
CircleSize:5
OverallDifficulty:4
ApproachRate:5
SliderMultiplier:1.4
SliderTickRate:1

[Events]
//Background and Video events
0,0,"3-5.jpg",0,0
//Break Periods
//Storyboard Layer 0 (Background)
//Storyboard Layer 1 (Fail)
//Storyboard Layer 2 (Pass)
//Storyboard Layer 3 (Foreground)
//Storyboard Sound Samples
//Background Colour Transformations
3,100,163,162,255

[TimingPoints]
1905,408.163265306122,4,1,0,70,1,0
63945,-100,4,1,0,70,0,1
77007,-100,4,1,0,70,0,0
132517,-100,4,1,0,70,0,1
145578,-100,4,1,0,70,0,0
152925,408.163265306122,4,1,0,70,1,1
179047,-100,4,1,0,70,0,0

[HitObjects]
261,188,1905,1,12,0:0:0:0:
261,188,2925,1,0,0:0:0:0:
261,188,3333,1,0,0:0:0:0:
271,194,5170,1,12,0:0:0:0:
271,194,6190,1,0,0:0:0:0:
271,194,6598,1,0,0:0:0:0:
46,51,7415,2,0,L|247:144,1,210
260,112,8435,1,4,0:0:0:0:
260,112,8843,1,8,0:0:0:0:
260,112,9251,1,0,0:0:0:0:
260,112,9660,1,8,0:0:0:0:
260,112,9864,1,0,0:0:0:0:
260,112,10272,1,0,0:0:0:0:
260,112,10476,1,8,0:0:0:0:
260,112,10884,1,0,0:0:0:0:
260,112,11700,1,0,0:0:0:0:
260,112,12109,1,8,0:0:0:0:
260,112,12517,1,0,0:0:0:0:
260,112,12925,1,8,0:0:0:0:
260,112,13129,1,0,0:0:0:0:
260,112,13537,1,0,0:0:0:0:
260,112,13741,1,8,0:0:0:0:
260,112,14149,1,0,0:0:0:0:
161,115,14353,1,0,0:0:0:0:
161,115,14558,1,8,0:0:0:0:
260,112,14966,1,0,0:0:0:0:
260,112,15374,1,8,0:0:0:0:
260,112,15782,1,0,0:0:0:0:
260,112,16190,1,8,0:0:0:0:
260,112,16394,1,0,0:0:0:0:
260,112,16802,1,0,0:0:0:0:
260,112,17007,1,8,0:0:0:0:
260,112,17415,1,0,0:0:0:0:
260,112,18231,1,0,0:0:0:0:
260,112,18639,1,8,0:0:0:0:
260,112,19047,1,0,0:0:0:0:
260,112,19456,1,8,0:0:0:0:
260,112,19660,1,0,0:0:0:0:
260,112,20068,1,0,0:0:0:0:
260,112,20272,1,8,0:0:0:0:
260,112,20680,1,8,0:0:0:0:
260,112,21088,1,8,0:0:0:0:
260,112,21496,1,4,0:0:0:0:
260,112,21904,1,8,0:0:0:0:
260,112,22313,1,0,0:0:0:0:
260,112,22721,1,8,0:0:0:0:
260,112,22925,1,0,0:0:0:0:
260,112,23537,1,8,0:0:0:0:
260,112,23945,1,0,0:0:0:0:
260,112,24149,1,0,0:0:0:0:
260,112,24353,1,8,0:0:0:0:
260,112,24762,1,0,0:0:0:0:
260,112,25170,1,8,0:0:0:0:
260,112,25578,1,0,0:0:0:0:
260,112,25986,1,8,0:0:0:0:
260,112,26190,1,0,0:0:0:0:
260,112,26802,1,8,0:0:0:0:
260,112,27211,1,0,0:0:0:0:
260,112,27415,1,0,0:0:0:0:
260,112,27619,1,8,0:0:0:0:
260,112,28027,1,0,0:0:0:0:
260,112,28435,1,8,0:0:0:0:
260,112,28843,1,0,0:0:0:0:
260,112,29251,1,8,0:0:0:0:
260,112,29456,1,0,0:0:0:0:
260,112,30068,1,8,0:0:0:0:
260,112,30476,1,0,0:0:0:0:
260,112,30680,1,0,0:0:0:0:
260,112,30884,1,8,0:0:0:0:
260,112,31292,1,0,0:0:0:0:
260,112,31700,1,8,0:0:0:0:
260,112,32109,1,0,0:0:0:0:
260,112,32517,1,8,0:0:0:0:
260,112,32721,1,0,0:0:0:0:
260,112,33129,1,0,0:0:0:0:
260,112,33333,1,8,0:0:0:0:
280,144,33537,1,0,0:0:0:0:
260,112,34558,1,4,0:0:0:0:
260,112,34966,1,8,0:0:0:0:
260,112,35374,1,0,0:0:0:0:
260,112,35782,1,8,0:0:0:0:
260,112,35986,1,0,0:0:0:0:
260,112,36598,1,8,0:0:0:0:
260,112,37007,1,0,0:0:0:0:
260,112,37211,1,0,0:0:0:0:
260,112,37415,1,8,0:0:0:0:
260,112,37823,1,0,0:0:0:0:
260,112,38231,1,8,0:0:0:0:
260,112,38639,1,0,0:0:0:0:
260,112,39047,1,8,0:0:0:0:
260,112,39251,1,0,0:0:0:0:
260,112,39864,1,8,0:0:0:0:
260,112,40272,1,0,0:0:0:0:
260,112,40476,1,0,0:0:0:0:
260,112,40680,1,8,0:0:0:0:
260,112,41088,1,0,0:0:0:0:
260,112,41496,1,8,0:0:0:0:
260,112,41904,1,0,0:0:0:0:
260,112,42313,1,8,0:0:0:0:
260,112,42517,1,0,0:0:0:0:
260,112,43129,1,8,0:0:0:0:
260,112,43537,1,0,0:0:0:0:
260,112,43741,1,0,0:0:0:0:
260,112,43945,1,8,0:0:0:0:
260,112,44353,1,0,0:0:0:0:
260,112,44762,1,8,0:0:0:0:
260,112,45170,1,0,0:0:0:0:
260,112,45578,1,8,0:0:0:0:
260,112,45782,1,0,0:0:0:0:
260,112,46190,1,0,0:0:0:0:
260,112,46394,1,8,0:0:0:0:
120,148,46598,1,0,0:0:0:0:
245,173,47619,1,4,0:0:0:0:
245,173,48027,1,8,0:0:0:0:
245,173,48435,1,0,0:0:0:0:
245,173,48639,1,0,0:0:0:0:
245,173,48843,1,8,0:0:0:0:
245,173,49251,1,8,0:0:0:0:
245,173,49456,1,8,0:0:0:0:
245,173,49864,1,0,0:0:0:0:
217,153,50476,1,8,0:0:0:0:
245,173,50884,1,0,0:0:0:0:
245,173,51292,1,8,0:0:0:0:
191,148,51700,1,0,0:0:0:0:
191,148,51904,1,0,0:0:0:0:
191,148,52109,1,8,0:0:0:0:
191,148,52517,1,0,0:0:0:0:
191,148,52925,1,8,0:0:0:0:
191,148,53333,1,0,0:0:0:0:
191,148,53537,1,0,0:0:0:0:
191,148,53741,1,0,0:0:0:0:
191,148,54149,1,0,0:0:0:0:
191,148,54558,1,8,0:0:0:0:
191,148,54966,1,0,0:0:0:0:
191,148,55170,1,0,0:0:0:0:
191,148,55374,1,8,0:0:0:0:
191,148,55782,1,8,0:0:0:0:
191,148,55986,1,8,0:0:0:0:
191,148,56394,1,0,0:0:0:0:
191,148,57007,1,8,0:0:0:0:
191,148,57415,1,4,0:0:0:0:
191,148,57823,1,8,0:0:0:0:
191,148,58231,1,0,0:0:0:0:
191,148,58435,1,0,0:0:0:0:
191,148,58639,1,8,0:0:0:0:
191,148,59047,1,4,0:0:0:0:
191,148,59456,1,8,0:0:0:0:
191,148,59864,1,0,0:0:0:0:
191,148,60068,1,0,0:0:0:0:
191,148,60272,1,8,0:0:0:0:
191,148,60680,1,4,0:0:0:0:
191,148,61088,1,8,0:0:0:0:
191,148,61496,1,0,0:0:0:0:
191,148,61700,1,0,0:0:0:0:
191,148,61904,1,8,0:0:0:0:
191,148,62313,1,4,0:0:0:0:
191,148,62517,1,4,0:0:0:0:
191,148,62925,1,12,0:0:0:0:
191,148,63537,1,8,0:0:0:0:
191,148,63945,1,4,0:0:0:0:
191,148,64353,1,8,0:0:0:0:
191,148,64762,1,0,0:0:0:0:
195,120,64966,1,0,0:0:0:0:
191,148,65170,1,8,0:0:0:0:
191,148,65374,1,0,0:0:0:0:
191,148,65782,1,0,0:0:0:0:
191,148,65986,1,8,0:0:0:0:
191,148,66394,1,0,0:0:0:0:
191,148,66598,1,0,0:0:0:0:
191,148,66802,1,8,0:0:0:0:
191,148,67211,1,4,0:0:0:0:
191,148,67619,1,8,0:0:0:0:
191,148,68027,1,0,0:0:0:0:
191,148,68231,1,0,0:0:0:0:
191,148,68435,1,8,0:0:0:0:
46,74,68639,2,0,L|372:233,1,350
269,155,70476,1,4,0:0:0:0:
269,155,70884,1,8,0:0:0:0:
269,155,71292,1,0,0:0:0:0:
269,155,71496,1,0,0:0:0:0:
269,155,71700,1,8,0:0:0:0:
269,155,71904,1,0,0:0:0:0:
269,155,72313,1,0,0:0:0:0:
269,155,72517,1,8,0:0:0:0:
269,155,72925,1,0,0:0:0:0:
269,155,73129,1,0,0:0:0:0:
269,155,73333,1,8,0:0:0:0:
269,155,73741,1,4,0:0:0:0:
269,155,74149,1,8,0:0:0:0:
269,155,74558,1,0,0:0:0:0:
269,155,74762,1,0,0:0:0:0:
269,155,74966,1,8,0:0:0:0:
66,86,75170,2,0,B|351:83|351:83|364:152,1,350
260,112,77007,1,4,0:0:0:0:
260,112,77415,1,8,0:0:0:0:
260,112,77823,1,0,0:0:0:0:
260,112,78231,1,8,0:0:0:0:
260,112,78435,1,0,0:0:0:0:
260,112,78843,1,0,0:0:0:0:
260,112,79047,1,8,0:0:0:0:
260,112,79456,1,0,0:0:0:0:
260,112,80272,1,0,0:0:0:0:
260,112,80680,1,8,0:0:0:0:
260,112,81088,1,0,0:0:0:0:
260,112,81496,1,8,0:0:0:0:
260,112,81700,1,0,0:0:0:0:
260,112,82109,1,0,0:0:0:0:
260,112,82313,1,8,0:0:0:0:
260,112,82721,1,0,0:0:0:0:
161,115,82925,1,0,0:0:0:0:
161,115,83129,1,8,0:0:0:0:
260,112,83537,1,0,0:0:0:0:
260,112,83945,1,8,0:0:0:0:
260,112,84353,1,0,0:0:0:0:
260,112,84762,1,8,0:0:0:0:
260,112,84966,1,0,0:0:0:0:
260,112,85374,1,0,0:0:0:0:
260,112,85578,1,8,0:0:0:0:
260,112,85986,1,0,0:0:0:0:
260,112,86802,1,0,0:0:0:0:
260,112,87211,1,8,0:0:0:0:
260,112,87619,1,0,0:0:0:0:
260,112,88027,1,8,0:0:0:0:
260,112,88231,1,0,0:0:0:0:
260,112,88639,1,0,0:0:0:0:
260,112,88843,1,8,0:0:0:0:
260,112,89251,1,8,0:0:0:0:
260,112,89660,1,8,0:0:0:0:
260,112,90068,1,0,0:0:0:0:
20,156,91088,1,0,0:0:0:0:
260,112,91496,1,4,0:0:0:0:
260,112,92109,1,8,0:0:0:0:
260,112,92517,1,0,0:0:0:0:
260,112,92721,1,0,0:0:0:0:
260,112,92925,1,8,0:0:0:0:
260,112,93333,1,0,0:0:0:0:
260,112,93741,1,8,0:0:0:0:
260,112,94149,1,0,0:0:0:0:
260,112,94558,1,8,0:0:0:0:
260,112,94762,1,0,0:0:0:0:
260,112,95374,1,8,0:0:0:0:
260,112,95782,1,0,0:0:0:0:
260,112,95986,1,0,0:0:0:0:
260,112,96190,1,8,0:0:0:0:
260,112,96598,1,0,0:0:0:0:
260,112,97007,1,8,0:0:0:0:
260,112,97415,1,0,0:0:0:0:
260,112,97823,1,8,0:0:0:0:
260,112,98027,1,0,0:0:0:0:
260,112,98639,1,8,0:0:0:0:
260,112,99047,1,0,0:0:0:0:
260,112,99251,1,0,0:0:0:0:
260,112,99456,1,8,0:0:0:0:
260,112,99864,1,0,0:0:0:0:
260,112,100272,1,8,0:0:0:0:
260,112,100680,1,0,0:0:0:0:
260,112,101088,1,8,0:0:0:0:
260,112,101292,1,0,0:0:0:0:
260,112,101700,1,0,0:0:0:0:
260,112,101904,1,8,0:0:0:0:
212,92,102109,1,0,0:0:0:0:
260,112,103129,1,4,0:0:0:0:
260,112,103537,1,8,0:0:0:0:
260,112,103945,1,0,0:0:0:0:
260,112,104353,1,8,0:0:0:0:
260,112,104558,1,0,0:0:0:0:
260,112,105170,1,8,0:0:0:0:
260,112,105578,1,0,0:0:0:0:
260,112,105782,1,0,0:0:0:0:
260,112,105986,1,8,0:0:0:0:
260,112,106394,1,0,0:0:0:0:
260,112,106802,1,8,0:0:0:0:
260,112,107211,1,0,0:0:0:0:
260,112,107619,1,8,0:0:0:0:
260,112,107823,1,0,0:0:0:0:
260,112,108435,1,8,0:0:0:0:
260,112,108843,1,0,0:0:0:0:
260,112,109047,1,0,0:0:0:0:
260,112,109251,1,8,0:0:0:0:
260,112,109660,1,0,0:0:0:0:
260,112,110068,1,8,0:0:0:0:
260,112,110476,1,0,0:0:0:0:
260,112,110884,1,8,0:0:0:0:
260,112,111088,1,0,0:0:0:0:
260,112,111700,1,8,0:0:0:0:
260,112,112109,1,0,0:0:0:0:
260,112,112313,1,0,0:0:0:0:
260,112,112517,1,8,0:0:0:0:
260,112,112925,1,0,0:0:0:0:
260,112,113333,1,8,0:0:0:0:
260,112,113741,1,0,0:0:0:0:
260,112,114149,1,8,0:0:0:0:
260,112,114353,1,0,0:0:0:0:
260,112,114762,1,0,0:0:0:0:
260,112,114966,1,8,0:0:0:0:
208,152,115170,1,0,0:0:0:0:
245,173,116190,1,4,0:0:0:0:
245,173,116598,1,8,0:0:0:0:
245,173,117007,1,0,0:0:0:0:
245,173,117211,1,0,0:0:0:0:
245,173,117415,1,8,0:0:0:0:
245,173,117823,1,8,0:0:0:0:
245,173,118027,1,8,0:0:0:0:
245,173,118435,1,0,0:0:0:0:
217,153,119047,1,8,0:0:0:0:
245,173,119456,1,0,0:0:0:0:
245,173,119864,1,8,0:0:0:0:
191,148,120272,1,0,0:0:0:0:
191,148,120476,1,0,0:0:0:0:
191,148,120680,1,8,0:0:0:0:
191,148,121088,1,0,0:0:0:0:
191,148,121496,1,8,0:0:0:0:
191,148,121904,1,0,0:0:0:0:
191,148,122109,1,0,0:0:0:0:
191,148,122313,1,0,0:0:0:0:
191,148,122721,1,0,0:0:0:0:
191,148,123129,1,8,0:0:0:0:
191,148,123537,1,0,0:0:0:0:
191,148,123741,1,0,0:0:0:0:
191,148,123945,1,8,0:0:0:0:
191,148,124353,1,8,0:0:0:0:
191,148,124558,1,8,0:0:0:0:
191,148,124966,1,0,0:0:0:0:
191,148,125578,1,8,0:0:0:0:
191,148,125986,1,4,0:0:0:0:
191,148,126394,1,8,0:0:0:0:
191,148,126802,1,0,0:0:0:0:
191,148,127007,1,0,0:0:0:0:
191,148,127211,1,8,0:0:0:0:
191,148,127619,1,4,0:0:0:0:
191,148,128027,1,8,0:0:0:0:
191,148,128435,1,0,0:0:0:0:
191,148,128639,1,0,0:0:0:0:
191,148,128843,1,8,0:0:0:0:
191,148,129251,1,4,0:0:0:0:
191,148,129660,1,8,0:0:0:0:
191,148,130068,1,0,0:0:0:0:
191,148,130272,1,0,0:0:0:0:
191,148,130476,1,8,0:0:0:0:
191,148,130884,1,4,0:0:0:0:
191,148,131088,1,4,0:0:0:0:
191,148,131496,1,12,0:0:0:0:
191,148,132109,1,8,0:0:0:0:
191,148,132517,1,4,0:0:0:0:
191,148,132925,1,8,0:0:0:0:
191,148,133333,1,0,0:0:0:0:
195,120,133537,1,0,0:0:0:0:
191,148,133741,1,8,0:0:0:0:
191,148,133945,1,0,0:0:0:0:
191,148,134353,1,0,0:0:0:0:
191,148,134558,1,8,0:0:0:0:
191,148,134966,1,0,0:0:0:0:
191,148,135170,1,0,0:0:0:0:
191,148,135374,1,8,0:0:0:0:
191,148,135782,1,4,0:0:0:0:
191,148,136190,1,8,0:0:0:0:
191,148,136598,1,0,0:0:0:0:
191,148,136802,1,0,0:0:0:0:
191,148,137007,1,8,0:0:0:0:
46,74,137211,2,0,L|372:233,1,350
269,155,139047,1,4,0:0:0:0:
269,155,139456,1,8,0:0:0:0:
269,155,139864,1,0,0:0:0:0:
269,155,140068,1,0,0:0:0:0:
269,155,140272,1,8,0:0:0:0:
269,155,140476,1,0,0:0:0:0:
269,155,140884,1,0,0:0:0:0:
269,155,141088,1,8,0:0:0:0:
269,155,141496,1,0,0:0:0:0:
269,155,141700,1,0,0:0:0:0:
269,155,141904,1,8,0:0:0:0:
269,155,142313,1,4,0:0:0:0:
269,155,142721,1,8,0:0:0:0:
269,155,143129,1,0,0:0:0:0:
269,155,143333,1,0,0:0:0:0:
269,155,143537,1,8,0:0:0:0:
60,80,143741,2,0,B|345:77|345:77|356:144,1,350
219,183,145578,1,12,0:0:0:0:
219,183,146598,1,0,0:0:0:0:
219,183,147007,1,0,0:0:0:0:
204,152,148843,1,12,0:0:0:0:
204,152,149251,1,0,0:0:0:0:
204,152,149660,1,0,0:0:0:0:
204,152,149864,1,0,0:0:0:0:
204,152,150068,1,0,0:0:0:0:
204,152,150476,1,0,0:0:0:0:
204,152,150884,1,0,0:0:0:0:
204,152,151292,1,0,0:0:0:0:
204,152,151496,1,0,0:0:0:0:
204,152,151700,1,0,0:0:0:0:
204,152,151904,1,8,0:0:0:0:
204,152,152517,1,8,0:0:0:0:
191,148,152925,1,4,0:0:0:0:
191,148,153333,1,8,0:0:0:0:
191,148,153741,1,0,0:0:0:0:
195,120,153945,1,0,0:0:0:0:
191,148,154149,1,8,0:0:0:0:
191,148,154353,1,0,0:0:0:0:
191,148,154761,1,0,0:0:0:0:
191,148,154965,1,8,0:0:0:0:
191,148,155373,1,0,0:0:0:0:
191,148,155578,1,0,0:0:0:0:
191,148,155782,1,8,0:0:0:0:
191,148,156190,1,4,0:0:0:0:
191,148,156598,1,8,0:0:0:0:
191,148,157006,1,0,0:0:0:0:
191,148,157210,1,0,0:0:0:0:
191,148,157414,1,8,0:0:0:0:
49,71,157618,2,0,L|354:251,1,350
269,155,159455,1,4,0:0:0:0:
269,155,159863,1,8,0:0:0:0:
269,155,160271,1,0,0:0:0:0:
269,155,160476,1,0,0:0:0:0:
269,155,160680,1,8,0:0:0:0:
269,155,160884,1,0,0:0:0:0:
269,155,161292,1,0,0:0:0:0:
269,155,161496,1,8,0:0:0:0:
269,155,161904,1,0,0:0:0:0:
269,155,162108,1,0,0:0:0:0:
269,155,162312,1,8,0:0:0:0:
269,155,162720,1,4,0:0:0:0:
269,155,163129,1,8,0:0:0:0:
269,155,163537,1,0,0:0:0:0:
269,155,163741,1,0,0:0:0:0:
269,155,163945,1,8,0:0:0:0:
66,86,164149,2,0,B|351:83|351:83|364:148,1,350
182,144,165986,1,4,0:0:0:0:
182,144,166394,1,8,0:0:0:0:
182,144,166802,1,0,0:0:0:0:
182,144,167210,1,8,0:0:0:0:
182,144,167414,1,0,0:0:0:0:
182,144,167822,1,0,0:0:0:0:
182,144,168027,1,8,0:0:0:0:
182,144,168435,1,0,0:0:0:0:
182,144,169251,1,0,0:0:0:0:
182,144,169659,1,8,0:0:0:0:
182,144,170067,1,0,0:0:0:0:
182,144,170271,1,0,0:0:0:0:
182,144,170476,1,8,0:0:0:0:
182,144,170680,1,0,0:0:0:0:
182,144,171088,1,0,0:0:0:0:
182,144,171292,1,0,0:0:0:0:
182,144,171700,1,0,0:0:0:0:
182,144,171904,1,0,0:0:0:0:
182,144,172108,1,8,0:0:0:0:
182,144,172516,1,4,0:0:0:0:
182,144,172924,1,8,0:0:0:0:
182,144,173333,1,0,0:0:0:0:
182,144,173741,1,8,0:0:0:0:
182,144,173945,1,0,0:0:0:0:
182,144,174353,1,0,0:0:0:0:
182,144,174557,1,8,0:0:0:0:
182,144,174965,1,0,0:0:0:0:
182,144,175782,1,4,0:0:0:0:
182,144,176190,1,8,0:0:0:0:
182,144,176598,1,0,0:0:0:0:
182,144,176802,1,0,0:0:0:0:
182,144,177006,1,8,0:0:0:0:
182,144,177210,1,0,0:0:0:0:
182,144,177618,1,0,0:0:0:0:
182,144,177822,1,0,0:0:0:0:
182,144,178231,1,8,0:0:0:0:
182,144,178639,1,8,0:0:0:0:
182,144,179047,1,12,0:0:0:0:
182,144,180067,1,4,0:0:0:0:
182,144,180476,1,4,0:0:0:0:
256,192,180680,12,0,184761,0:0:0:0:
