osu file format v13

[General]
AudioFilename: Majimoji Rurumo OP.mp3
AudioLeadIn: 0
PreviewTime: 63658
Countdown: 0
SampleSet: Soft
StackLeniency: 0.4
Mode: 0
LetterboxInBreaks: 0
WidescreenStoryboard: 0

[Editor]
Bookmarks: 14075,24741,35408
DistanceSpacing: 1.1
BeatDivisor: 4
GridSize: 4
TimelineZoom: 1.5

[Metadata]
Title:Seiippai, Tsutaetai! (TV Size)
TitleUnicode:せいいっぱい、伝えたい!(TV Size)
Artist:Suzuko Mimori
ArtistUnicode:Suzuko Mimori
Creator:Kinshara
Version:Hard
Source:まじもじるるも
Tags:majimoji rurumo opening
BeatmapID:498019
BeatmapSetID:211805

[Difficulty]
HPDrainRate:7
CircleSize:4
OverallDifficulty:7
ApproachRate:8
SliderMultiplier:1.5
SliderTickRate:1

[Events]
//Background and Video events
0,0,"rurumo.png",0,0
Video,0,"OP.avi"
//Break Periods
//Storyboard Layer 0 (Background)
//Storyboard Layer 1 (Fail)
//Storyboard Layer 2 (Pass)
//Storyboard Layer 3 (Foreground)
//Storyboard Sound Samples
//Background Colour Transformations
3,100,163,162,255

[TimingPoints]
742,333.333333333333,4,2,1,60,1,0
1075,-100,4,2,1,50,0,0
2741,-100,4,2,1,60,0,0
3075,-100,4,2,1,50,0,0
6075,-100,4,2,1,60,0,0
6408,-100,4,2,1,50,0,0
11408,-100,4,2,1,60,0,0
13741,-100,4,2,1,50,0,0
14075,-100,4,2,1,65,0,0
24741,-100,4,2,1,50,0,0
35408,-100,4,2,1,65,0,0
35741,-100,4,2,1,60,0,0
46075,333.333333333333,3,1,1,55,1,0
61074,-100,3,2,1,40,0,0
61574,-100,3,2,1,50,0,0
62074,-100,3,2,1,60,0,0
62574,-100,3,2,1,70,0,0
63074,-100,3,2,1,75,0,0
63741,333.333333333333,4,2,1,80,1,1
64074,-100,4,2,1,75,0,1
72907,-100,4,2,1,80,0,1
73074,-100,4,2,1,75,0,1
74074,-100,4,2,1,80,0,1
74240,-100,4,2,1,75,0,1
85407,-100,4,2,1,80,0,1
85740,-100,4,2,1,70,0,1
86074,-100,4,2,1,80,0,1
86407,-100,4,2,1,70,0,1
86740,-100,4,2,1,80,0,1
86907,-100,4,2,1,70,0,1
87407,-100,4,2,1,75,0,1
87574,-100,4,2,1,70,0,1
87741,-100,4,2,1,70,0,0
87824,-100,4,2,1,30,0,0

[Colours]
Combo1 : 78,194,92
Combo2 : 128,255,255
Combo3 : 0,128,192

[HitObjects]
64,332,575,6,0,L|84:308,3,18.75,0|0|0|0,0:0|0:0|0:0|0:0,3:0:0:0:
92,304,742,6,0,P|100:229|96:154,2,150,6|2|0,3:2|3:2|3:0,0:0:0:0:
168,332,1575,1,0,0:0:0:0:
236,288,1741,1,2,3:2:0:0:
304,336,1908,1,2,0:0:0:0:
311,252,2075,6,0,P|386:246|464:260,1,150,2|0,3:2|3:0,0:0:0:0:
460,259,2575,1,0,0:0:0:0:
496,332,2741,2,0,L|504:168,1,150,6|2,3:2|3:2,0:0:0:0:
508,100,3241,1,0,0:0:0:0:
436,140,3408,6,0,P|360:152|288:140,1,150,6|0,3:2|3:0,0:0:0:0:
232,80,3908,1,0,0:0:0:0:
184,148,4075,1,0,3:0:0:0:
128,88,4241,2,0,L|132:248,1,150,2|0,0:0|0:0,0:0:0:0:
212,220,4741,6,0,L|216:380,1,150,2|2,3:2|3:2,0:0:0:0:
215,369,5408,1,6,3:2:0:0:
215,369,6075,6,0,P|292:380|368:368,1,150,6|0,3:2|3:0,0:0:0:0:
362,369,6741,1,0,3:0:0:0:
432,324,6908,2,0,L|440:164,1,150,2|0,0:0|0:0,0:0:0:0:
504,124,7408,6,0,P|431:136|351:120,1,150,6|0,3:2|3:0,0:0:0:0:
357,121,8075,1,2,3:2:0:0:
284,84,8241,1,2,0:0:0:0:
284,84,8325,1,2,0:0:0:0:
284,84,8408,1,2,3:2:0:0:
208,120,8575,1,0,0:0:0:0:
168,192,8741,6,0,L|164:40,2,150,2|0|2,3:2|3:0|3:2,0:0:0:0:
168,192,9741,1,2,3:2:0:0:
252,188,9908,1,2,3:2:0:0:
292,116,10075,5,2,3:2:0:0:
332,108,10408,1,2,3:2:0:0:
372,100,10741,1,6,3:2:0:0:
412,92,11075,2,0,L|404:248,1,150,2|6,3:2|3:2,0:0:0:0:
404,241,13741,5,0,1:0:0:0:
368,259,14075,6,0,P|295:275|221:264,1,150,6|0,0:0|1:0,0:0:0:0:
184,340,14575,2,0,L|176:176,1,150,2|0,3:2|3:2,0:0:0:0:
200,112,15075,1,0,1:0:0:0:
276,76,15241,1,0,3:0:0:0:
347,116,15408,6,0,P|418:113|448:177,1,150,2|0,3:2|1:0,0:0:0:0:
436,260,15908,2,0,L|444:336,1,75,2|0,3:2|0:0,0:0:0:0:
360,344,16241,2,0,L|352:269,1,75,2|0,3:2|1:0,0:0:0:0:
276,236,16575,1,2,1:2:0:0:
276,236,16658,1,2,1:2:0:0:
276,235,16741,6,0,P|204:252|124:236,1,150,6|0,3:2|1:0,0:0:0:0:
64,188,17241,1,0,3:0:0:0:
44,108,17408,2,0,L|40:24,2,75,0|0|0,0:0|3:0|1:0,0:0:0:0:
124,128,17908,1,2,3:2:0:0:
203,100,18075,6,0,P|276:82|348:101,1,150,0|0,3:2|1:0,0:0:0:0:
404,164,18575,2,0,L|392:248,1,75,2|0,3:2|0:0,0:0:0:0:
388,280,18825,1,0,1:0:0:0:
388,280,18908,1,0,1:0:0:0:
308,304,19075,1,2,1:2:0:0:
236,260,19241,1,0,1:0:0:0:
236,260,19325,1,0,1:0:0:0:
236,260,19408,6,0,L|80:272,1,150,6|0,3:2|1:0,0:0:0:0:
44,200,19908,1,0,3:0:0:0:
44,200,20075,2,0,L|36:112,2,75,0|0|0,0:0|3:0|1:0,0:0:0:0:
120,172,20575,1,0,3:0:0:0:
200,164,20741,6,0,P|276:176|348:160,1,150,2|0,3:2|1:0,0:0:0:0:
400,96,21241,2,0,L|412:16,1,75,2|0,3:2|0:0,0:0:0:0:
484,64,21575,2,0,L|472:138,1,75,2|0,3:2|1:0,0:0:0:0:
468,220,21908,1,0,1:0:0:0:
468,220,21991,1,0,1:0:0:0:
467,219,22075,6,0,P|443:283|371:275,1,150,6|0,3:2|1:0,0:0:0:0:
308,228,22575,1,0,3:0:0:0:
256,164,22741,2,0,L|264:328,1,150,2|0,0:0|1:0,0:0:0:0:
184,332,23241,1,2,1:2:0:0:
76,204,23575,5,2,1:2:0:0:
68,40,23908,1,2,1:2:0:0:
68,40,24075,1,6,1:2:0:0:
392,96,24741,6,0,L|384:180,1,75,2|0,3:2|0:0,0:0:0:0:
380,252,25075,1,0,3:0:0:0:
312,204,25241,2,0,P|238:190|164:203,1,150,2|2,0:0|0:0,0:0:0:0:
100,252,25741,2,0,P|58:256|16:250,1,75,0|0,3:0|0:0,0:0:0:0:
25,154,26075,6,0,P|62:150|99:155,1,75,2|0,3:2|0:0,0:0:0:0:
184,152,26408,1,0,3:0:0:0:
220,228,26575,2,0,L|236:72,1,150,2|2,0:0|0:0,0:0:0:0:
308,44,27075,1,0,3:0:0:0:
384,72,27241,1,0,0:0:0:0:
464,44,27408,6,0,L|455:118,1,75,2|0,3:2|0:0,0:0:0:0:
500,188,27741,1,0,3:0:0:0:
420,200,27908,2,0,P|393:253|465:257,1,150,2|2,0:0|0:0,0:0:0:0:
500,188,28408,1,0,3:0:0:0:
500,188,28575,1,0,0:0:0:0:
456,120,28741,6,0,L|356:116,1,75,2|0,3:2|0:0,0:0:0:0:
300,108,29075,1,0,3:0:0:0:
252,40,29241,2,0,P|260:114|249:188,1,150,2|2,0:0|0:0,0:0:0:0:
184,240,29741,1,0,3:0:0:0:
260,268,29908,1,2,0:0:0:0:
184,240,30075,6,0,L|92:232,1,75,2|0,3:2|0:0,0:0:0:0:
100,316,30408,2,0,L|174:322,1,75,0|2,3:0|0:0,0:0:0:0:
248,360,30741,1,0,3:0:0:0:
248,360,30908,2,0,L|322:366,1,75,2|0,0:0|3:0,0:0:0:0:
456,268,31408,6,0,L|463:193,1,75,2|0,3:2|0:0,0:0:0:0:
380,184,31741,2,0,L|372:258,2,75,0|2|0,3:0|0:0|3:0,0:0:0:0:
343,108,32241,2,0,P|307:115|270:110,1,75,2|0,0:0|3:0,0:0:0:0:
104,112,32741,6,0,L|178:102,1,75,2|0,3:2|0:0,0:0:0:0:
204,180,33075,2,0,L|129:189,1,75,2|0,3:2|0:0,0:0:0:0:
48,184,33408,1,0,1:0:0:0:
56,224,33491,1,0,1:0:0:0:
84,256,33575,1,0,1:0:0:0:
124,272,33658,1,0,1:0:0:0:
164,264,33741,1,0,1:0:0:0:
248,259,33908,6,0,P|275:319|210:333,1,150,2|0,3:2|3:0,0:0:0:0:
164,264,34408,1,0,1:2:0:0:
200,188,34575,1,2,1:2:0:0:
200,188,34658,1,2,1:2:0:0:
200,188,34741,1,2,1:2:0:0:
116,192,34908,2,0,L|88:160,5,37.5,2|2|2|2|2|2,1:2|1:2|1:2|1:2|1:2|1:2,1:0:0:0:
48,160,35408,6,0,P|37:233|47:307,1,150,6|2,3:2|1:2,0:0:0:0:
124,336,35908,1,0,1:0:0:0:
124,336,35991,1,0,1:0:0:0:
124,336,36075,2,0,L|224:328,1,75,0|2,0:0|3:2,0:0:0:0:
280,320,36408,1,0,1:0:0:0:
300,352,36741,6,0,L|312:200,1,150,2|2,3:2|1:2,0:0:0:0:
248,148,37241,1,0,1:0:0:0:
248,148,37325,1,0,1:0:0:0:
248,148,37408,2,0,P|211:140|168:148,1,75,0|2,0:0|3:2,0:0:0:0:
108,196,37741,1,0,1:0:0:0:
108,196,38075,6,0,P|71:201|34:193,1,75,2|2,3:2|0:0,0:0:0:0:
28,112,38408,1,0,1:0:0:0:
80,48,38575,1,0,1:0:0:0:
80,48,38658,1,0,1:0:0:0:
80,48,38741,2,0,L|168:44,1,75,0|2,0:0|3:2,0:0:0:0:
228,88,39075,1,0,1:0:0:0:
227,87,39408,6,0,P|300:104|373:89,1,150,2|0,3:2|1:0,0:0:0:0:
452,64,39908,1,0,1:0:0:0:
452,64,39991,1,0,1:0:0:0:
452,64,40075,2,0,L|448:152,1,75,0|2,0:0|3:2,0:0:0:0:
444,220,40408,1,0,1:0:0:0:
372,176,40575,1,0,1:0:0:0:
372,176,40658,1,0,1:0:0:0:
372,176,40741,6,0,P|298:164|224:176,1,150,6|2,3:2|1:2,0:0:0:0:
144,188,41241,1,0,1:0:0:0:
144,188,41325,1,0,1:0:0:0:
144,188,41408,2,0,L|150:262,1,75
224,300,41741,1,0,1:0:0:0:
224,300,42075,6,0,L|316:284,1,75,2|0,3:2|0:0,0:0:0:0:
356,348,42408,2,0,L|429:360,1,75,0|2,1:0|3:2,0:0:0:0:
472,368,42658,1,0,1:0:0:0:
472,368,42741,1,0,1:0:0:0:
448,288,42908,2,0,P|443:250|450:213,1,75,2|0,3:2|1:0,0:0:0:0:
450,213,43408,6,0,L|464:56,1,150,2|2,3:2|1:2,0:0:0:0:
384,92,43908,1,0,3:0:0:0:
384,92,43991,1,0,1:0:0:0:
384,92,44075,1,0,1:0:0:0:
308,64,44241,1,2,3:2:0:0:
232,96,44408,1,2,1:2:0:0:
196,168,44575,6,0,P|142:212|88:168,1,150,6|0,3:2|1:0,0:0:0:0:
48,100,44991,2,0,P|64:195|48:286,1,187.5,0|0,0:0|3:0,0:0:0:0:
72,320,45491,2,0,L|96:360,3,37.5,0|0|0|0,1:0|1:0|1:0|1:2,0:0:0:0:
160,304,45908,1,0,3:0:0:0:
244,312,46075,6,0,P|280:320|320:312,1,75,6|0,0:0|0:0,0:0:0:0:
372,376,46408,2,0,L|360:204,1,150
228,128,47075,1,6,0:0:0:0:
304,156,47241,1,0,0:0:0:0:
376,120,47408,2,0,P|448:112|480:180,1,150
304,156,48075,6,0,L|208:168,2,75,6|0|0,0:0|0:0|0:0,0:0:0:0:
296,72,48575,1,0,0:0:0:0:
220,44,48741,1,0,0:0:0:0:
108,164,49075,1,6,0:0:0:0:
212,292,49408,1,0,0:0:0:0:
304,156,49741,1,0,0:0:0:0:
372,304,50074,5,6,0:0:0:0:
448,268,50241,1,0,0:0:0:0:
492,340,50408,2,0,L|500:184,1,150
360,100,51074,2,0,P|322:94|279:99,1,75,6|0,0:0|0:0,0:0:0:0:
216,144,51408,2,0,P|178:147|141:142,2,75
224,184,52074,5,6,0:0:0:0:
232,224,52408,1,0,0:0:0:0:
240,264,52741,1,0,0:0:0:0:
248,304,53074,1,6,0:0:0:0:
408,264,53408,2,0,P|437:320|374:330,1,150
332,168,54074,6,0,L|344:88,1,75,6|0,0:0|0:0,0:0:0:0:
271,51,54408,2,0,P|198:39|124:52,1,150
64,208,55074,2,0,L|52:124,1,75,6|0,0:0|0:0,0:0:0:0:
136,148,55408,1,0,0:0:0:0:
208,188,55574,1,0,0:0:0:0:
276,140,55741,1,0,0:0:0:0:
471,167,56074,6,0,P|409:207|336:200,1,150,6|0,0:0|0:0,0:0:0:0:
276,140,56574,1,0,0:0:0:0:
208,188,56741,1,0,0:0:0:0:
204,228,57074,1,6,0:0:0:0:
200,268,57408,1,0,0:0:0:0:
196,308,57741,1,0,0:0:0:0:
360,304,58074,6,0,P|396:308|444:304,1,75,6|0,0:0|0:0,0:0:0:0:
472,232,58408,1,0,0:0:0:0:
436,160,58574,1,0,0:0:0:0:
464,80,58741,1,0,0:0:0:0:
300,56,59074,2,0,L|226:41,1,75,6|0,0:0|0:0,0:0:0:0:
156,84,59408,1,0,0:0:0:0:
196,156,59574,1,0,0:0:0:0:
156,228,59741,1,0,0:0:0:0:
320,220,60074,6,0,P|368:276|352:356,2,150,6|0|0,0:0|0:0|0:0,0:0:0:0:
160,268,61074,1,6,0:0:0:0:
385,163,61574,1,4,0:0:0:0:
141,116,62074,1,6,0:0:0:0:
310,296,62574,1,6,0:0:0:0:
278,52,63074,5,6,0:0:0:0:
278,52,63408,1,6,0:0:0:0:
277,51,63741,6,0,P|351:63|425:50,1,150,6|0,3:2|1:0,0:0:0:0:
464,36,64157,1,0,3:0:0:0:
464,36,64241,1,2,3:2:0:0:
472,116,64407,1,0,1:0:0:0:
416,176,64574,2,0,L|440:252,2,75,2|0|0,3:2|1:0|3:0,0:0:0:0:
331,167,65074,6,0,P|258:155|184:168,1,150,2|0,3:2|1:0,0:0:0:0:
144,96,65574,2,0,L|152:276,1,150,2|2,3:2|3:2,0:0:0:0:
204,308,66074,1,0,1:0:0:0:
280,340,66241,1,0,3:0:0:0:
355,308,66407,6,0,P|428:291|504:308,1,150,2|2,3:2|1:2,0:0:0:0:
492,224,66907,2,0,L|476:64,1,150,2|2,3:2|3:2,0:0:0:0:
396,64,67407,1,0,1:0:0:0:
328,108,67574,1,2,3:2:0:0:
256,64,67741,6,0,P|182:76|107:67,1,150,0|0,3:0|1:0,0:0:0:0:
52,128,68241,1,0,3:0:0:0:
100,192,68407,2,0,L|92:248,3,37.5,0|0|0|0,1:0|1:0|1:0|1:0,1:0:0:0:
124,260,68741,2,0,L|116:316,3,37.5,0|0|0|0,1:0|1:0|1:0|1:0,1:0:0:0:
143,332,69074,6,0,P|218:323|292:333,1,150,6|2,3:2|1:2,0:0:0:0:
368,304,69574,2,0,L|384:216,2,75,2|0|2,3:2|1:0|3:2,0:0:0:0:
440,340,70074,1,0,1:0:0:0:
504,288,70241,1,0,3:0:0:0:
484,208,70407,6,0,P|469:134|478:60,1,150,2|2,3:2|1:2,0:0:0:0:
404,24,70907,2,0,L|328:32,2,75,2|0|2,3:2|1:0|3:2,0:0:0:0:
477,60,71407,1,0,1:0:0:0:
477,60,71574,1,0,3:0:0:0:
412,103,71740,6,0,P|338:116|260:104,1,150,0|2,3:2|1:2,0:0:0:0:
192,144,72240,2,0,L|180:228,2,75,2|0|2,3:2|1:0|3:2,0:0:0:0:
140,80,72740,1,0,3:0:0:0:
60,96,72907,1,6,3:2:0:0:
28,172,73074,6,0,L|44:240,4,37.5,0|0|0|0|0,1:0|1:0|1:0|1:0|1:0,0:0:0:0:
60,96,73574,1,2,1:2:0:0:
140,80,73740,1,0,1:0:0:0:
176,96,73824,1,0,1:0:0:0:
216,100,73907,1,0,1:0:0:0:
256,92,73990,1,0,1:0:0:0:
292,76,74074,1,6,1:2:0:0:
364,116,74240,1,0,1:0:0:0:
364,116,74324,1,0,1:0:0:0:
364,116,74407,6,0,L|376:204,1,75,6|0,3:2|3:0,0:0:0:0:
388,272,74740,1,0,1:0:0:0:
312,240,74907,2,0,P|240:232|163:239,1,150,2|2,3:2|3:2,0:0:0:0:
96,288,75407,1,0,1:0:0:0:
96,288,75574,1,0,3:0:0:0:
48,352,75740,6,0,L|40:200,1,150,6|2,3:2|1:2,0:0:0:0:
80,128,76240,2,0,P|116:134|160:128,1,75,2|0,3:2|1:0,0:0:0:0:
204,64,76574,2,0,P|241:59|278:65,1,75,2|0,3:2|1:0,0:0:0:0:
352,108,76907,1,0,3:0:0:0:
400,40,77074,6,0,L|388:200,1,150,2|2,3:2|1:2,0:0:0:0:
384,272,77574,1,2,3:2:0:0:
316,228,77740,2,0,P|278:232|241:229,2,75,0|2|0,1:0|3:2|1:0,0:0:0:0:
383,271,78240,6,0,P|442:307|483:252,1,150,2|2,3:2|3:2,0:0:0:0:
452,176,78740,2,0,L|448:84,1,75,2|0,1:2|3:0,0:0:0:0:
376,56,79074,2,0,L|328:60,3,37.5,2|0|0|0,1:2|1:0|1:0|1:0,0:0:0:0:
308,88,79407,2,0,L|260:92,3,37.5,0|0|0|0,1:0|1:0|1:0|1:0,0:0:0:0:
236,111,79740,6,0,P|164:128|88:112,1,150,6|2,3:2|1:2,0:0:0:0:
36,176,80240,1,0,3:0:0:0:
76,248,80407,2,0,L|60:328,2,75,2|2|0,1:2|3:2|1:0,0:0:0:0:
160,240,80907,1,0,3:0:0:0:
227,284,81074,6,0,P|301:271|374:288,1,150,2|0,3:2|1:0,0:0:0:0:
448,248,81574,1,0,3:0:0:0:
448,248,81657,1,0,3:0:0:0:
448,248,81740,2,0,L|472:332,2,75,2|2|0,1:2|3:2|1:0,0:0:0:0:
420,172,82240,1,0,3:0:0:0:
468,104,82407,6,0,P|392:123|324:103,1,150,2|0,3:2|1:0,0:0:0:0:
252,68,82907,1,0,3:0:0:0:
252,68,82990,1,0,3:0:0:0:
252,68,83074,1,2,1:2:0:0:
176,96,83240,1,0,3:0:0:0:
100,60,83407,1,2,1:2:0:0:
104,144,83574,1,0,3:0:0:0:
48,204,83740,6,0,L|56:280,1,75,4|0,3:2|3:0,0:0:0:0:
60,320,83990,1,0,3:0:0:0:
60,320,84074,1,2,3:2:0:0:
136,348,84240,1,2,3:2:0:0:
136,348,84324,1,0,3:0:0:0:
136,348,84407,1,2,3:2:0:0:
204,304,84574,1,2,3:2:0:0:
280,332,84740,2,0,L|360:324,1,75,2|0,3:2|3:0,0:0:0:0:
380,292,84990,1,0,3:0:0:0:
380,292,85074,6,0,L|460:284,1,75,2|2,3:2|3:2,0:0:0:0:
456,200,85407,1,6,1:2:0:0:
456,200,85740,2,0,L|381:207,2,75,2|0|6,3:2|3:0|1:2,0:0:0:0:
296,160,86407,6,0,L|221:167,2,75,2|0|6,3:2|3:0|1:2,0:0:0:0:
336,232,86907,1,0,3:0:0:0:
276,288,87074,2,0,L|288:372,2,75,2|0|2,3:2|3:0|3:2,0:0:0:0:
200,252,87574,1,0,1:0:0:0:
216,172,87740,5,6,3:2:0:0:
256,192,87824,12,2,88907,3:0:0:0:
