osu file format v12

[General]
AudioFilename: Suzuki Konomi - Yume no Tsuzuki (TV Size).mp3
AudioLeadIn: 1500
PreviewTime: 57939
Countdown: 0
SampleSet: Soft
StackLeniency: 0.7
Mode: 0
LetterboxInBreaks: 0
WidescreenStoryboard: 0

[Editor]
DistanceSpacing: 1.2
BeatDivisor: 4
GridSize: 4

[Metadata]
Title:Yume no Tsuzuki (TV Size)
TitleUnicode:夢の続き (TV Size)
Artist:Suzuki Konomi
ArtistUnicode:鈴木このみ
Creator:Nichiyouki
Version:Insane
Source:Sakurasou no Pet na Kanojo
Tags:さくら荘のペットな彼女 J.C.Staff opening nich95 Flask
BeatmapID:225056
BeatmapSetID:80974

[Difficulty]
HPDrainRate:7
CircleSize:4
OverallDifficulty:6
ApproachRate:8
SliderMultiplier:1.8
SliderTickRate:1

[Events]
//Background and Video events
Video,0,"Sakurasou no Pet na Kanojo OP2.avi"
0,0,"BG.jpg",0,0
//Break Periods
//Storyboard Layer 0 (Background)
//Storyboard Layer 1 (Fail)
//Storyboard Layer 2 (Pass)
//Storyboard Layer 3 (Foreground)
//Storyboard Sound Samples
//Background Colour Transformations
3,100,163,162,255

[TimingPoints]
-34,363.636363636364,4,2,1,70,1,0
18511,-100,4,2,1,55,0,0
18602,-100,4,2,1,70,0,0
19966,-100,4,2,1,55,0,0
20056,-100,4,2,1,70,0,0
21420,-100,4,2,1,55,0,0
21511,-100,4,2,1,70,0,0
22875,-100,4,2,1,55,0,0
22966,-100,4,2,1,70,0,0
24329,-100,4,2,1,55,0,0
24420,-100,4,2,1,70,0,0
25784,-100,4,2,1,55,0,0
25875,-100,4,2,1,70,0,0
27238,-100,4,2,1,55,0,0
27329,-100,4,2,1,70,0,0
28693,-100,4,2,1,55,0,0
28784,-100,4,2,1,70,0,0
30147,-100,4,2,1,55,0,0
30511,-100,4,2,2,70,0,0
33056,-133.333333333333,4,2,2,70,0,0
33420,-100,4,2,2,70,0,0
35966,-133.333333333333,4,2,2,70,0,0
36329,-100,4,2,2,70,0,0
42147,-100,4,2,1,70,0,0
58147,-100,4,2,1,80,0,1
69693,-100,4,2,1,80,0,0
69784,-100,4,2,1,80,0,1
84329,-100,4,2,1,70,0,0

[Colours]
Combo1 : 255,128,64
Combo2 : 255,128,192
Combo3 : 128,128,192
Combo4 : 0,255,64
Combo5 : 0,128,255
Combo6 : 255,128,128

[HitObjects]
96,104,693,1,2,0:0:0:0:
212,72,875,1,8,0:0:0:0:
212,72,966,1,0,3:0:0:0:
212,72,1056,1,0,3:0:0:0:
308,144,1238,1,0,0:0:0:0:
308,144,1329,1,0,0:0:0:0:
308,144,1420,6,0,P|320:188|312:232,1,90,4|0,0:0|0:0,0:0:0:0:
232,340,1784,2,0,P|192:296|180:224,1,135,8|0,0:0|0:0,0:0:0:0:
188,168,2147,2,0,L|108:208,1,90,2|0,0:0|0:0,0:0:0:0:
212,72,2511,2,0,L|292:32,1,90,8|0,0:0|0:0,0:0:0:0:
392,72,2875,5,2,0:0:0:0:
444,164,3056,1,0,0:0:0:0:
392,260,3238,2,0,P|352:308|284:340,1,135,8|0,0:0|0:0,0:0:0:0:
232,340,3602,2,0,L|160:276,1,90,2|0,0:0|0:0,0:0:0:0:
148,116,3966,2,0,L|220:176,1,90,8|0,0:0|0:0,0:0:0:0:
296,248,4329,6,0,P|247:252|209:265,1,90,2|0,0:0|0:0,0:0:0:0:
80,188,4693,2,0,P|88:236|112:268,1,90,8|0,0:0|0:0,0:0:0:0:
148,116,5056,2,0,P|159:71|160:21,1,90,2|0,0:0|0:0,0:0:0:0:
216,176,5420,1,8,0:0:0:0:
216,176,5511,1,0,3:0:0:0:
216,176,5602,1,0,3:0:0:0:
112,268,5784,5,6,0:0:0:0:
140,296,6511,1,4,0:0:0:0:
172,316,7238,6,0,P|256:340|344:316,1,180,2|0,0:0|0:0,0:0:0:0:
432,252,7784,1,2,0:0:0:0:
344,192,7966,2,0,L|272:136,1,90,0|0,0:0|0:0,0:0:0:0:
160,64,8329,2,0,L|168:156,1,90,2|0,0:0|0:0,0:0:0:0:
236,240,8693,2,0,P|280:312|368:340,1,180,2|0,0:0|0:0,0:0:0:0:
432,252,9238,1,2,0:0:0:0:
452,144,9420,2,0,P|444:100|420:60,2,90,0|0|2,0:0|0:0|0:0,0:0:0:0:
344,136,9966,1,0,0:0:0:0:
344,136,10147,6,0,P|256:116|168:132,1,180,2|0,0:0|0:0,0:0:0:0:
60,144,10693,1,0,0:0:0:0:
60,144,10875,2,0,P|68:100|92:60,2,90,2|0|0,0:0|0:0|0:0,0:0:0:0:
104,272,11420,1,0,0:0:0:0:
236,300,11602,2,0,P|284:300|328:292,2,90,2|0|0,0:0|0:0|0:0,0:0:0:0:
200,172,12147,1,0,0:0:0:0:
288,72,12329,1,2,0:0:0:0:
392,88,12511,2,0,L|448:160,1,90
460,268,12875,1,0,0:0:0:0:
352,276,13056,6,0,P|284:232|260:140,1,180,2|0,0:0|0:0,0:0:0:0:
296,36,13602,1,2,0:0:0:0:
192,72,13784,2,0,L|108:112,1,90,0|0,0:0|0:0,0:0:0:0:
260,140,14147,2,0,L|344:100,1,90,2|0,0:0|0:0,0:0:0:0:
440,144,14511,2,0,P|476:228|456:312,1,180,2|0,0:0|0:0,0:0:0:0:
352,276,15056,2,0,P|312:256|268:248,2,90,2|0|0,0:0|0:0|0:0,0:0:0:0:
188,324,15602,1,2,0:0:0:0:
108,252,15784,1,0,0:0:0:0:
108,252,15966,6,0,P|168:184|156:92,1,180,2|0,0:0|0:0,0:0:0:0:
64,152,16511,1,0,0:0:0:0:
64,152,16693,2,0,L|236:204,1,180,2|0,0:0|0:0,0:0:0:0:
336,160,17238,2,0,L|420:128,2,90,2|0|0,0:0|0:0|0:0,0:0:0:0:
284,284,17784,1,2,0:0:0:0:
416,312,17966,2,0,L|460:232,1,90
428,72,18329,5,0,0:0:0:0:
284,56,18511,1,8,0:0:0:0:
200,176,18693,1,0,0:0:0:0:
284,284,18875,1,2,0:0:0:0:
284,284,19238,6,0,P|316:248|352:228,1,90,0|2,0:0|0:0,0:0:0:0:
460,208,19602,1,0,0:0:0:0:
388,128,19784,2,0,L|320:68,1,90,0|8,0:0|0:0,0:0:0:0:
256,156,20147,1,0,0:0:0:0:
190,73,20329,2,0,B|116:124|116:124|148:168|136:208,1,180,2|0,0:0|0:0,0:0:0:0:
72,296,20875,1,2,0:0:0:0:
72,296,21056,1,0,0:0:0:0:
176,316,21238,1,0,0:0:0:0:
176,316,21420,1,8,0:0:0:0:
256,244,21602,1,0,0:0:0:0:
256,136,21784,6,0,P|188:72|104:48,1,180,2|0,0:0|0:0,0:0:0:0:
4,196,22329,2,0,P|72:260|156:284,1,180,2|0,0:0|0:0,0:0:0:0:
256,244,22875,1,8,0:0:0:0:
348,188,23056,2,0,L|424:140,2,90,0|2|0,0:0|0:0|0:0,0:0:0:0:
284,340,23602,1,0,0:0:0:0:
284,340,23966,1,2,0:0:0:0:
376,284,24147,2,0,B|416:264|464:256,2,90,0|8|0,0:0|0:0|0:0,0:0:0:0:
444,164,24693,6,0,P|408:68|340:48,1,180,2|0,0:0|0:0,0:0:0:0:
256,116,25238,1,2,0:0:0:0:
172,48,25420,2,0,P|128:56|84:72,1,90
28,164,25784,1,8,0:0:0:0:
108,236,25966,1,0,0:0:0:0:
216,220,26147,6,0,P|260:224|302:243,1,90,2|0,0:0|0:0,0:0:0:0:
300,352,26511,2,0,P|256:348|213:328,1,90
156,156,26875,6,0,P|137:197|133:241,1,90,2|0,0:0|0:0,0:0:0:0:
276,284,27238,2,0,P|294:242|298:198,1,90,8|0,0:0|0:0,0:0:0:0:
112,88,27602,6,0,P|64:168|56:256,1,180,2|0,0:0|0:0,0:0:0:0:
128,332,28147,1,0,0:0:0:0:
212,264,28329,2,0,P|256:256|300:264,1,90,2|0,0:0|0:0,0:0:0:0:
384,332,28693,1,8,0:0:0:0:
384,332,29056,2,0,L|452:272,1,90,2|0,0:0|0:0,0:0:0:0:
476,140,29420,2,0,L|384:164,1,90
284,188,29784,5,2,0:0:0:0:
188,296,29966,1,0,0:0:0:0:
48,268,30147,1,8,0:0:0:0:
8,132,30329,1,2,0:0:0:0:
124,48,30511,6,0,L|216:40,1,90,8|8,0:0|0:0,0:0:0:0:
388,336,31056,2,0,L|296:344,1,90,8|8,0:0|0:0,0:0:0:0:
188,296,31420,1,0,2:0:0:0:
188,296,31602,2,0,L|260:240,1,90,8|8,0:0|0:0,0:0:0:0:
152,32,32147,2,0,L|80:88,1,90,8|8,0:0|0:0,0:0:0:0:
348,140,32693,1,8,0:0:0:0:
348,140,32875,1,2,0:0:0:0:
348,140,33056,2,0,P|388:144|416:140,1,67.5000025749208,8|2,0:0|0:0,0:0:0:0:
416,140,33420,6,0,L|400:228,1,90,8|8,0:0|0:0,0:0:0:0:
96,244,33966,2,0,L|112:156,1,90,8|8,0:0|0:0,0:0:0:0:
220,220,34329,1,0,0:0:0:0:
220,220,34511,2,0,L|300:180,1,90,8|8,0:0|0:0,0:0:0:0:
472,312,35056,2,0,L|392:352,1,90,8|8,0:0|0:0,0:0:0:0:
168,312,35602,1,8,0:0:0:0:
168,312,35784,1,2,0:0:0:0:
168,312,35966,2,0,P|140:284|128:260,1,67.5000025749208,8|2,0:0|0:0,0:0:0:0:
100,176,36329,5,8,0:0:0:0:
100,176,36511,1,8,0:0:0:0:
272,44,36875,1,8,0:0:0:0:
272,44,37056,1,8,0:0:0:0:
412,208,37420,1,8,0:0:0:0:
412,208,37602,1,8,0:0:0:0:
240,340,37966,1,8,0:0:0:0:
240,340,38147,2,0,L|148:328,2,90,8|0|8,0:0|0:0|0:0,0:0:0:0:
332,284,38693,2,0,L|424:296,2,90,2|8|2,0:0|0:0|0:0,0:0:0:0:
236,232,39238,5,8,0:0:0:0:
164,152,39420,1,8,0:0:0:0:
392,48,39784,1,8,0:0:0:0:
464,128,39966,1,8,0:0:0:0:
288,348,40329,1,8,0:0:0:0:
184,328,40511,2,0,P|136:320|92:324,2,90,8|0|8,0:0|0:0|0:0,0:0:0:0:
244,240,41056,2,0,P|216:204|176:176,1,90,8|0,0:0|0:0,0:0:0:0:
80,136,41420,1,8,0:0:0:0:
176,88,41602,5,2,0:0:0:0:
176,88,41784,2,0,L|256:48,1,90,8|2,0:0|0:0,0:0:0:0:
416,80,42147,1,4,0:0:0:0:
416,80,42329,2,0,L|448:164,1,90,0|8,0:0|0:0,0:0:0:0:
372,248,42693,2,0,L|340:164,1,90,2|0,0:0|0:0,0:0:0:0:
200,272,43056,6,0,L|232:188,1,90,0|10,0:0|0:0,0:0:0:0:
268,84,43420,1,0,0:0:0:0:
340,164,43602,2,0,P|388:180|428:184,1,90,2|0,0:0|0:0,0:0:0:0:
368,68,43966,1,8,0:0:0:0:
232,188,44147,1,2,0:0:0:0:
272,320,44329,2,0,P|228:320|184:308,2,90,0|0|10,0:0|0:0|0:0,0:0:0:0:
192,180,44875,2,0,P|148:168|104:168,1,90,0|2,0:0|0:0,0:0:0:0:
24,288,45238,5,0,0:0:0:0:
124,332,45420,2,0,L|204:288,1,90,8|2,0:0|0:0,0:0:0:0:
388,332,45784,2,0,L|308:288,1,90,0|0,0:0|0:0,0:0:0:0:
256,196,46147,1,10,0:0:0:0:
256,196,46329,1,0,0:0:0:0:
308,100,46511,5,2,0:0:0:0:
416,108,46693,1,0,0:0:0:0:
436,216,46875,1,8,0:0:0:0:
340,264,47056,1,2,0:0:0:0:
256,196,47238,2,0,P|236:152|228:112,1,90,2|0,0:0|0:0,0:0:0:0:
136,212,47602,2,0,P|156:256|164:296,1,90,8|2,0:0|0:0,0:0:0:0:
164,296,47965,6,0,P|256:268|340:264,1,180,2|8,0:0|0:0,0:0:0:0:
440,280,48511,1,2,0:0:0:0:
416,176,48693,2,0,L|400:88,1,90
292,68,49056,2,0,L|308:156,1,90,10|0,0:0|0:0,0:0:0:0:
204,128,49420,6,0,P|112:116|44:164,1,180,2|8,0:0|0:0,0:0:0:0:
28,272,49965,1,2,0:0:0:0:
100,352,50147,1,0,0:0:0:0:
196,304,50329,1,0,0:0:0:0:
300,336,50511,1,10,0:0:0:0:
404,312,50693,1,0,0:0:0:0:
464,224,50875,6,0,P|484:132|436:68,1,180,2|8,0:0|0:0,0:0:0:0:
332,96,51420,1,2,0:0:0:0:
228,72,51602,2,0,L|140:48,1,90,0|0,0:0|0:0,0:0:0:0:
48,136,51965,2,0,L|136:160,1,90,10|0,0:0|0:0,0:0:0:0:
228,292,52329,6,0,P|316:316|404:304,1,180,2|8,0:0|0:0,0:0:0:0:
468,216,52875,1,2,0:0:0:0:
412,124,53056,2,0,P|368:116|320:124,1,90
284,224,53420,2,0,P|328:232|376:224,1,90,10|0,0:0|0:0,0:0:0:0:
216,136,53784,6,0,P|136:124|64:184,1,180,2|8,0:0|0:0,0:0:0:0:
220,336,54511,2,0,P|300:348|372:288,1,180,2|8,0:0|0:0,0:0:0:0:
256,192,55238,12,2,56329,0:0:0:0:
256,192,56511,5,4,0:0:0:0:
168,128,57420,5,0,3:0:0:0:
268,84,57602,1,0,3:0:0:0:
312,76,57693,1,0,3:0:0:0:
356,76,57784,1,0,3:0:0:0:
400,88,57875,1,0,3:0:0:0:
440,112,57965,1,0,3:0:0:0:
468,148,58056,1,0,3:0:0:0:
472,192,58147,6,0,P|460:244|416:312,1,135,4|0,0:0|0:0,0:0:0:0:
372,344,58511,1,8,0:0:0:0:
272,300,58693,1,0,0:0:0:0:
172,340,58875,2,0,P|128:324|88:300,1,90,2|0,0:0|0:0,0:0:0:0:
72,168,59238,1,8,0:0:0:0:
72,168,59420,6,0,P|116:184|156:208,1,90,2|0,0:0|0:0,0:0:0:0:
272,300,59784,2,0,L|352:256,1,90,2|8,0:0|0:0,0:0:0:0:
440,156,60147,1,2,0:0:0:0:
440,156,60238,1,8,0:0:0:0:
440,156,60329,2,0,L|348:152,2,90,0|0|8,0:0|0:0|0:0,0:0:0:0:
260,100,60875,5,2,0:0:0:0:
260,100,61056,2,0,P|172:84|128:92,1,135,4|0,0:0|0:0,0:0:0:0:
88,128,61420,1,8,0:0:0:0:
116,232,61602,1,0,0:0:0:0:
116,232,61693,1,0,0:0:0:0:
116,232,61784,2,0,P|156:252|204:256,1,90,2|0,0:0|0:0,0:0:0:0:
336,264,62147,1,8,0:0:0:0:
336,264,62329,6,0,P|344:216|364:176,1,90,2|0,0:0|0:0,0:0:0:0:
412,84,62693,2,0,L|324:100,2,90,2|8|2,0:0|0:0|0:0,0:0:0:0:
412,84,63147,1,8,0:0:0:0:
412,84,63238,1,0,0:0:0:0:
448,188,63420,5,2,0:0:0:0:
296,204,63602,1,8,0:0:0:0:
320,356,63784,1,2,0:0:0:0:
160,332,63965,2,0,L|120:252,1,90,4|0,0:0|0:0,0:0:0:0:
132,144,64329,1,8,0:0:0:0:
132,144,64511,2,0,P|192:92|288:96,1,180,2|2,0:0|0:0,0:0:0:0:
304,244,65056,2,0,P|260:268|216:272,1,90,8|2,0:0|0:0,0:0:0:0:
220,272,65329,1,0,0:0:0:0:
220,272,65420,1,0,0:0:0:0:
132,212,65602,5,0,0:0:0:0:
132,212,65784,2,0,L|64:148,1,90,8|2,0:0|0:0,0:0:0:0:
232,176,66147,1,0,0:0:0:0:
232,176,66329,2,0,L|324:168,1,90,2|8,0:0|0:0,0:0:0:0:
428,160,66693,1,2,0:0:0:0:
348,84,66875,6,0,P|284:60|220:32,1,135,4|0,0:0|0:0,0:0:0:0:
168,28,67238,1,8,0:0:0:0:
64,52,67420,1,2,0:0:0:0:
136,132,67602,1,2,0:0:0:0:
56,204,67784,1,0,0:0:0:0:
132,280,67965,2,0,P|172:300|216:308,1,90,8|2,0:0|0:0,0:0:0:0:
344,156,68329,2,0,P|352:236|336:288,1,135
312,340,68693,1,8,0:0:0:0:
204,360,68875,5,4,0:0:0:0:
312,56,69238,1,4,0:0:0:0:
416,80,69420,1,0,3:0:0:0:
440,120,69511,1,0,3:0:0:0:
452,164,69602,1,0,3:0:0:0:
452,208,69693,1,0,3:0:0:0:
440,252,69784,6,0,P|392:272|312:292,1,135,4|0,0:0|0:0,0:0:0:0:
256,292,70147,2,0,L|176:240,1,90,8|0,0:0|0:0,0:0:0:0:
172,108,70511,2,0,L|252:160,1,90,2|0,0:0|0:0,0:0:0:0:
336,220,70875,1,8,0:0:0:0:
256,292,71056,5,2,0:0:0:0:
152,268,71238,1,0,0:0:0:0:
88,180,71420,2,0,P|88:132|96:88,1,90,2|8,0:0|0:0,0:0:0:0:
248,88,71784,1,2,0:0:0:0:
248,88,71875,1,8,0:0:0:0:
248,88,71965,2,0,P|296:92|340:92,1,90,0|0,0:0|0:0,0:0:0:0:
444,80,72329,1,8,0:0:0:0:
404,180,72511,1,0,0:0:0:0:
460,272,72693,6,0,P|384:276|328:292,1,135,4|0,0:0|0:0,0:0:0:0:
284,324,73056,1,8,0:0:0:0:
200,224,73238,1,0,0:0:0:0:
200,224,73329,1,0,0:0:0:0:
200,224,73420,2,0,L|232:140,1,90,2|0,0:0|0:0,0:0:0:0:
92,220,73784,1,8,0:0:0:0:
92,220,73965,6,0,P|64:256|48:300,2,90,2|0|2,0:0|0:0|0:0,0:0:0:0:
152,308,74511,2,0,P|200:320|288:324,1,135,8|8,0:0|0:0,0:0:0:0:
340,320,74875,2,0,L|284:248,1,90
276,140,75238,1,8,0:0:0:0:
340,52,75420,1,0,0:0:0:0:
436,104,75602,6,0,P|468:188|436:268,1,180,4|8,0:0|0:0,0:0:0:0:
340,320,76147,1,0,0:0:0:0:
340,320,76238,1,0,0:0:0:0:
340,320,76329,1,2,0:0:0:0:
252,256,76511,2,0,P|224:216|208:172,1,90,0|8,0:0|0:0,0:0:0:0:
212,68,76875,6,0,L|120:100,1,90,2|0,0:0|0:0,0:0:0:0:
72,232,77238,2,0,L|164:200,1,90,2|8,0:0|0:0,0:0:0:0:
208,96,77602,6,0,L|116:128,1,90,2|0,0:0|0:0,0:0:0:0:
68,260,77965,2,0,L|160:228,1,90,2|8,0:0|0:0,0:0:0:0:
292,196,78329,1,2,0:0:0:0:
408,280,78511,6,0,B|384:316|340:340,1,90,2|0,0:0|0:0,0:0:0:0:
240,300,78875,2,0,P|192:288|108:296,1,135,8|8,0:0|0:0,0:0:0:0:
52,300,79238,2,0,L|96:220,1,90,0|2,0:0|0:0,0:0:0:0:
168,140,79602,1,8,0:0:0:0:
252,72,79784,2,0,P|328:112|420:136,1,180,2|2,0:0|0:0,0:0:0:0:
456,236,80329,2,0,L|368:256,1,90,8|0,0:0|0:0,0:0:0:0:
276,200,80693,5,2,0:0:0:0:
208,316,80875,1,0,0:0:0:0:
84,268,81056,1,8,0:0:0:0:
72,224,81147,1,0,3:0:0:0:
60,180,81238,1,0,3:0:0:0:
48,136,81329,1,0,3:0:0:0:
36,92,81420,6,0,L|104:32,1,90,4|0,0:0|0:0,0:0:0:0:
200,80,81784,1,8,0:0:0:0:
308,80,81965,1,0,0:0:0:0:
476,92,82147,2,0,L|408:32,1,90,2|0,0:0|0:0,0:0:0:0:
348,184,82511,1,8,0:0:0:0:
348,184,82693,6,0,L|304:264,1,90,2|0,0:0|0:0,0:0:0:0:
164,184,83056,2,0,L|208:264,1,90,2|8,0:0|0:0,0:0:0:0:
316,336,83420,2,0,L|400:372,1,90,2|0,0:0|0:0,0:0:0:0:
196,336,83784,2,0,L|112:372,1,90,2|8,0:0|0:0,0:0:0:0:
16,276,84147,1,0,0:0:0:0:
68,116,84329,6,0,P|108:88|240:64,1,180,4|2,0:0|0:0,0:0:0:0:
428,252,85056,1,0,0:0:0:0:
428,252,85238,2,0,P|388:280|256:304,1,180,2|2,0:0|0:0,0:0:0:0:
152,288,85784,5,8,0:0:0:0:
228,212,85965,2,0,P|260:176|280:136,1,90,0|0,0:0|0:0,0:0:0:0:
156,32,86329,2,0,P|88:96|56:180,1,180,2|0,0:0|0:0,0:0:0:0:
152,288,86875,1,8,0:0:0:0:
152,288,86965,1,0,3:0:0:0:
152,288,87056,1,0,3:0:0:0:
320,232,87238,1,4,0:0:0:0:
