osu file format v12

[General]
AudioFilename: Suzuki Konomi - Yume no Tsuzuki (TV Size).mp3
AudioLeadIn: 1500
PreviewTime: 57939
Countdown: 0
SampleSet: Soft
StackLeniency: 0.7
Mode: 0
LetterboxInBreaks: 0

[Editor]
DistanceSpacing: 1.1
BeatDivisor: 4
GridSize: 4

[Metadata]
Title:Yume no Tsuzuki (TV Size)
TitleUnicode:夢の続き (TV Size)
Artist:Suzuki Konomi
ArtistUnicode:鈴木このみ
Creator:Nichiyouki
Version:Hard
Source:Sakurasou no Pet na Kanojo
Tags:さくら荘のペットな彼女 J.C.Staff opening nich95 Flask
BeatmapID:225055
BeatmapSetID:80974

[Difficulty]
HPDrainRate:6
CircleSize:4
OverallDifficulty:6
ApproachRate:7
SliderMultiplier:1.6
SliderTickRate:1

[Events]
//Background and Video events
Video,0,"Sakurasou no Pet na Kanojo OP2.avi"
0,0,"BG.jpg",0,0
//Break Periods
//Storyboard Layer 0 (Background)
//Storyboard Layer 1 (Fail)
//Storyboard Layer 2 (Pass)
//Storyboard Layer 3 (Foreground)
//Storyboard Sound Samples
//Background Colour Transformations
3,100,163,162,255

[TimingPoints]
-34,363.636363636364,4,2,1,70,1,0
18511,-100,4,2,1,55,0,0
18602,-100,4,2,1,70,0,0
19966,-100,4,2,1,55,0,0
20056,-100,4,2,1,70,0,0
21420,-100,4,2,1,55,0,0
21511,-100,4,2,1,70,0,0
22875,-100,4,2,1,55,0,0
22966,-100,4,2,1,70,0,0
24329,-100,4,2,1,55,0,0
24420,-100,4,2,1,70,0,0
25784,-100,4,2,1,55,0,0
25875,-100,4,2,1,70,0,0
27238,-100,4,2,1,55,0,0
27329,-100,4,2,1,70,0,0
28693,-100,4,2,1,55,0,0
28784,-100,4,2,1,70,0,0
30147,-100,4,2,1,55,0,0
30511,-100,4,2,2,70,0,0
42147,-100,4,2,1,70,0,0
57602,-100,4,2,1,40,0,0
58147,-100,4,2,1,80,0,1
69420,-100,4,2,1,60,0,1
69693,-100,4,2,1,60,0,0
69784,-100,4,2,1,80,0,1
84329,-100,4,2,1,70,0,0

[Colours]
Combo1 : 255,128,64
Combo2 : 255,128,192
Combo3 : 128,128,192
Combo4 : 0,255,64
Combo5 : 0,128,255
Combo6 : 255,128,128

[HitObjects]
184,116,693,1,2,0:0:0:0:
116,60,875,2,0,L|84:36,2,40,8|0|0,0:0|3:0|3:0,0:0:0:0:
100,148,1238,1,0,0:0:0:0:
100,148,1329,1,0,0:0:0:0:
100,148,1420,6,0,P|56:216|72:292,1,160,4|8,0:0|0:0,0:0:0:0:
140,344,1966,1,0,0:0:0:0:
216,304,2147,2,0,P|296:292|376:304,1,160,2|8,0:0|0:0,0:0:0:0:
460,328,2693,1,0,0:0:0:0:
432,244,2875,6,0,L|404:168,1,80,2|0,0:0|0:0,0:0:0:0:
368,88,3238,2,0,P|320:156|256:196,1,160,8|2,0:0|0:0,0:0:0:0:
116,156,3784,1,0,0:0:0:0:
116,156,3966,2,0,P|164:88|228:48,1,160,8|2,0:0|0:0,0:0:0:0:
312,20,4511,1,0,0:0:0:0:
368,88,4693,1,8,0:0:0:0:
424,156,4875,2,0,P|460:172|500:172,2,80
324,224,5420,5,8,0:0:0:0:
324,224,5511,1,0,0:0:0:0:
324,224,5602,2,0,P|288:208|248:208,1,80,0|4,0:0|0:0,0:0:0:0:
80,308,6511,1,4,0:0:0:0:
80,308,7238,6,0,P|108:232|96:156,1,160,2|0,0:0|0:0,0:0:0:0:
56,76,7784,1,2,0:0:0:0:
144,72,7966,2,0,L|224:68,1,80
272,140,8329,2,0,L|352:156,1,80,2|0,0:0|0:0,0:0:0:0:
424,208,8693,1,2,0:0:0:0:
424,208,9056,6,0,L|444:288,2,80,0|2|0,0:0|0:0|0:0,0:0:0:0:
456,116,9602,1,0,0:0:0:0:
388,44,9784,2,0,P|304:24|236:48,1,160,2|2,0:0|0:0,0:0:0:0:
180,216,10511,1,0,0:0:0:0:
236,284,10693,1,0,0:0:0:0:
320,316,10875,6,0,P|392:276|436:208,1,160,2|0,0:0|0:0,0:0:0:0:
388,44,11602,2,0,P|316:84|272:152,1,160,2|0,0:0|0:0,0:0:0:0:
256,324,12329,1,2,0:0:0:0:
256,324,12693,2,0,L|176:340,1,80
32,348,13056,6,0,L|96:196,1,160,2|0,0:0|0:0,0:0:0:0:
152,132,13602,1,2,0:0:0:0:
228,88,13784,2,0,P|312:76|380:108,1,160,0|2,0:0|0:0,0:0:0:0:
348,280,14511,2,0,P|264:292|196:260,1,160,2|0,0:0|0:0,0:0:0:0:
224,176,15056,1,2,0:0:0:0:
224,176,15420,2,0,L|304:192,2,80,0|2|0,0:0|0:0|0:0,0:0:0:0:
204,88,15966,6,0,L|48:52,1,160,2|0,0:0|0:0,0:0:0:0:
64,140,16511,1,0,0:0:0:0:
64,140,16693,2,0,L|80:220,1,80,2|0,0:0|0:0,0:0:0:0:
156,172,17056,1,2,0:0:0:0:
156,172,17238,2,0,P|208:232|280:264,1,160,0|0,0:0|0:0,0:0:0:0:
388,168,17784,1,2,0:0:0:0:
388,168,17966,2,0,P|336:108|264:76,1,160,0|2,0:0|0:0,0:0:0:0:
176,84,18511,2,0,P|136:84|96:72,1,80,8|0,0:0|0:0,0:0:0:0:
12,44,18875,1,2,0:0:0:0:
12,44,19238,5,0,0:0:0:0:
28,132,19420,2,0,L|40:212,1,80,2|0,0:0|0:0,0:0:0:0:
112,288,19784,2,0,L|144:208,1,80,0|8,0:0|0:0,0:0:0:0:
176,132,20147,1,0,0:0:0:0:
256,96,20329,1,2,0:0:0:0:
256,96,20693,5,0,0:0:0:0:
320,156,20875,2,0,P|396:180|472:144,1,160,2|0,0:0|0:0,0:0:0:0:
392,100,21420,1,8,0:0:0:0:
392,100,21602,1,0,0:0:0:0:
392,100,21784,2,0,L|400:260,1,160,2|0,0:0|0:0,0:0:0:0:
320,224,22329,6,0,P|244:196|164:188,1,160,2|0,0:0|0:0,0:0:0:0:
100,244,22875,2,0,P|76:284|68:320,1,80,8|0,0:0|0:0,0:0:0:0:
88,160,23238,2,0,B|100:116|100:80|100:80|144:84|180:76,1,160,2|0,0:0|0:0,0:0:0:0:
344,136,23966,2,0,P|264:144|188:168,1,160,2|8,0:0|0:0,0:0:0:0:
208,344,24693,5,2,0:0:0:0:
208,344,25056,2,0,P|288:336|364:312,1,160,0|2,0:0|0:0,0:0:0:0:
440,264,25602,2,0,P|432:224|436:184,1,80,0|8,0:0|0:0,0:0:0:0:
464,100,25966,1,0,0:0:0:0:
376,84,26147,2,0,P|304:120|260:188,1,160,2|0,0:0|0:0,0:0:0:0:
252,272,26693,1,2,0:0:0:0:
252,272,27056,2,0,P|228:308|200:336,2,80,0|8|0,0:0|0:0|0:0,0:0:0:0:
332,236,27602,6,0,P|404:196|448:128,1,160,2|0,0:0|0:0,0:0:0:0:
448,44,28147,1,0,0:0:0:0:
360,56,28329,2,0,P|276:56|200:44,1,160,2|8,0:0|0:0,0:0:0:0:
52,140,29056,1,2,0:0:0:0:
132,296,29420,1,0,0:0:0:0:
308,320,29784,2,0,L|388:328,1,80,2|0,0:0|0:0,0:0:0:0:
340,236,30147,2,0,L|416:208,1,80,8|0,0:0|0:0,0:0:0:0:
504,124,30511,6,0,L|428:92,1,80,8|8,0:0|0:0,0:0:0:0:
280,184,31056,2,0,L|204:208,1,80,8|8,0:0|0:0,0:0:0:0:
40,276,31602,1,8,0:0:0:0:
72,192,31784,2,0,P|80:128|60:32,1,160,8|8,0:0|0:0,0:0:0:0:
160,48,32329,1,8,0:0:0:0:
160,48,32693,2,0,L|240:64,1,80,8|2,0:0|0:0,0:0:0:0:
340,40,33056,2,0,L|352:120,1,80,8|2,0:0|0:0,0:0:0:0:
328,236,33420,6,0,L|256:192,1,80,8|8,0:0|0:0,0:0:0:0:
128,312,33966,1,8,0:0:0:0:
68,248,34147,2,0,P|64:172|100:96,1,160,8|8,0:0|0:0,0:0:0:0:
164,40,34693,1,8,0:0:0:0:
164,40,35056,2,0,L|244:40,1,80,8|8,0:0|0:0,0:0:0:0:
420,40,35602,1,8,0:0:0:0:
420,40,35784,1,2,0:0:0:0:
472,132,35966,1,8,0:0:0:0:
472,132,36147,1,2,0:0:0:0:
404,212,36329,6,0,L|352:276,1,80,8|8,0:0|0:0,0:0:0:0:
272,120,36875,2,0,L|324:56,1,80,8|8,0:0|0:0,0:0:0:0:
148,36,37420,1,8,0:0:0:0:
88,100,37602,2,0,P|48:176|28:248,1,160,8|8,0:0|0:0,0:0:0:0:
72,324,38147,1,8,0:0:0:0:
72,324,38329,1,0,0:0:0:0:
148,280,38511,2,0,L|216:236,1,80,8|2,0:0|0:0,0:0:0:0:
232,340,38875,2,0,L|312:320,1,80,8|2,0:0|0:0,0:0:0:0:
408,252,39238,6,0,L|468:316,1,80,8|8,0:0|0:0,0:0:0:0:
468,132,39784,2,0,L|388:124,1,80,8|8,0:0|0:0,0:0:0:0:
212,104,40329,1,8,0:0:0:0:
240,188,40511,2,0,P|248:268|200:336,1,160,8|8,0:0|0:0,0:0:0:0:
64,308,41056,2,0,P|56:228|104:160,1,160,8|8,0:0|0:0,0:0:0:0:
256,84,41784,1,8,0:0:0:0:
256,84,42147,6,0,L|336:68,1,80,4|0,0:0|0:0,0:0:0:0:
424,56,42511,1,8,0:0:0:0:
396,140,42693,2,0,P|400:216|432:292,1,160,2|2,0:0|0:0,0:0:0:0:
488,360,43238,2,0,L|408:368,1,80,8|0,0:0|0:0,0:0:0:0:
320,284,43602,5,2,0:0:0:0:
320,284,43784,2,0,L|256:332,1,80,0|8,0:0|0:0,0:0:0:0:
168,336,44147,2,0,P|108:272|92:204,1,160,2|2,0:0|0:0,0:0:0:0:
128,128,44693,1,8,0:0:0:0:
208,92,44875,1,0,0:0:0:0:
276,148,45056,6,0,P|352:172|436:172,1,160,2|8,0:0|0:0,0:0:0:0:
512,136,45602,1,0,0:0:0:0:
496,224,45784,2,0,L|484:304,2,80,2|0|8,0:0|0:0|0:0,0:0:0:0:
232,72,46511,6,0,P|204:100|192:140,2,80,2|0|8,0:0|0:0|0:0,0:0:0:0:
276,148,47056,2,0,P|276:224|232:296,1,160,2|2,0:0|0:0,0:0:0:0:
180,364,47602,2,0,L|260:380,1,80,8|0,0:0|0:0,0:0:0:0:
360,296,47965,5,2,0:0:0:0:
360,296,48147,2,0,L|436:264,1,80,0|8,0:0|0:0,0:0:0:0:
484,192,48511,2,0,P|488:112|436:52,1,160,2|2,0:0|0:0,0:0:0:0:
352,44,49056,1,8,0:0:0:0:
276,88,49238,1,0,0:0:0:0:
192,68,49420,6,0,P|120:104|76:168,1,160,2|8,0:0|0:0,0:0:0:0:
120,244,49965,2,0,P|124:296|116:328,2,80,2|0|2,0:0|0:0|0:0,0:0:0:0:
200,208,50511,1,8,0:0:0:0:
280,244,50693,1,0,0:0:0:0:
360,212,50875,2,0,P|388:144|384:56,1,160,2|8,0:0|0:0,0:0:0:0:
112,184,51602,6,0,P|116:224|132:264,2,80,2|0|8,0:0|0:0|0:0,0:0:0:0:
180,124,52147,1,0,0:0:0:0:
256,168,52329,2,0,P|336:188|416:184,1,160,2|8,0:0|0:0,0:0:0:0:
300,48,53056,2,0,P|256:40|216:44,2,80,2|0|8,0:0|0:0|0:0,0:0:0:0:
360,232,53784,6,0,L|212:296,1,160,2|8,0:0|0:0,0:0:0:0:
84,176,54511,2,0,L|232:112,1,160,2|8,0:0|0:0,0:0:0:0:
256,192,55238,12,4,56511,0:0:0:0:
256,104,57420,5,0,0:0:0:0:
256,104,57602,2,0,L|300:96,5,40,8|8|8|8|8|8,0:0|0:0|0:0|0:0|0:0|0:0,0:0:0:0:
340,96,58147,6,0,P|380:172|380:244,1,160,4|8,0:0|0:0,0:0:0:0:
332,320,58693,1,0,0:0:0:0:
244,304,58875,2,0,L|160:288,2,80,2|0|8,0:0|0:0|0:0,0:0:0:0:
184,200,59420,1,2,0:0:0:0:
184,200,59784,2,0,L|152:124,1,80,2|8,0:0|0:0,0:0:0:0:
120,44,60147,1,0,0:0:0:0:
120,44,60238,1,8,0:0:0:0:
120,44,60329,2,0,L|200:56,2,80,0|0|8,0:0|0:0|0:0,0:0:0:0:
28,156,60875,5,0,0:0:0:0:
28,156,61056,2,0,P|12:244|68:320,1,160,4|8,0:0|0:0,0:0:0:0:
124,344,61602,1,0,0:0:0:0:
204,308,61784,2,0,P|232:280|256:248,2,80,2|0|8,0:0|0:0|0:0,0:0:0:0:
316,312,62329,2,0,P|400:292|472:300,1,160,2|2,0:0|0:0,0:0:0:0:
444,216,62875,2,0,L|416:140,1,80,8|0,0:0|0:0,0:0:0:0:
416,140,63147,1,8,0:0:0:0:
416,140,63238,1,0,0:0:0:0:
340,68,63420,5,2,0:0:0:0:
256,128,63602,1,8,0:0:0:0:
172,68,63784,1,2,0:0:0:0:
95,140,63965,2,0,P|68:216|72:296,1,160,4|8,0:0|0:0,0:0:0:0:
208,348,64511,2,0,P|235:272|231:192,1,160,2|2,0:0|0:0,0:0:0:0:
184,120,65056,1,8,0:0:0:0:
244,56,65238,1,2,0:0:0:0:
328,80,65420,1,0,0:0:0:0:
396,244,65784,5,8,0:0:0:0:
348,172,65965,2,0,P|312:244|344:312,1,160,2|2,0:0|0:0,0:0:0:0:
256,328,66511,2,0,L|176:344,1,80,8|0,0:0|0:0,0:0:0:0:
80,272,66875,6,0,P|104:200|92:116,1,160,4|8,0:0|0:0,0:0:0:0:
68,32,67420,1,0,0:0:0:0:
152,56,67602,2,0,P|236:72|312:64,1,160,2|8,0:0|0:0,0:0:0:0:
228,220,68329,2,0,P|304:200|372:152,1,160,2|8,0:0|0:0,0:0:0:0:
436,96,68875,1,4,0:0:0:0:
296,316,69238,1,4,0:0:0:0:
208,336,69420,2,0,L|164:348,3,40,8|8|8|8,0:0|0:0|0:0|0:0,0:0:0:0:
124,348,69784,6,0,P|140:268|140:188,1,160,4|8,0:0|0:0,0:0:0:0:
120,104,70329,1,0,0:0:0:0:
204,128,70511,2,0,L|280:152,2,80,2|0|8,0:0|0:0|0:0,0:0:0:0:
312,72,71056,1,2,0:0:0:0:
312,72,71420,2,0,L|392:52,1,80,2|8,0:0|0:0,0:0:0:0:
476,36,71784,1,0,0:0:0:0:
476,36,71875,1,8,0:0:0:0:
476,36,71965,2,0,L|464:120,1,80
384,148,72329,2,0,L|332:208,1,80,8|0,0:0|0:0,0:0:0:0:
236,284,72693,6,0,P|152:276|84:304,1,160,4|8,0:0|0:0,0:0:0:0:
88,216,73238,1,2,0:0:0:0:
88,216,73420,2,0,L|96:136,1,80
184,80,73784,2,0,L|176:160,1,80,8|2,0:0|0:0,0:0:0:0:
328,304,74329,2,0,L|336:224,1,80,2|8,0:0|0:0,0:0:0:0:
344,136,74693,1,0,0:0:0:0:
344,136,74784,1,8,0:0:0:0:
344,136,74875,2,0,P|384:120|420:112,2,80,0|0|8,0:0|0:0|0:0,0:0:0:0:
264,176,75420,1,0,0:0:0:0:
180,156,75602,1,4,0:0:0:0:
180,156,75965,5,8,0:0:0:0:
104,204,76147,1,0,0:0:0:0:
108,292,76329,2,0,P|144:328|172:340,2,80,2|0|8,0:0|0:0|0:0,0:0:0:0:
188,256,76875,2,0,P|268:264|348:252,1,160,2|2,0:0|0:0,0:0:0:0:
332,108,77420,1,8,0:0:0:0:
332,108,77602,2,0,P|252:100|172:112,1,160,2|2,0:0|0:0,0:0:0:0:
128,188,78147,2,0,L|92:260,2,80,8|0|2,0:0|0:0|0:0,0:0:0:0:
68,124,78693,5,0,0:0:0:0:
68,124,78875,2,0,B|104:48|104:48|144:56|180:48,1,160,8|0,0:0|0:0,0:0:0:0:
256,92,79420,2,0,L|324:136,1,80,2|8,0:0|0:0,0:0:0:0:
392,192,79784,1,2,0:0:0:0:
392,192,80147,1,2,0:0:0:0:
308,216,80329,2,0,P|272:232|240:260,1,80,8|0,0:0|0:0,0:0:0:0:
164,300,80693,6,0,L|172:216,1,80,2|0,0:0|0:0,0:0:0:0:
84,220,81056,2,0,L|60:140,1,80,8|0,0:0|0:0,0:0:0:0:
148,60,81420,2,0,L|172:140,1,80,4|0,0:0|0:0,0:0:0:0:
200,220,81784,1,8,0:0:0:0:
200,220,82147,5,2,0:0:0:0:
280,180,82329,1,0,0:0:0:0:
356,224,82511,1,8,0:0:0:0:
432,180,82693,2,0,P|484:116|480:40,1,160,2|2,0:0|0:0,0:0:0:0:
392,36,83238,1,8,0:0:0:0:
308,64,83420,2,0,L|228:84,1,80,2|0,0:0|0:0,0:0:0:0:
148,116,83784,2,0,L|68:104,1,80,2|8,0:0|0:0,0:0:0:0:
20,176,84147,1,0,0:0:0:0:
20,176,84329,6,0,P|12:252|60:316,1,160,4|2,0:0|0:0,0:0:0:0:
232,284,85056,1,0,0:0:0:0:
232,284,85238,2,0,P|240:208|192:144,1,160,2|2,0:0|0:0,0:0:0:0:
112,104,85784,6,0,L|276:92,1,160,8|0,0:0|0:0,0:0:0:0:
328,180,86329,2,0,L|164:192,1,160,8|0,0:0|0:0,0:0:0:0:
72,200,86875,2,0,L|24:204,2,40,8|0|0,0:0|3:0|0:0,0:0:0:0:
72,200,87238,1,4,0:0:0:0:
