osu file format v14

[General]
AudioFilename: This Game.mp3
AudioLeadIn: 0
PreviewTime: 85491
Countdown: 0
SampleSet: Soft
StackLeniency: 0.6
Mode: 0
LetterboxInBreaks: 1
WidescreenStoryboard: 1

[Editor]
DistanceSpacing: 1
BeatDivisor: 4
GridSize: 8
TimelineZoom: 1

[Metadata]
Title:This Game
TitleUnicode:This Game
Artist:Suzuki Konomi
ArtistUnicode:Suzuki Konomi
Creator:lavalake
Version:Hard
Source:ノーゲーム・ノーライフ
Tags:Sora Shiro Jibril Zell No Game No Life opening
BeatmapID:449744
BeatmapSetID:188722

[Difficulty]
HPDrainRate:6
CircleSize:4
OverallDifficulty:4
ApproachRate:7
SliderMultiplier:0.700000005960464
SliderTickRate:1

[Events]
//Background and Video events
0,0,"No Game No Life.png",0,0
//Break Periods
//Storyboard Layer 0 (Background)
//Storyboard Layer 1 (Fail)
//Storyboard Layer 2 (Pass)
//Storyboard Layer 3 (Foreground)
//Storyboard Sound Samples

[TimingPoints]
2226,408.163265306122,4,2,0,20,1,0
31613,-100,4,2,0,30,0,0
38144,-58.8235294117647,4,2,0,60,0,0
85491,-58.8235294117647,4,2,0,60,0,1
114879,-58.8235294117647,4,2,0,60,0,0
162225,-58.8235294117647,4,2,0,60,0,1
191613,-58.8235294117647,4,2,0,60,0,0
214470,-100,4,2,0,40,0,0
225899,-58.8235294117647,4,2,0,60,0,0
232430,-58.8235294117647,4,2,0,60,0,1
279777,-58.8235294117647,4,2,0,60,0,0

[Colours]
Combo1 : 247,243,111
Combo2 : 185,21,17
Combo3 : 223,239,255
Combo4 : 255,157,199
Combo5 : 104,81,234

[HitObjects]
256,192,2226,5,2,0:0:0:0:
336,192,2532,1,0,0:0:0:0:
416,192,2838,1,0,0:0:0:0:
416,192,3042,2,0,P|416:224|384:256,1,70.0000005960464,2|2,0:0|0:0,0:0:0:0:
288,280,3858,5,2,0:0:0:0:
216,248,4164,1,0,0:0:0:0:
184,176,4470,1,0,0:0:0:0:
184,176,4674,2,0,P|184:128|200:96,1,70.0000005960464,2|2,0:0|0:0,0:0:0:0:
272,40,5491,5,2,0:0:0:0:
344,72,5797,1,0,0:0:0:0:
416,104,6103,1,0,0:0:0:0:
416,104,6307,2,0,P|440:144|440:176,1,70.0000005960464,2|2,0:0|0:0,0:0:0:0:
400,264,7123,5,2,0:0:0:0:
320,280,7430,1,0,0:0:0:0:
264,224,7736,1,0,0:0:0:0:
56,192,8552,5,0,0:0:0:0:
72,192,8654,1,0,0:0:0:0:
88,192,8756,1,2,0:0:0:0:
256,192,9368,1,0,0:0:0:0:
240,192,9470,1,0,0:0:0:0:
224,192,9572,1,2,0:0:0:0:
152,88,10185,5,0,0:0:0:0:
152,104,10287,1,0,0:0:0:0:
152,120,10389,1,2,0:0:0:0:
152,296,11001,1,0,0:0:0:0:
152,280,11103,1,0,0:0:0:0:
152,264,11205,1,2,0:0:0:0:
288,192,11817,5,0,0:0:0:0:
288,192,12021,2,0,P|344:136|408:120,1,140.000001192093,2|2,0:0|0:0,0:0:0:0:
392,232,13246,1,2,0:0:0:0:
496,272,13654,2,0,P|440:328|376:344,1,140.000001192093,2|2,0:0|0:0,0:0:0:0:
280,320,14879,1,2,0:0:0:0:
256,216,15287,5,2,0:0:0:0:
256,216,16103,1,2,0:0:0:0:
224,144,16409,1,0,0:0:0:0:
152,112,16715,1,0,0:0:0:0:
152,112,16919,2,0,P|120:104|80:128,1,70.0000005960464,2|2,0:0|0:0,0:0:0:0:
80,224,17736,5,2,0:0:0:0:
152,256,18042,1,0,0:0:0:0:
224,224,18348,1,0,0:0:0:0:
224,224,18552,2,0,P|248:200|240:152,1,70.0000005960464,2|2,0:0|0:0,0:0:0:0:
216,64,19368,5,2,0:0:0:0:
288,32,19674,1,0,0:0:0:0:
360,64,19981,1,0,0:0:0:0:
360,64,20185,1,2,0:0:0:0:
392,136,20491,1,2,0:0:0:0:
360,208,20797,1,2,0:0:0:0:
144,192,21613,5,0,0:0:0:0:
160,192,21715,1,0,0:0:0:0:
176,192,21817,1,2,0:0:0:0:
336,192,22430,1,0,0:0:0:0:
320,192,22532,1,0,0:0:0:0:
304,192,22634,1,2,0:0:0:0:
240,256,23246,5,0,0:0:0:0:
240,272,23348,1,0,0:0:0:0:
240,288,23450,1,2,0:0:0:0:
240,128,24062,1,0,0:0:0:0:
240,112,24164,1,0,0:0:0:0:
240,96,24266,1,2,0:0:0:0:
240,192,25083,5,2,0:0:0:0:
408,192,25695,1,0,0:0:0:0:
344,152,25899,2,0,L|296:152,1,35.0000002980232,2|0,0:0|0:0,0:0:0:0:
344,232,26307,2,0,L|296:232,1,35.0000002980232,2|0,0:0|0:0,0:0:0:0:
240,192,26715,5,2,0:0:0:0:
176,128,27123,1,0,0:0:0:0:
240,64,27532,1,2,0:0:0:0:
304,128,27940,1,2,0:0:0:0:
240,192,28348,5,2,0:0:0:0:
240,192,28960,1,2,0:0:0:0:
304,272,29368,1,0,0:0:0:0:
304,272,29572,1,0,0:0:0:0:
248,360,29981,2,0,P|312:368|408:256,1,210.000001788139,2|2,0:0|0:0,0:0:0:0:
328,192,31613,6,0,L|264:192,1,52.5000004470348,4|0,0:0|0:0,0:0:0:0:
184,192,32225,1,0,0:0:0:0:
64,192,32634,2,0,L|16:192,2,35.0000002980232,0|0|0,0:0|0:0|0:0,0:0:0:0:
88,128,33246,2,0,L|144:128,1,52.5000004470348,4|0,0:0|0:0,0:0:0:0:
232,128,33858,1,0,0:0:0:0:
352,128,34266,2,0,L|400:128,2,35.0000002980232,0|0|0,0:0|0:0|0:0,0:0:0:0:
384,192,34879,6,0,L|448:192,1,52.5000004470348,4|0,0:0|0:0,0:0:0:0:
496,264,35491,1,0,0:0:0:0:
376,296,35899,2,0,L|328:296,2,35.0000002980232,0|0|0,0:0|0:0|0:0,0:0:0:0:
424,240,36511,2,0,L|424:176,1,52.5000004470348,4|0,0:0|0:0,0:0:0:0:
384,104,37123,1,0,0:0:0:0:
264,72,37532,2,0,L|216:72,2,35.0000002980232,0|0|0,0:0|0:0|0:0,0:0:0:0:
320,160,38144,6,0,P|344:208|344:264,1,89.2500024622678,4|0,0:0|0:0,0:0:0:0:
347,242,38756,1,0,0:0:0:0:
224,320,39164,1,0,0:0:0:0:
152,304,39368,1,0,0:0:0:0:
112,240,39572,1,0,0:0:0:0:
112,240,39777,6,0,P|120:192|152:160,1,89.2500024622678,4|0,0:0|0:0,0:0:0:0:
146,163,40389,1,0,0:0:0:0:
280,96,40797,1,0,0:0:0:0:
352,112,41001,1,0,0:0:0:0:
392,176,41205,1,0,0:0:0:0:
392,176,41409,6,0,P|400:216|392:288,1,89.2500024622678,4|0,0:0|0:0,0:0:0:0:
397,264,42021,1,0,0:0:0:0:
280,176,42430,1,0,0:0:0:0:
232,120,42634,1,0,0:0:0:0:
184,64,42838,1,0,0:0:0:0:
184,64,43042,5,2,0:0:0:0:
128,192,43348,1,2,0:0:0:0:
184,320,43654,1,2,0:0:0:0:
320,192,44062,2,0,L|248:192,1,59.5000016415119,2|2,0:0|0:0,0:0:0:0:
440,168,44674,5,4,0:0:0:0:
408,256,44981,1,0,0:0:0:0:
320,288,45287,1,0,0:0:0:0:
320,168,45695,1,0,0:0:0:0:
320,168,45899,2,0,L|264:112,1,59.5000016415119
216,80,46307,6,0,P|136:72|96:80,1,119.000003283024,6|2,0:0|0:0,0:0:0:0:
96,216,47123,2,0,P|176:208|216:216,1,119.000003283024,2|2,0:0|0:0,0:0:0:0:
360,192,47940,1,4,0:0:0:0:
440,136,48246,1,0,0:0:0:0:
496,56,48552,1,0,0:0:0:0:
360,56,48960,1,0,0:0:0:0:
360,56,49164,2,0,L|328:56|288:56,1,59.5000016415119
224,56,49572,6,2,L|112:56,1,89.2500024622678,6|2,0:0|0:0,0:0:0:0:
134,56,50185,1,2,0:0:0:0:
200,192,50593,1,2,0:0:0:0:
272,192,50797,1,2,0:0:0:0:
416,192,51205,6,0,P|448:144|456:88,1,89.2500024622678,4|0,0:0|0:0,0:0:0:0:
456,24,51817,1,0,0:0:0:0:
312,32,52225,1,0,0:0:0:0:
232,40,52430,1,0,0:0:0:0:
280,104,52634,1,0,0:0:0:0:
280,104,52838,6,0,P|320:160|384:184,1,119.000003283024,6|2,0:0|0:0,0:0:0:0:
240,192,53654,2,0,P|200:128|200:64,1,119.000003283024,2|2,0:0|0:0,0:0:0:0:
144,200,54470,2,0,P|176:248|216:272,1,89.2500024622678,4|0,0:0|0:0,0:0:0:0:
296,288,55083,1,0,0:0:0:0:
400,216,55491,1,0,0:0:0:0:
448,160,55695,1,0,0:0:0:0:
400,104,55899,1,0,0:0:0:0:
400,104,56103,6,2,L|336:40,1,89.2500024622678,6|2,0:0|0:0,0:0:0:0:
336,40,56715,1,2,0:0:0:0:
208,80,57021,1,2,0:0:0:0:
136,192,57328,1,2,0:0:0:0:
312,200,57736,5,0,0:0:0:0:
384,216,57940,2,0,L|448:232,1,59.5000016415119,2|0,0:0|0:0,0:0:0:0:
464,296,58348,2,0,L|400:320,1,59.5000016415119,2|0,0:0|0:0,0:0:0:0:
336,328,58756,1,2,0:0:0:0:
264,312,58960,2,0,L|200:288,1,59.5000016415119,0|2,0:0|0:0,0:0:0:0:
168,144,59572,5,2,0:0:0:0:
216,88,59777,2,0,L|280:64,1,59.5000016415119,0|2,0:0|0:0,0:0:0:0:
336,96,60185,2,0,L|392:120,1,59.5000016415119,0|2,0:0|0:0,0:0:0:0:
448,160,60593,1,0,0:0:0:0:
448,160,60797,1,2,0:0:0:0:
304,192,61205,5,2,0:0:0:0:
232,200,61409,2,0,L|160:200,1,59.5000016415119,0|2,0:0|0:0,0:0:0:0:
136,264,61817,2,0,L|64:264,1,59.5000016415119,0|2,0:0|0:0,0:0:0:0:
16,224,62225,1,0,0:0:0:0:
72,176,62430,1,2,0:0:0:0:
136,136,62634,6,2,L|224:96,1,89.2500024622678,4|0,0:0|0:0,0:0:0:0:
328,104,63246,2,2,P|384:120|416:152,1,89.2500024622678
320,208,63858,1,2,0:0:0:0:
320,208,64062,1,2,0:0:0:0:
320,208,64266,5,0,0:0:0:0:
256,256,64470,2,0,L|192:256,1,59.5000016415119,2|0,0:0|0:0,0:0:0:0:
176,184,64879,2,0,L|112:184,1,59.5000016415119,2|0,0:0|0:0,0:0:0:0:
80,120,65287,1,2,0:0:0:0:
120,56,65491,2,0,L|184:56,1,59.5000016415119,0|2,0:0|0:0,0:0:0:0:
320,56,66103,5,2,0:0:0:0:
392,64,66307,2,0,L|456:80,1,59.5000016415119,0|2,0:0|0:0,0:0:0:0:
496,136,66715,2,0,L|432:152,1,59.5000016415119,0|2,0:0|0:0,0:0:0:0:
368,168,67123,1,0,0:0:0:0:
368,168,67328,1,2,0:0:0:0:
224,208,67736,5,2,0:0:0:0:
152,208,67940,2,0,L|88:224,1,59.5000016415119,0|2,0:0|0:0,0:0:0:0:
128,288,68348,2,0,L|192:272,1,59.5000016415119,0|2,0:0|0:0,0:0:0:0:
256,256,68756,1,0,0:0:0:0:
312,208,68960,1,2,0:0:0:0:
352,144,69164,6,2,P|368:88|360:32,1,89.2500024622678,4|0,0:0|0:0,0:0:0:0:
264,32,69777,1,2,0:0:0:0:
152,120,70185,1,2,0:0:0:0:
96,168,70389,1,2,0:0:0:0:
152,216,70593,1,2,0:0:0:0:
208,168,70797,6,0,P|256:144|344:144,1,119.000003283024,4|0,0:0|0:0,0:0:0:0:
224,256,71613,2,0,P|176:280|88:280,1,119.000003283024
56,240,72225,1,0,0:0:0:0:
88,176,72430,2,0,P|136:152|224:152,1,119.000003283024,4|0,0:0|0:0,0:0:0:0:
272,168,73042,2,0,L|328:192,1,59.5000016415119
464,304,73858,1,0,0:0:0:0:
392,312,74062,6,0,P|328:312|272:288,1,119.000003283024,4|0,0:0|0:0,0:0:0:0:
208,256,74674,1,0,0:0:0:0:
144,216,74879,2,0,P|88:194|29:195,1,119.000003283024
0,264,75491,1,0,0:0:0:0:
48,320,75695,2,0,P|103:341|162:340,1,119.000003283024,4|0,0:0|0:0,0:0:0:0:
296,304,76511,6,0,L|376:264,1,89.2500024622678,2|2,0:0|0:0,0:0:0:0:
432,192,77123,1,2,0:0:0:0:
408,120,77328,2,0,P|368:80|304:64,1,119.000003283024,6|0,0:0|0:0,0:0:0:0:
176,40,78144,2,0,P|120:40|64:64,1,89.2500024622678,2|2,0:0|0:0,0:0:0:0:
32,128,78756,1,2,0:0:0:0:
32,128,78960,6,0,P|88:128|144:104,1,89.2500024622678,6|0,0:0|0:0,0:0:0:0:
224,112,79572,2,0,L|288:112,1,59.5000016415119
456,176,80389,1,0,0:0:0:0:
456,176,80593,6,0,L|376:216,1,89.2500024622678,4|0,0:0|0:0,0:0:0:0:
288,256,81205,1,0,0:0:0:0:
224,224,81409,2,0,L|168:192,1,59.5000016415119
112,152,81817,2,0,L|56:184,1,59.5000016415119
32,248,82225,5,4,0:0:0:0:
112,320,82532,1,0,0:0:0:0:
216,296,82838,1,0,0:0:0:0:
216,296,83042,1,0,0:0:0:0:
320,320,83348,1,0,0:0:0:0:
400,248,83654,1,0,0:0:0:0:
400,248,83858,5,2,0:0:0:0:
448,152,84164,1,2,0:0:0:0:
400,56,84470,1,2,0:0:0:0:
216,104,85083,1,0,0:0:0:0:
200,112,85185,1,0,0:0:0:0:
184,120,85287,1,0,0:0:0:0:
168,128,85389,1,0,0:0:0:0:
152,136,85491,6,0,P|104:168|48:232,1,119.000003283024,4|0,0:0|0:0,0:0:0:0:
56,288,86103,1,0,0:0:0:0:
112,336,86307,2,0,P|176:328|216:304,1,89.2500024622678,4|0,0:0|0:0,0:0:0:0:
264,232,86919,1,0,0:0:0:0:
264,232,87123,6,0,P|312:176|376:152,1,119.000003283024,4|0,0:0|0:0,0:0:0:0:
424,136,87736,1,0,0:0:0:0:
472,192,87940,2,0,P|472:240|440:296,1,89.2500024622678,4|0,0:0|0:0,0:0:0:0:
360,336,88552,1,0,0:0:0:0:
360,336,88756,6,0,P|288:320|248:280,1,119.000003283024,4|0,0:0|0:0,0:0:0:0:
224,224,89368,1,0,0:0:0:0:
200,152,89572,1,6,0:0:0:0:
128,72,89879,1,2,0:0:0:0:
80,168,90185,1,2,0:0:0:0:
80,168,90389,6,2,L|48:256,1,89.2500024622678,4|0,0:0|0:0,0:0:0:0:
80,344,91001,2,0,P|136:272|232:256,1,178.500004924536,2|0,0:0|0:0,0:0:0:0:
296,248,91817,1,0,0:0:0:0:
312,240,91919,1,0,0:0:0:0:
328,232,92021,6,0,P|352:160|328:120,1,119.000003283024,4|0,0:0|0:0,0:0:0:0:
280,176,92634,1,0,0:0:0:0:
264,168,92736,1,0,0:0:0:0:
248,160,92838,2,0,P|224:88|248:48,1,119.000003283024,4|0,0:0|0:0,0:0:0:0:
296,104,93450,1,0,0:0:0:0:
312,96,93552,1,0,0:0:0:0:
328,88,93654,6,0,P|376:64|448:64,1,119.000003283024,4|0,0:0|0:0,0:0:0:0:
496,120,94266,1,0,0:0:0:0:
504,136,94368,1,0,0:0:0:0:
496,152,94470,2,0,P|456:184|376:200,1,119.000003283024,4|0,0:0|0:0,0:0:0:0:
320,208,95083,1,0,0:0:0:0:
248,224,95287,6,0,P|192:240|160:264,1,89.2500024622678,4|0,0:0|0:0,0:0:0:0:
96,336,95899,1,0,0:0:0:0:
168,352,96103,1,4,0:0:0:0:
240,352,96307,1,0,0:0:0:0:
312,336,96511,1,0,0:0:0:0:
360,280,96715,1,0,0:0:0:0:
376,208,96919,6,0,P|368:160|328:104,1,119.000003283024,4|0,0:0|0:0,0:0:0:0:
256,80,97532,1,0,0:0:0:0:
184,104,97736,2,0,P|152:136|144:216,1,119.000003283024,4|0,0:0|0:0,0:0:0:0:
184,264,98348,1,0,0:0:0:0:
248,296,98552,6,0,P|288:304|384:288,1,119.000003283024,4|0,0:0|0:0,0:0:0:0:
400,232,99164,1,0,0:0:0:0:
368,168,99368,2,0,P|312:144|272:152,1,89.2500024622678,4|0,0:0|0:0,0:0:0:0:
192,200,99981,1,0,0:0:0:0:
192,200,100185,6,0,P|128:224|64:224,1,119.000003283024,4|0,0:0|0:0,0:0:0:0:
24,176,100797,1,0,0:0:0:0:
72,120,101001,2,0,P|112:96|168:96,1,89.2500024622678,4|0,0:0|0:0,0:0:0:0:
264,112,101613,1,0,0:0:0:0:
264,112,101817,6,0,P|312:136|368:200,1,119.000003283024,4|0,0:0|0:0,0:0:0:0:
400,240,102430,1,0,0:0:0:0:
416,312,102634,1,6,0:0:0:0:
304,336,102940,1,2,0:0:0:0:
192,312,103246,1,2,0:0:0:0:
192,312,103450,6,2,P|128:264|120:232,1,89.2500024622678,4|0,0:0|0:0,0:0:0:0:
112,152,104062,2,0,P|128:88|216:24,1,178.500004924536,2|0,0:0|0:0,0:0:0:0:
288,40,104879,1,0,0:0:0:0:
304,48,104981,1,0,0:0:0:0:
320,56,105083,6,0,P|368:104|392:176,1,119.000003283024,4|0,0:0|0:0,0:0:0:0:
392,224,105695,2,0,P|384:264|320:320,1,119.000003283024
264,352,106307,1,0,0:0:0:0:
200,320,106511,1,0,0:0:0:0:
264,280,106715,6,0,P|280:264|288:200,1,89.2500024622678,4|0,0:0|0:0,0:0:0:0:
240,112,107328,2,0,P|192:184|200:224,2,119.000003283024,0|0|0,0:0|0:0|0:0,0:0:0:0:
304,72,108348,1,4,0:0:0:0:
408,48,108654,1,0,0:0:0:0:
384,152,108960,2,0,P|408:192|328:280,1,178.500004924536
336,208,109777,1,0,0:0:0:0:
336,208,109981,6,0,P|280:232|344:352,1,238.000006566048,4|0,0:0|0:0,0:0:0:0:
408,328,111001,1,0,0:0:0:0:
456,272,111205,1,0,0:0:0:0:
464,256,111307,1,0,0:0:0:0:
472,240,111409,1,0,0:0:0:0:
464,224,111511,1,0,0:0:0:0:
456,208,111613,6,0,P|424:168|344:144,1,119.000003283024,4|0,0:0|0:0,0:0:0:0:
288,144,112225,2,0,P|208:128|160:96,1,119.000003283024
120,64,112838,1,0,0:0:0:0:
72,160,113042,1,0,0:0:0:0:
112,256,113246,6,0,P|144:288|240:312,1,119.000003283024,4|0,0:0|0:0,0:0:0:0:
280,288,113858,1,0,0:0:0:0:
344,256,114062,1,2,0:0:0:0:
448,224,114368,1,2,0:0:0:0:
368,152,114674,1,2,0:0:0:0:
256,192,114879,12,0,118144,0:0:0:0:
304,192,119777,5,2,0:0:0:0:
160,192,120083,1,2,0:0:0:0:
232,72,120389,2,0,L|232:192,1,119.000003283024,2|0,0:0|0:0,0:0:0:0:
232,208,120899,1,0,0:0:0:0:
232,224,121001,1,0,0:0:0:0:
344,312,121409,5,4,0:0:0:0:
440,256,121715,1,0,0:0:0:0:
344,200,122021,1,0,0:0:0:0:
280,160,122225,1,0,0:0:0:0:
216,200,122430,2,0,L|152:232,2,59.5000016415119,0|0|0,0:0|0:0|0:0,0:0:0:0:
280,160,123042,6,0,P|344:112|368:56,1,119.000003283024,6|2,0:0|0:0,0:0:0:0:
280,80,123654,1,0,0:0:0:0:
280,0,123858,2,0,P|216:48|192:104,1,119.000003283024,2|2,0:0|0:0,0:0:0:0:
192,152,124470,1,0,0:0:0:0:
192,168,124572,1,0,0:0:0:0:
192,184,124674,6,0,P|232:232|280:248,1,89.2500024622678,4|0,0:0|0:0,0:0:0:0:
360,280,125287,2,0,P|432:280|488:240,1,119.000003283024
480,248,125797,1,0,0:0:0:0:
488,240,125899,1,0,0:0:0:0:
496,168,126103,1,0,0:0:0:0:
480,96,126307,6,0,P|456:48|400:24,1,89.2500024622678,6|2,0:0|0:0,0:0:0:0:
320,32,126919,2,0,L|248:40,1,59.5000016415119,2|2,0:0|0:0,0:0:0:0:
192,64,127328,1,2,0:0:0:0:
176,72,127430,1,0,0:0:0:0:
160,80,127532,2,0,L|96:112,1,59.5000016415119,2|0,0:0|0:0,0:0:0:0:
64,168,127940,6,0,P|40:208|40:272,1,89.2500024622678,4|0,0:0|0:0,0:0:0:0:
88,344,128552,2,0,P|128:264|176:256,1,119.000003283024
160,328,129164,1,0,0:0:0:0:
232,344,129368,1,0,0:0:0:0:
248,352,129470,1,0,0:0:0:0:
264,344,129572,6,0,P|312:304|384:280,1,119.000003283024,6|2,0:0|0:0,0:0:0:0:
432,264,130185,1,0,0:0:0:0:
496,232,130389,2,0,P|512:176|496:112,1,119.000003283024,2|2,0:0|0:0,0:0:0:0:
440,64,131001,1,0,0:0:0:0:
424,56,131103,1,0,0:0:0:0:
408,48,131205,6,0,P|336:40|280:56,1,119.000003283024,4|0,0:0|0:0,0:0:0:0:
232,96,131817,2,0,P|184:128|104:152,1,119.000003283024
56,136,132430,1,0,0:0:0:0:
24,72,132634,1,0,0:0:0:0:
24,72,132838,6,0,P|80:40|120:40,2,89.2500024622678,6|2|2,0:0|0:0|0:0,0:0:0:0:
128,104,133756,2,0,P|72:136|32:136,1,89.2500024622678,2|0,0:0|0:0,0:0:0:0:
64,208,134266,1,0,0:0:0:0:
80,216,134368,1,0,0:0:0:0:
96,208,134470,5,0,0:0:0:0:
168,240,134674,2,0,L|224:264,1,59.5000016415119,2|0,0:0|0:0,0:0:0:0:
240,192,135083,2,0,L|304:224,1,59.5000016415119,2|0,0:0|0:0,0:0:0:0:
336,280,135491,1,2,0:0:0:0:
368,216,135695,2,0,L|432:248,1,59.5000016415119,0|2,0:0|0:0,0:0:0:0:
336,120,136307,5,2,0:0:0:0:
288,56,136511,2,0,L|224:88,1,59.5000016415119,0|2,0:0|0:0,0:0:0:0:
176,120,136919,2,0,L|112:152,1,59.5000016415119,0|2,0:0|0:0,0:0:0:0:
64,184,137328,1,0,0:0:0:0:
64,184,137532,1,2,0:0:0:0:
256,224,137940,5,2,0:0:0:0:
288,288,138144,2,0,L|360:312,1,59.5000016415119,0|2,0:0|0:0,0:0:0:0:
400,264,138552,2,0,L|472:288,1,59.5000016415119,0|2,0:0|0:0,0:0:0:0:
512,240,138960,1,0,0:0:0:0:
464,184,139164,1,2,0:0:0:0:
408,136,139368,6,2,L|320:80,1,89.2500024622678,4|0,0:0|0:0,0:0:0:0:
360,192,139981,2,2,L|272:136,1,89.2500024622678
192,88,140593,1,2,0:0:0:0:
128,56,140797,1,2,0:0:0:0:
64,88,141001,5,0,0:0:0:0:
120,136,141205,2,0,L|184:168,1,59.5000016415119,2|0,0:0|0:0,0:0:0:0:
120,216,141613,2,0,L|184:248,1,59.5000016415119,2|0,0:0|0:0,0:0:0:0:
232,200,142021,1,2,0:0:0:0:
240,272,142225,2,0,L|304:304,1,59.5000016415119,0|2,0:0|0:0,0:0:0:0:
424,224,142838,5,2,0:0:0:0:
376,168,143042,2,0,L|312:136,1,59.5000016415119,0|2,0:0|0:0,0:0:0:0:
376,88,143450,2,0,L|312:56,1,59.5000016415119,0|2,0:0|0:0,0:0:0:0:
264,104,143858,1,0,0:0:0:0:
264,104,144062,1,2,0:0:0:0:
112,104,144470,5,2,0:0:0:0:
144,168,144674,2,0,L|208:200,1,59.5000016415119,0|2,0:0|0:0,0:0:0:0:
144,248,145083,2,0,L|80:216,1,59.5000016415119,0|2,0:0|0:0,0:0:0:0:
32,176,145491,1,0,0:0:0:0:
16,104,145695,1,2,0:0:0:0:
40,32,145899,6,2,L|136:32,1,89.2500024622678,4|0,0:0|0:0,0:0:0:0:
232,64,146511,2,2,L|296:64,1,59.5000016415119
360,96,146919,1,2,0:0:0:0:
424,136,147123,1,2,0:0:0:0:
464,200,147328,1,0,0:0:0:0:
472,216,147430,1,0,0:0:0:0:
480,232,147532,6,0,P|488:288|480:360,1,119.000003283024,4|0,0:0|0:0,0:0:0:0:
416,320,148144,1,0,0:0:0:0:
352,352,148348,2,0,P|346:292|354:234,1,119.000003283024
296,280,148960,1,0,0:0:0:0:
240,232,149164,6,0,P|248:290|242:349,1,119.000003283024,4|0,0:0|0:0,0:0:0:0:
192,296,149777,1,0,0:0:0:0:
144,352,149981,2,0,P|138:292|146:234,1,119.000003283024
192,168,150593,1,0,0:0:0:0:
200,152,150695,1,0,0:0:0:0:
208,136,150797,6,0,P|248:88|320:64,1,119.000003283024,4|0,0:0|0:0,0:0:0:0:
280,136,151409,1,0,0:0:0:0:
352,136,151613,2,0,P|312:184|240:208,1,119.000003283024
192,232,152225,1,0,0:0:0:0:
248,280,152430,2,0,P|168:304|128:272,1,119.000003283024,4|0,0:0|0:0,0:0:0:0:
104,224,153042,1,0,0:0:0:0:
96,152,153246,5,2,0:0:0:0:
176,80,153552,1,2,0:0:0:0:
200,184,153858,1,0,0:0:0:0:
200,184,154062,1,6,0:0:0:0:
304,216,154368,1,2,0:0:0:0:
408,184,154674,1,2,0:0:0:0:
408,184,154879,6,2,P|456:144|496:144,1,89.2500024622678
488,248,155491,1,0,0:0:0:0:
488,248,155695,2,0,P|440:288|400:288,1,89.2500024622678,4|0,0:0|0:0,0:0:0:0:
312,264,156307,1,0,0:0:0:0:
264,320,156511,2,0,P|240:248|272:200,1,119.000003283024
304,152,157123,1,0,0:0:0:0:
312,136,157225,1,0,0:0:0:0:
320,120,157328,6,0,P|368:64|400:56,1,89.2500024622678,4|0,0:0|0:0,0:0:0:0:
416,160,157940,1,0,0:0:0:0:
448,224,158144,2,0,L|480:288,1,59.5000016415119
408,304,158552,2,0,L|376:240,1,59.5000016415119
328,200,158960,6,0,P|288:176|240:192,2,89.2500024622678,4|0|0,0:0|0:0|0:0,0:0:0:0:
280,248,159777,2,0,P|237:256|200:233,2,89.2500024622678,0|0|0,0:0|0:0|0:0,0:0:0:0:
352,264,160593,2,0,L|416:304,1,59.5000016415119,4|0,0:0|0:0,0:0:0:0:
472,264,161001,1,0,0:0:0:0:
480,248,161103,1,0,0:0:0:0:
488,232,161205,1,0,0:0:0:0:
496,216,161307,1,0,0:0:0:0:
504,200,161409,5,0,0:0:0:0:
496,184,161511,1,0,0:0:0:0:
488,168,161613,1,0,0:0:0:0:
480,152,161715,1,0,0:0:0:0:
472,136,161817,2,2,L|448:80,1,59.5000016415119
384,40,162225,6,0,P|304:48|256:80,1,119.000003283024,4|0,0:0|0:0,0:0:0:0:
224,120,162838,1,0,0:0:0:0:
152,104,163042,2,0,P|104:104|48:128,1,89.2500024622678,4|0,0:0|0:0,0:0:0:0:
24,216,163654,1,0,0:0:0:0:
24,288,163858,6,0,P|80:264|96:200,1,119.000003283024,4|0,0:0|0:0,0:0:0:0:
128,144,164470,1,0,0:0:0:0:
176,200,164674,2,0,P|192:248|216:280,1,89.2500024622678,4|0,0:0|0:0,0:0:0:0:
312,328,165287,1,0,0:0:0:0:
328,336,165389,1,0,0:0:0:0:
344,344,165491,6,0,P|408:360|472:328,1,119.000003283024,4|0,0:0|0:0,0:0:0:0:
480,272,166103,1,0,0:0:0:0:
464,200,166307,2,0,L|424:120,1,89.2500024622678,4|2,0:0|0:0,0:0:0:0:
344,48,166919,1,2,0:0:0:0:
296,104,167123,6,0,L|200:136,1,89.2500024622678,6|2,0:0|0:0,0:0:0:0:
104,168,167736,2,0,P|64:216|72:288,1,119.000003283024,2|0,0:0|0:0,0:0:0:0:
136,240,168348,1,0,0:0:0:0:
208,208,168552,1,0,0:0:0:0:
224,200,168654,1,0,0:0:0:0:
240,192,168756,6,0,P|312:192|344:248,1,119.000003283024,4|0,0:0|0:0,0:0:0:0:
272,256,169368,1,0,0:0:0:0:
264,272,169470,1,0,0:0:0:0:
256,288,169572,2,0,P|312:328|368:328,1,119.000003283024,4|0,0:0|0:0,0:0:0:0:
416,280,170185,1,0,0:0:0:0:
424,264,170287,1,0,0:0:0:0:
432,248,170389,6,0,P|448:160|432:112,1,119.000003283024,4|0,0:0|0:0,0:0:0:0:
392,72,171001,1,0,0:0:0:0:
376,64,171103,1,0,0:0:0:0:
360,56,171205,2,0,P|280:48|240:64,1,119.000003283024,4|0,0:0|0:0,0:0:0:0:
184,104,171817,1,0,0:0:0:0:
176,176,172021,6,2,P|192:232|240:240,1,89.2500024622678,6|2,0:0|0:0,0:0:0:0:
280,160,172634,2,0,P|316:183|320:256,1,119.000003283024,2|2,0:0|0:0,0:0:0:0:
312,272,173144,1,0,0:0:0:0:
304,288,173246,1,2,0:0:0:0:
240,328,173450,1,2,0:0:0:0:
176,288,173654,6,0,P|144:232|136:176,1,119.000003283024,6|0,0:0|0:0,0:0:0:0:
152,104,174266,1,0,0:0:0:0:
216,64,174470,2,0,P|304:48|336:72,1,119.000003283024,4|0,0:0|0:0,0:0:0:0:
392,96,175083,1,0,0:0:0:0:
408,104,175185,1,0,0:0:0:0:
424,112,175287,6,0,P|456:144|472:232,1,119.000003283024,4|0,0:0|0:0,0:0:0:0:
464,288,175899,1,0,0:0:0:0:
400,240,176103,2,0,P|384:176|352:152,1,89.2500024622678,4|0,0:0|0:0,0:0:0:0:
272,112,176715,1,0,0:0:0:0:
224,56,176919,6,0,P|200:112|224:168,1,119.000003283024,4|0,0:0|0:0,0:0:0:0:
280,208,177532,1,0,0:0:0:0:
344,248,177736,2,0,P|304:280|256:280,1,89.2500024622678,4|0,0:0|0:0,0:0:0:0:
168,240,178348,1,0,0:0:0:0:
104,200,178552,6,0,P|128:176|208:176,1,119.000003283024,4|0,0:0|0:0,0:0:0:0:
280,208,179164,1,0,0:0:0:0:
352,184,179368,2,2,P|400:144|408:104,2,89.2500024622678,4|0|0,0:0|0:0|0:0,0:0:0:0:
336,112,180185,2,2,P|288:152|280:192,2,89.2500024622678,0|0|0,0:0|0:0|0:0,0:0:0:0:
392,64,181001,6,0,P|352:40|280:64,1,119.000003283024
248,120,181613,1,0,0:0:0:0:
240,136,181715,1,0,0:0:0:0:
232,152,181817,6,0,P|168:176|112:144,1,119.000003283024,4|0,0:0|0:0,0:0:0:0:
176,104,182430,2,0,P|104:88|56:128,1,119.000003283024
40,176,183042,1,0,0:0:0:0:
88,232,183246,1,0,0:0:0:0:
104,240,183348,1,0,0:0:0:0:
120,248,183450,6,0,P|184:256|240:216,1,119.000003283024,4|0,0:0|0:0,0:0:0:0:
280,176,184062,2,0,L|328:128,1,59.5000016415119
296,64,184470,2,0,P|344:64|392:112,1,119.000003283024
416,184,185083,2,0,L|440:272,1,89.2500024622678,4|0,0:0|0:0,0:0:0:0:
344,216,185695,6,0,L|264:248,1,59.5000016415119
224,272,186103,1,0,0:0:0:0:
160,240,186307,2,0,L|88:208,1,59.5000016415119
72,144,186715,1,4,0:0:0:0:
152,144,186919,6,0,L|216:176,1,59.5000016415119
272,144,187328,1,0,0:0:0:0:
336,112,187532,2,0,L|400:144,1,59.5000016415119
448,184,187940,1,0,0:0:0:0:
464,192,188042,1,0,0:0:0:0:
480,200,188144,1,0,0:0:0:0:
488,216,188246,1,0,0:0:0:0:
496,232,188348,6,0,P|496:296|472:360,1,119.000003283024,4|0,0:0|0:0,0:0:0:0:
408,360,188960,1,0,0:0:0:0:
352,312,189164,1,0,0:0:0:0:
280,296,189368,1,0,0:0:0:0:
184,248,189572,1,0,0:0:0:0:
136,152,189777,1,0,0:0:0:0:
184,56,189981,6,0,P|280:48|320:72,1,119.000003283024,4|0,0:0|0:0,0:0:0:0:
352,104,190593,1,0,0:0:0:0:
384,168,190797,1,2,0:0:0:0:
416,296,191103,1,2,0:0:0:0:
288,264,191409,1,2,0:0:0:0:
288,264,191613,6,0,P|232:240|200:176,1,119.000003283024,6|0,0:0|0:0,0:0:0:0:
176,120,192225,1,0,0:0:0:0:
136,56,192430,2,0,L|88:8,1,59.5000016415119
64,80,192838,2,0,L|16:128,1,59.5000016415119
0,192,193246,6,0,P|56:176|104:200,2,89.2500024622678,4|0|0,0:0|0:0|0:0,0:0:0:0:
48,248,194062,1,0,0:0:0:0:
96,304,194266,1,0,0:0:0:0:
112,312,194368,1,0,0:0:0:0:
128,304,194470,1,0,0:0:0:0:
184,256,194674,1,0,0:0:0:0:
176,184,194879,6,0,P|240:208|256:248,2,89.2500024622678,4|0|0,0:0|0:0|0:0,0:0:0:0:
120,136,195695,1,0,0:0:0:0:
184,96,195899,1,0,0:0:0:0:
256,72,196103,1,0,0:0:0:0:
328,96,196307,2,0,L|392:128,1,59.5000016415119,0|4,0:0|0:0,0:0:0:0:
440,168,196715,5,0,0:0:0:0:
480,232,196919,1,0,0:0:0:0:
440,296,197123,2,0,L|416:352,1,59.5000016415119
344,368,197532,1,0,0:0:0:0:
272,344,197736,1,0,0:0:0:0:
200,320,197940,1,0,0:0:0:0:
184,312,198042,1,0,0:0:0:0:
168,304,198144,6,2,L|128:224,1,89.2500024622678,4|0,0:0|0:0,0:0:0:0:
168,96,198756,2,2,L|216:192,1,89.2500024622678
312,264,199368,2,2,L|408:216,1,89.2500024622678
256,232,199981,2,2,L|176:272,1,89.2500024622678
48,288,200593,1,0,0:0:0:0:
40,272,200695,1,0,0:0:0:0:
32,256,200797,1,0,0:0:0:0:
40,240,200899,1,0,0:0:0:0:
48,224,201001,1,0,0:0:0:0:
40,208,201103,1,0,0:0:0:0:
32,192,201205,6,0,L|0:128,1,59.5000016415119,4|0,0:0|0:0,0:0:0:0:
16,64,201613,1,0,0:0:0:0:
80,32,201817,1,0,0:0:0:0:
144,64,202021,2,0,L|208:96,1,59.5000016415119
264,128,202430,5,0,0:0:0:0:
328,168,202634,1,0,0:0:0:0:
392,128,202838,1,0,0:0:0:0:
328,88,203042,1,4,0:0:0:0:
328,168,203246,1,0,0:0:0:0:
328,184,203348,1,0,0:0:0:0:
328,200,203450,1,0,0:0:0:0:
328,272,203654,6,0,P|320:312|264:368,1,119.000003283024
192,368,204266,1,0,0:0:0:0:
120,344,204470,1,0,0:0:0:0:
104,336,204572,1,0,0:0:0:0:
96,320,204674,6,0,L|80:256,1,59.5000016415119,4|0,0:0|0:0,0:0:0:0:
144,208,205083,2,0,L|160:272,1,59.5000016415119
240,272,205491,2,0,L|224:208,1,59.5000016415119,0|0,0:0|0:0,0:0:0:0:
296,168,205899,2,0,L|312:232,1,59.5000016415119
392,232,206307,2,0,L|376:168,1,59.5000016415119,4|0,0:0|0:0,0:0:0:0:
360,104,206715,6,0,L|344:40,1,59.5000016415119
264,40,207123,2,0,L|280:104,1,59.5000016415119
208,144,207532,2,0,L|192:80,1,59.5000016415119
136,40,207940,1,4,0:0:0:0:
120,32,208042,1,0,0:0:0:0:
104,40,208144,1,0,0:0:0:0:
32,80,208348,1,0,0:0:0:0:
96,128,208552,5,0,0:0:0:0:
112,136,208654,1,0,0:0:0:0:
128,128,208756,1,0,0:0:0:0:
200,88,208960,2,0,L|272:88,1,59.5000016415119
336,88,209368,1,0,0:0:0:0:
336,88,209572,6,0,L|416:88,1,59.5000016415119,4|0,0:0|0:0,0:0:0:0:
432,160,209981,2,0,L|352:160,1,59.5000016415119
336,232,210389,2,0,L|400:232,1,59.5000016415119
464,256,210797,1,0,0:0:0:0:
472,272,210899,1,0,0:0:0:0:
480,288,211001,1,0,0:0:0:0:
472,304,211103,1,0,0:0:0:0:
464,320,211205,6,0,P|408:352|352:360,1,119.000003283024,4|0,0:0|0:0,0:0:0:0:
296,312,211817,1,0,0:0:0:0:
240,360,212021,2,0,P|181:350|130:319,1,119.000003283024,4|0,0:0|0:0,0:0:0:0:
80,272,212634,1,0,0:0:0:0:
128,224,212838,2,0,P|184:192|240:184,1,119.000003283024,4|0,0:0|0:0,0:0:0:0:
312,192,213450,1,0,0:0:0:0:
376,224,213654,5,4,0:0:0:0:
392,232,213756,1,0,0:0:0:0:
408,240,213858,1,0,0:0:0:0:
424,248,213960,1,0,0:0:0:0:
440,256,214062,1,4,0:0:0:0:
488,312,214266,1,0,0:0:0:0:
416,336,214470,6,0,L|344:304,1,70.0000005960464,4|0,0:0|0:0,0:0:0:0:
288,264,215083,1,0,0:0:0:0:
288,336,215287,2,0,L|224:304,1,70.0000005960464
176,248,215899,1,0,0:0:0:0:
160,320,216103,6,0,L|96:288,1,70.0000005960464,4|0,0:0|0:0,0:0:0:0:
32,256,216715,1,0,0:0:0:0:
32,256,216817,1,0,0:0:0:0:
32,256,216919,2,0,P|16:200|24:176,1,70.0000005960464
88,208,217532,1,0,0:0:0:0:
64,136,217736,6,0,P|96:128|136:152,1,70.0000005960464,4|0,0:0|0:0,0:0:0:0:
192,104,218348,1,0,0:0:0:0:
200,176,218552,2,0,P|240:192|272:184,1,70.0000005960464
336,208,219164,1,0,0:0:0:0:
320,136,219368,2,0,L|352:72,1,70.0000005960464,4|0,0:0|0:0,0:0:0:0:
416,104,219981,1,0,0:0:0:0:
448,40,220185,6,0,L|480:32|512:24,2,52.5000004470348,0|0|0,0:0|0:0|0:0,0:0:0:0:
376,32,221001,2,0,L|304:32,1,70.0000005960464,4|0,0:0|0:0,0:0:0:0:
232,40,221613,1,0,0:0:0:0:
160,48,221817,2,0,L|96:48,2,52.5000004470348,0|0|0,0:0|0:0|0:0,0:0:0:0:
216,96,222634,6,0,L|288:96,1,70.0000005960464,4|0,0:0|0:0,0:0:0:0:
360,96,223246,1,0,0:0:0:0:
376,96,223348,1,0,0:0:0:0:
392,96,223450,2,0,L|464:96,1,70.0000005960464
496,160,224062,1,0,0:0:0:0:
512,232,224266,6,0,L|512:296,1,52.5000004470348,4|0,0:0|0:0,0:0:0:0:
464,344,224879,1,0,0:0:0:0:
392,320,225083,1,0,0:0:0:0:
320,288,225287,1,0,0:0:0:0:
248,320,225491,1,0,0:0:0:0:
176,288,225695,1,0,0:0:0:0:
104,320,225899,6,0,P|112:240|128:224,1,89.2500024622678,4|0,0:0|0:0,0:0:0:0:
200,160,226511,1,0,0:0:0:0:
200,160,226715,2,0,P|256:128|288:128,1,89.2500024622678,4|0,0:0|0:0,0:0:0:0:
384,168,227328,1,0,0:0:0:0:
384,168,227532,6,0,P|416:224|416:272,1,89.2500024622678,4|0,0:0|0:0,0:0:0:0:
312,296,228144,1,0,0:0:0:0:
344,232,228348,2,0,L|464:184,1,119.000003283024,4|0,0:0|0:0,0:0:0:0:
480,120,228960,1,0,0:0:0:0:
456,48,229164,6,2,P|416:32|376:32,1,59.5000016415119,4|0,0:0|0:0,0:0:0:0:
360,88,229572,2,2,P|330:82|303:70,1,59.5000016415119
232,48,229981,5,0,0:0:0:0:
216,40,230083,1,0,0:0:0:0:
200,48,230185,1,0,0:0:0:0:
184,56,230287,1,0,0:0:0:0:
168,48,230389,1,0,0:0:0:0:
152,40,230491,1,0,0:0:0:0:
136,48,230593,1,0,0:0:0:0:
120,56,230695,1,0,0:0:0:0:
104,48,230797,6,0,P|48:32|-16:56,1,119.000003283024,4|0,0:0|0:0,0:0:0:0:
32,112,231409,1,0,0:0:0:0:
104,128,231613,2,0,P|72:176|16:184,2,89.2500024622678,2|2|2,0:0|0:0|0:0,0:0:0:0:
176,96,232430,6,0,P|168:176|136:216,1,119.000003283024,4|0,0:0|0:0,0:0:0:0:
88,256,233042,1,0,0:0:0:0:
160,280,233246,2,0,P|224:288|264:320,1,89.2500024622678,4|0,0:0|0:0,0:0:0:0:
344,344,233858,1,0,0:0:0:0:
416,328,234062,6,0,P|440:288|432:200,1,119.000003283024,4|0,0:0|0:0,0:0:0:0:
400,152,234674,1,0,0:0:0:0:
336,104,234879,2,0,P|272:80|224:80,1,89.2500024622678,4|0,0:0|0:0,0:0:0:0:
144,104,235491,1,0,0:0:0:0:
72,128,235695,6,2,P|40:168|32:224,1,89.2500024622678,4|0,0:0|0:0,0:0:0:0:
56,312,236307,2,0,P|88:336|168:344,1,119.000003283024,2|2,0:0|0:0,0:0:0:0:
240,320,236919,1,2,0:0:0:0:
312,280,237123,1,0,0:0:0:0:
328,272,237225,1,0,0:0:0:0:
344,264,237328,6,0,P|400:216|432:160,1,119.000003283024,4|0,0:0|0:0,0:0:0:0:
368,128,237940,1,0,0:0:0:0:
352,136,238042,1,0,0:0:0:0:
336,144,238145,2,0,P|280:192|248:248,1,119.000003283024,4|0,0:0|0:0,0:0:0:0:
192,272,238756,1,0,0:0:0:0:
176,264,238858,1,0,0:0:0:0:
160,256,238960,6,0,P|112:208|104:136,1,119.000003283024,4|0,0:0|0:0,0:0:0:0:
128,88,239572,1,0,0:0:0:0:
144,80,239674,1,0,0:0:0:0:
160,72,239777,2,0,P|240:48|280:56,1,119.000003283024,4|0,0:0|0:0,0:0:0:0:
344,88,240389,1,0,0:0:0:0:
408,56,240593,6,2,P|416:120|448:160,1,89.2500024622678,4|0,0:0|0:0,0:0:0:0:
488,232,241205,2,0,P|400:184|376:184,1,119.000003283024,2|0,0:0|0:0,0:0:0:0:
312,208,241817,1,0,0:0:0:0:
240,240,242021,1,0,0:0:0:0:
224,248,242123,1,0,0:0:0:0:
208,256,242225,6,0,P|136:280|80:272,1,119.000003283024,4|0,0:0|0:0,0:0:0:0:
40,224,242838,1,0,0:0:0:0:
80,160,243042,2,0,P|96:112|88:40,1,119.000003283024,4|0,0:0|0:0,0:0:0:0:
152,88,243654,1,0,0:0:0:0:
168,96,243756,1,0,0:0:0:0:
184,104,243858,6,0,P|240:104|280:56,1,119.000003283024,4|0,0:0|0:0,0:0:0:0:
208,32,244470,1,0,0:0:0:0:
208,32,244674,2,0,L|256:136,1,89.2500024622678,4|0,0:0|0:0,0:0:0:0:
296,216,245287,1,0,0:0:0:0:
368,192,245491,6,0,P|360:256|320:288,1,119.000003283024,4|0,0:0|0:0,0:0:0:0:
248,312,246103,1,0,0:0:0:0:
176,336,246307,2,0,P|104:344|72:320,1,89.2500024622678,4|0,0:0|0:0,0:0:0:0:
48,240,246919,1,0,0:0:0:0:
40,224,247021,1,0,0:0:0:0:
32,208,247123,6,0,P|80:184|120:104,1,119.000003283024,4|0,0:0|0:0,0:0:0:0:
152,64,247736,1,0,0:0:0:0:
192,128,247940,2,0,P|208:160|208:256,1,119.000003283024,4|0,0:0|0:0,0:0:0:0:
160,296,248552,1,0,0:0:0:0:
152,312,248654,1,0,0:0:0:0:
144,328,248756,6,2,P|96:352|40:336,1,89.2500024622678,4|2,0:0|0:0,0:0:0:0:
24,248,249368,2,2,P|64:192|64:136,1,119.000003283024,0|0,0:0|0:0,0:0:0:0:
40,72,249981,1,2,0:0:0:0:
104,24,250185,5,0,0:0:0:0:
120,32,250287,1,0,0:0:0:0:
136,40,250389,2,0,L|248:96,1,119.000003283024,4|0,0:0|0:0,0:0:0:0:
296,40,251001,2,0,P|320:88|280:160,1,119.000003283024
224,168,251613,1,0,0:0:0:0:
152,192,251817,1,0,0:0:0:0:
136,200,251919,1,0,0:0:0:0:
120,208,252021,6,2,P|64:280|64:296,1,89.2500024622678,4|0,0:0|0:0,0:0:0:0:
144,352,252634,2,2,P|216:328|264:336,1,119.000003283024
328,352,253246,1,2,0:0:0:0:
400,328,253450,1,0,0:0:0:0:
416,320,253552,1,0,0:0:0:0:
432,312,253654,6,0,P|464:272|480:200,1,119.000003283024,4|0,0:0|0:0,0:0:0:0:
440,144,254266,2,0,P|408:184|392:256,1,119.000003283024
344,304,254879,1,0,0:0:0:0:
280,336,255083,1,0,0:0:0:0:
216,304,255287,6,0,L|152:272,1,59.5000016415119,4|0,0:0|0:0,0:0:0:0:
208,216,255695,2,0,L|278:180,1,59.5000016415119,0|0,0:0|0:0,0:0:0:0:
216,128,256103,2,0,L|152:96,1,59.5000016415119,4|0,0:0|0:0,0:0:0:0:
208,40,256511,2,0,L|278:4,1,59.5000016415119,0|0,0:0|0:0,0:0:0:0:
280,8,256817,1,0,0:0:0:0:
296,8,256919,5,6,0:0:0:0:
400,112,257225,1,2,0:0:0:0:
512,208,257532,2,2,P|472:176|384:168,1,119.000003283024
336,200,258144,1,2,0:0:0:0:
280,256,258348,1,0,0:0:0:0:
272,272,258450,1,0,0:0:0:0:
264,288,258552,6,0,P|208:336|160:336,1,119.000003283024,4|0,0:0|0:0,0:0:0:0:
104,296,259164,1,0,0:0:0:0:
152,240,259368,1,0,0:0:0:0:
104,176,259572,1,0,0:0:0:0:
152,112,259777,1,0,0:0:0:0:
200,176,259981,1,0,0:0:0:0:
208,192,260083,1,0,0:0:0:0:
216,208,260185,6,0,P|264:264|328:288,1,119.000003283024,4|0,0:0|0:0,0:0:0:0:
376,288,260797,1,0,0:0:0:0:
368,216,261001,2,0,P|320:160|256:136,1,119.000003283024,4|0,0:0|0:0,0:0:0:0:
208,112,261613,1,0,0:0:0:0:
192,120,261715,1,0,0:0:0:0:
176,128,261817,6,0,P|136:160|104:224,1,119.000003283024,4|0,0:0|0:0,0:0:0:0:
120,296,262430,1,0,0:0:0:0:
192,264,262634,2,0,P|240:264|312:320,1,119.000003283024,4|0,0:0|0:0,0:0:0:0:
360,344,263246,1,0,0:0:0:0:
376,352,263348,1,0,0:0:0:0:
392,344,263450,6,0,P|448:320|512:336,1,119.000003283024,4|0,0:0|0:0,0:0:0:0:
464,272,264062,1,0,0:0:0:0:
504,216,264266,2,0,P|446:226|392:202,1,119.000003283024,4|0,0:0|0:0,0:0:0:0:
344,144,264879,1,0,0:0:0:0:
336,128,264981,1,0,0:0:0:0:
328,112,265083,6,2,P|312:64|312:16,1,89.2500024622678,6|2,0:0|0:0,0:0:0:0:
232,120,265695,2,2,L|152:120,1,59.5000016415119
120,176,266103,1,2,0:0:0:0:
176,224,266307,1,0,0:0:0:0:
192,232,266409,1,0,0:0:0:0:
208,240,266511,1,0,0:0:0:0:
224,248,266613,1,0,0:0:0:0:
240,256,266715,6,0,P|304:272|368:248,1,119.000003283024,4|0,0:0|0:0,0:0:0:0:
416,216,267328,1,0,0:0:0:0:
480,176,267532,2,0,P|440:144|376:152,1,119.000003283024,4|0,0:0|0:0,0:0:0:0:
416,216,268144,1,0,0:0:0:0:
416,216,268246,1,0,0:0:0:0:
416,216,268348,6,0,L|440:112,1,89.2500024622678,4|0,0:0|0:0,0:0:0:0:
416,24,268960,1,0,0:0:0:0:
480,56,269164,2,0,L|352:72,1,119.000003283024,4|0,0:0|0:0,0:0:0:0:
288,88,269777,1,0,0:0:0:0:
272,96,269879,1,0,0:0:0:0:
256,104,269981,6,0,P|200:176|192:216,1,119.000003283024,4|0,0:0|0:0,0:0:0:0:
272,200,270593,1,0,0:0:0:0:
352,192,270797,2,0,P|330:247|289:289,1,119.000003283024,4|0,0:0|0:0,0:0:0:0:
224,328,271409,1,0,0:0:0:0:
152,320,271613,6,0,P|176:272|240:256,1,119.000003283024,4|0,0:0|0:0,0:0:0:0:
224,328,272225,1,0,0:0:0:0:
224,328,272328,1,0,0:0:0:0:
224,328,272430,2,0,P|288:312|304:240,1,119.000003283024,4|0,0:0|0:0,0:0:0:0:
320,192,273042,1,0,0:0:0:0:
376,144,273246,6,0,L|248:144,1,119.000003283024,4|0,0:0|0:0,0:0:0:0:
184,152,273858,1,0,0:0:0:0:
144,216,274062,1,4,0:0:0:0:
112,136,274266,1,0,0:0:0:0:
72,232,274470,1,4,0:0:0:0:
40,120,274674,1,0,0:0:0:0:
0,248,274879,6,0,P|56:304|112:296,1,119.000003283024,4|0,0:0|0:0,0:0:0:0:
168,288,275491,1,0,0:0:0:0:
240,256,275695,2,2,L|336:208,1,89.2500024622678,4|0,0:0|0:0,0:0:0:0:
384,176,276307,1,2,0:0:0:0:
400,168,276409,1,0,0:0:0:0:
416,160,276511,1,2,0:0:0:0:
256,192,276613,12,0,279777,0:0:0:0:
