osu file format v13

[General]
AudioFilename: This Game (TV Size).mp3
AudioLeadIn: 0
PreviewTime: 54523
Countdown: 0
SampleSet: Soft
StackLeniency: 0.7
Mode: 3
LetterboxInBreaks: 0
SpecialStyle: 0
WidescreenStoryboard: 1

[Editor]
Bookmarks: 12074,31155,47686,77584,82788
DistanceSpacing: 0.8
BeatDivisor: 4
GridSize: 4
TimelineZoom: 1.4

[Metadata]
Title:This Game (TV Size)
TitleUnicode:This Game (TV Size)
Artist:Suzuki Konomi
ArtistUnicode:鈴木このみ
Creator:Abyssus-
Version:NM
Source:ノーゲーム・ノーライフ
Tags:No Game No Life , Nijigen-kun
BeatmapID:448411
BeatmapSetID:188083

[Difficulty]
HPDrainRate:7
CircleSize:4
OverallDifficulty:7
ApproachRate:5
SliderMultiplier:1.4
SliderTickRate:1

[Events]
//Background and Video events
0,0,"ngnl.jpg",0,0
//Break Periods
//Storyboard Layer 0 (Background)
//Storyboard Layer 1 (Fail)
//Storyboard Layer 2 (Pass)
//Storyboard Layer 3 (Foreground)
//Storyboard Sound Samples
//Background Colour Transformations
3,100,163,162,255

[TimingPoints]
-987,408.163265306122,4,2,0,15,1,0
7176,-100,4,2,0,20,0,0
54523,-100,4,2,0,20,0,1
74115,-100,4,2,0,20,0,0
85543,-133.333333333333,4,2,0,20,0,0
87176,-200,4,2,0,20,0,0

[HitObjects]
182,192,645,128,2,2278:0:0:0:0:
448,192,1666,1,0,0:0:0:0:
320,192,1870,1,0,0:0:0:0:
64,192,2074,1,0,0:0:0:0:
329,192,2278,128,2,3910:0:0:0:0:
448,192,2278,1,0,0:0:0:0:
448,192,3298,1,0,0:0:0:0:
192,192,3502,1,0,0:0:0:0:
448,192,3706,1,0,0:0:0:0:
109,192,3910,128,2,5543:0:0:0:0:
192,192,3910,1,0,0:0:0:0:
448,192,4115,1,0,0:0:0:0:
192,192,4319,1,0,0:0:0:0:
448,192,4523,1,0,0:0:0:0:
402,192,5543,128,2,7176:0:0:0:0:
192,192,5543,1,0,0:0:0:0:
320,192,5747,1,0,0:0:0:0:
64,192,5951,1,0,0:0:0:0:
64,192,6155,1,0,0:0:0:0:
36,192,7176,1,2,0:0:0:0:
182,192,7482,1,2,0:0:0:0:
320,192,7584,1,2,0:0:0:0:
475,192,7788,1,2,0:0:0:0:
192,192,7788,1,2,0:0:0:0:
36,192,8196,1,2,0:0:0:0:
192,192,8400,1,2,0:0:0:0:
320,192,8604,1,2,0:0:0:0:
182,192,8808,1,2,0:0:0:0:
320,192,9012,1,2,0:0:0:0:
448,192,9115,1,2,0:0:0:0:
402,192,9421,1,2,0:0:0:0:
192,192,9421,1,2,0:0:0:0:
109,192,9829,1,2,0:0:0:0:
182,192,10033,1,2,0:0:0:0:
256,192,10237,1,2,0:0:0:0:
448,192,10441,1,2,0:0:0:0:
329,192,10747,1,2,0:0:0:0:
192,192,10849,1,2,0:0:0:0:
320,192,11053,1,2,0:0:0:0:
109,192,11053,1,2,0:0:0:0:
182,192,11461,1,2,0:0:0:0:
402,192,11666,1,2,0:0:0:0:
109,192,11870,1,2,0:0:0:0:
329,192,12074,1,2,0:0:0:0:
192,192,12380,1,2,0:0:0:0:
448,192,12686,1,2,0:0:0:0:
182,192,13094,1,2,0:0:0:0:
320,192,13298,1,2,0:0:0:0:
182,192,14012,1,2,0:0:0:0:
329,192,14012,1,2,0:0:0:0:
256,192,14319,1,0,0:0:0:0:
329,192,14727,1,2,0:0:0:0:
182,192,14931,1,2,0:0:0:0:
109,192,15339,1,0,0:0:0:0:
402,192,15747,1,0,0:0:0:0:
109,192,15747,1,0,0:0:0:0:
182,192,16155,1,0,0:0:0:0:
320,192,16359,1,0,0:0:0:0:
402,192,16564,1,0,0:0:0:0:
109,192,16564,1,0,0:0:0:0:
329,192,16972,1,0,0:0:0:0:
402,192,17380,1,0,0:0:0:0:
109,192,17380,1,0,0:0:0:0:
182,192,17584,1,0,0:0:0:0:
182,192,17992,1,0,0:0:0:0:
402,192,18196,1,0,0:0:0:0:
109,192,18196,1,0,0:0:0:0:
329,192,18400,1,0,0:0:0:0:
402,192,18604,1,0,0:0:0:0:
109,192,18604,1,0,0:0:0:0:
402,192,18910,1,0,0:0:0:0:
109,192,18910,1,0,0:0:0:0:
402,192,19217,1,0,0:0:0:0:
109,192,19217,1,0,0:0:0:0:
329,192,19625,1,0,0:0:0:0:
192,192,19829,1,0,0:0:0:0:
109,192,20237,1,0,0:0:0:0:
329,192,20645,1,0,0:0:0:0:
182,192,20645,1,0,0:0:0:0:
36,192,20849,1,0,0:0:0:0:
36,192,21257,1,0,0:0:0:0:
182,192,21461,1,0,0:0:0:0:
329,192,21461,1,0,0:0:0:0:
329,192,21870,1,0,0:0:0:0:
475,192,21870,1,0,0:0:0:0:
109,192,22278,1,0,0:0:0:0:
475,192,22686,1,0,0:0:0:0:
329,192,22890,1,0,0:0:0:0:
192,192,23094,1,0,0:0:0:0:
64,192,23094,1,0,0:0:0:0:
192,192,23502,1,0,0:0:0:0:
475,192,23910,1,0,0:0:0:0:
329,192,23910,1,0,0:0:0:0:
182,192,24115,1,0,0:0:0:0:
329,192,24523,1,0,0:0:0:0:
36,192,24727,1,0,0:0:0:0:
182,192,24727,1,0,0:0:0:0:
329,192,24931,1,0,0:0:0:0:
109,192,25135,1,0,0:0:0:0:
448,192,25135,1,0,0:0:0:0:
182,192,25441,1,0,0:0:0:0:
329,192,25747,1,0,0:0:0:0:
402,192,26053,1,0,0:0:0:0:
329,192,26359,128,0,26768:0:0:0:0:
64,192,26359,1,0,0:0:0:0:
182,192,26768,128,0,28400:0:0:0:0:
475,192,27176,1,0,0:0:0:0:
475,192,27992,1,0,0:0:0:0:
109,192,28400,1,0,0:0:0:0:
320,192,28400,128,0,30033:0:0:0:0:
192,192,28808,1,0,0:0:0:0:
192,192,29625,1,0,0:0:0:0:
448,192,30033,1,0,0:0:0:0:
36,192,30033,128,0,31666:0:0:0:0:
329,192,30441,1,0,0:0:0:0:
448,192,31257,1,0,0:0:0:0:
329,192,31461,1,0,0:0:0:0:
182,192,31666,1,0,0:0:0:0:
182,192,31972,1,0,0:0:0:0:
329,192,31972,1,0,0:0:0:0:
329,192,32278,1,0,0:0:0:0:
182,192,32278,1,0,0:0:0:0:
109,192,32584,1,0,0:0:0:0:
402,192,32890,1,0,0:0:0:0:
36,192,33094,1,0,0:0:0:0:
402,192,33298,128,0,34931:0:0:0:0:
182,192,33706,1,0,0:0:0:0:
109,192,34115,1,0,0:0:0:0:
256,192,34319,1,0,0:0:0:0:
109,192,34523,1,0,0:0:0:0:
256,192,34727,1,0,0:0:0:0:
109,192,34931,128,0,36564:0:0:0:0:
329,192,35339,1,0,0:0:0:0:
475,192,35543,1,0,0:0:0:0:
329,192,35747,1,0,0:0:0:0:
475,192,35951,1,0,0:0:0:0:
329,192,36155,1,0,0:0:0:0:
475,192,36359,1,0,0:0:0:0:
320,192,36564,1,0,0:0:0:0:
192,192,36564,128,0,38196:0:0:0:0:
256,192,36972,1,0,0:0:0:0:
109,192,37176,1,0,0:0:0:0:
256,192,37380,1,0,0:0:0:0:
109,192,37584,1,0,0:0:0:0:
256,192,37788,1,0,0:0:0:0:
448,192,37992,1,0,0:0:0:0:
320,192,38196,1,0,0:0:0:0:
109,192,38196,1,0,0:0:0:0:
448,192,38502,1,0,0:0:0:0:
256,192,38808,1,0,0:0:0:0:
192,192,39012,1,0,0:0:0:0:
256,192,39217,1,0,0:0:0:0:
402,192,39421,1,0,0:0:0:0:
109,192,39421,1,0,0:0:0:0:
329,192,39829,1,0,0:0:0:0:
182,192,39829,1,0,0:0:0:0:
329,192,40441,1,0,0:0:0:0:
182,192,40645,1,0,0:0:0:0:
36,192,40645,1,0,0:0:0:0:
182,192,41257,1,0,0:0:0:0:
475,192,41461,1,0,0:0:0:0:
329,192,41461,1,0,0:0:0:0:
320,192,42074,1,0,0:0:0:0:
402,192,42278,1,0,0:0:0:0:
109,192,42278,1,0,0:0:0:0:
182,192,42890,1,0,0:0:0:0:
64,192,43094,1,0,0:0:0:0:
329,192,43094,1,0,0:0:0:0:
109,192,43502,1,0,0:0:0:0:
329,192,43910,1,0,0:0:0:0:
109,192,43910,1,0,0:0:0:0:
36,192,44319,1,0,0:0:0:0:
256,192,44727,1,0,0:0:0:0:
475,192,45135,1,0,0:0:0:0:
182,192,45543,1,0,0:0:0:0:
36,192,45543,1,0,0:0:0:0:
329,192,45849,1,0,0:0:0:0:
475,192,45849,1,0,0:0:0:0:
182,192,46155,1,0,0:0:0:0:
36,192,46155,1,0,0:0:0:0:
329,192,46359,1,0,0:0:0:0:
475,192,46359,1,0,0:0:0:0:
192,192,46666,1,0,0:0:0:0:
64,192,46666,1,0,0:0:0:0:
475,192,46972,1,0,0:0:0:0:
320,192,47176,128,0,47992:0:0:0:0:
182,192,47992,1,0,0:0:0:0:
36,192,47992,1,0,0:0:0:0:
448,192,48298,1,0,0:0:0:0:
320,192,48298,1,0,0:0:0:0:
182,192,48604,1,0,0:0:0:0:
320,192,48604,1,0,0:0:0:0:
448,192,48808,1,0,0:0:0:0:
64,192,48808,128,0,49625:0:0:0:0:
402,192,49625,1,0,0:0:0:0:
329,192,49829,1,0,0:0:0:0:
192,192,50033,1,0,0:0:0:0:
320,192,50237,1,0,0:0:0:0:
109,192,50441,1,0,0:0:0:0:
402,192,50441,1,0,0:0:0:0:
329,192,50849,1,0,0:0:0:0:
182,192,50849,1,0,0:0:0:0:
475,192,51257,1,0,0:0:0:0:
36,192,51257,1,0,0:0:0:0:
475,192,51564,1,0,0:0:0:0:
36,192,51564,1,0,0:0:0:0:
320,192,51870,1,0,0:0:0:0:
192,192,51870,1,0,0:0:0:0:
320,192,52074,1,0,0:0:0:0:
192,192,52074,1,0,0:0:0:0:
192,192,52380,1,0,0:0:0:0:
475,192,52380,1,0,0:0:0:0:
192,192,52686,1,0,0:0:0:0:
475,192,52686,1,0,0:0:0:0:
475,192,52890,1,0,0:0:0:0:
320,192,52890,1,0,0:0:0:0:
192,192,53196,1,0,0:0:0:0:
64,192,53196,1,0,0:0:0:0:
192,192,53502,1,0,0:0:0:0:
448,192,53502,1,0,0:0:0:0:
64,192,53910,1,0,0:0:0:0:
329,192,54115,128,0,54523:0:0:0:0:
192,192,54115,1,0,0:0:0:0:
182,192,54523,1,0,0:0:0:0:
36,192,54931,1,0,0:0:0:0:
475,192,54931,1,0,0:0:0:0:
192,192,55135,1,0,0:0:0:0:
109,192,55339,1,0,0:0:0:0:
182,192,55543,1,0,0:0:0:0:
256,192,55747,1,0,0:0:0:0:
475,192,55747,1,0,0:0:0:0:
182,192,56155,1,0,0:0:0:0:
36,192,56564,1,0,0:0:0:0:
256,192,56564,1,0,0:0:0:0:
192,192,56768,1,0,0:0:0:0:
320,192,56972,1,0,0:0:0:0:
448,192,57176,1,0,0:0:0:0:
329,192,57380,1,0,0:0:0:0:
109,192,57380,1,0,0:0:0:0:
182,192,57788,1,0,0:0:0:0:
475,192,58196,1,0,0:0:0:0:
329,192,58196,1,0,0:0:0:0:
64,192,58400,1,0,0:0:0:0:
182,192,58604,1,0,0:0:0:0:
320,192,58808,1,0,0:0:0:0:
192,192,59012,1,0,0:0:0:0:
448,192,59012,1,0,0:0:0:0:
109,192,59421,1,0,0:0:0:0:
182,192,59829,1,0,0:0:0:0:
402,192,59829,1,0,0:0:0:0:
329,192,60033,1,0,0:0:0:0:
192,192,60237,1,0,0:0:0:0:
64,192,60441,1,0,0:0:0:0:
402,192,60645,1,0,0:0:0:0:
192,192,60645,1,0,0:0:0:0:
320,192,60849,1,0,0:0:0:0:
448,192,61053,1,0,0:0:0:0:
402,192,61461,1,0,0:0:0:0:
109,192,61461,1,0,0:0:0:0:
256,192,61870,1,0,0:0:0:0:
402,192,62278,1,0,0:0:0:0:
182,192,62278,1,0,0:0:0:0:
256,192,62686,1,0,0:0:0:0:
329,192,63094,1,0,0:0:0:0:
109,192,63094,1,0,0:0:0:0:
256,192,63502,1,0,0:0:0:0:
182,192,63910,1,0,0:0:0:0:
402,192,63910,1,0,0:0:0:0:
182,192,64319,128,0,65135:0:0:0:0:
448,192,64319,1,0,0:0:0:0:
320,192,65135,128,0,65951:0:0:0:0:
192,192,65543,1,0,0:0:0:0:
192,192,65951,128,0,66768:0:0:0:0:
329,192,66359,1,0,0:0:0:0:
402,192,66768,128,0,67584:0:0:0:0:
182,192,67176,1,0,0:0:0:0:
109,192,67584,1,0,0:0:0:0:
36,192,67788,1,0,0:0:0:0:
329,192,67992,1,0,0:0:0:0:
36,192,67992,1,0,0:0:0:0:
256,192,68400,1,0,0:0:0:0:
402,192,68604,1,0,0:0:0:0:
109,192,68808,1,0,0:0:0:0:
402,192,68808,1,0,0:0:0:0:
329,192,69217,1,0,0:0:0:0:
182,192,69421,1,0,0:0:0:0:
64,192,69625,1,0,0:0:0:0:
475,192,69625,1,0,0:0:0:0:
256,192,70033,1,0,0:0:0:0:
192,192,70237,1,0,0:0:0:0:
402,192,70441,1,0,0:0:0:0:
109,192,70441,1,0,0:0:0:0:
109,192,70849,1,0,0:0:0:0:
192,192,71053,1,0,0:0:0:0:
320,192,71257,1,0,0:0:0:0:
36,192,71257,1,0,0:0:0:0:
329,192,71666,1,0,0:0:0:0:
402,192,71870,1,0,0:0:0:0:
256,192,72074,1,0,0:0:0:0:
64,192,72074,1,0,0:0:0:0:
475,192,72482,1,0,0:0:0:0:
192,192,72686,1,0,0:0:0:0:
109,192,72890,1,0,0:0:0:0:
329,192,72890,1,0,0:0:0:0:
192,192,73298,1,0,0:0:0:0:
320,192,73502,1,0,0:0:0:0:
475,192,73706,1,0,0:0:0:0:
182,192,73706,1,0,0:0:0:0:
109,192,74115,1,0,0:0:0:0:
402,192,74115,1,0,0:0:0:0:
329,192,74523,1,0,0:0:0:0:
36,192,74523,1,0,0:0:0:0:
182,192,74727,1,0,0:0:0:0:
256,192,74931,1,0,0:0:0:0:
475,192,75339,1,0,0:0:0:0:
182,192,75339,1,0,0:0:0:0:
329,192,75543,1,0,0:0:0:0:
192,192,75747,1,0,0:0:0:0:
192,192,76155,1,0,0:0:0:0:
475,192,76155,1,0,0:0:0:0:
320,192,76359,1,0,0:0:0:0:
192,192,76564,1,0,0:0:0:0:
256,192,76972,1,0,0:0:0:0:
36,192,76972,1,0,0:0:0:0:
192,192,77176,1,0,0:0:0:0:
320,192,77380,1,0,0:0:0:0:
329,192,77788,1,0,0:0:0:0:
475,192,77788,1,0,0:0:0:0:
182,192,77992,1,0,0:0:0:0:
329,192,78196,1,0,0:0:0:0:
109,192,78604,1,0,0:0:0:0:
256,192,78604,1,0,0:0:0:0:
402,192,78808,1,0,0:0:0:0:
109,192,79012,1,0,0:0:0:0:
329,192,79421,1,0,0:0:0:0:
36,192,79421,1,0,0:0:0:0:
182,192,79625,1,0,0:0:0:0:
329,192,79829,1,0,0:0:0:0:
182,192,80237,1,0,0:0:0:0:
109,192,80645,1,0,0:0:0:0:
402,192,80645,1,0,0:0:0:0:
329,192,81053,1,0,0:0:0:0:
182,192,81053,1,0,0:0:0:0:
402,192,81461,1,0,0:0:0:0:
109,192,81461,1,0,0:0:0:0:
475,192,81870,1,0,0:0:0:0:
36,192,81870,1,0,0:0:0:0:
256,192,82278,128,0,82686:0:0:0:0:
320,192,83910,1,0,0:0:0:0:
109,192,84217,1,0,0:0:0:0:
402,192,84523,1,0,0:0:0:0:
109,192,84829,1,0,0:0:0:0:
402,192,85135,1,0,0:0:0:0:
402,192,85543,1,0,0:0:0:0:
109,192,85543,1,0,0:0:0:0:
320,192,85543,128,0,87176:0:0:0:0:
182,192,87176,1,0,0:0:0:0:
