osu file format v12

[General]
AudioFilename: [This Game] by Konomi Suzuki.mp3
AudioLeadIn: 0
PreviewTime: 54182
Countdown: 0
SampleSet: Soft
StackLeniency: 0.7
Mode: 3
LetterboxInBreaks: 0
SpecialStyle: 0
WidescreenStoryboard: 0

[Editor]
DistanceSpacing: 0.8
BeatDivisor: 4
GridSize: 4
TimelineZoom: 1.1

[Metadata]
Title:This Game (TV Size)
TitleUnicode:This Game (TV Size)
Artist:Suzuki Konomi
ArtistUnicode:Suzuki Konomi
Creator:- [ S o r a ] -
Version:Easy
Source:ノーゲーム・ノーライフ
Tags:No Game No Life Anime Op P_i_K_o_B_a_K_a [_S_a_k_u_r_a_]
BeatmapID:432654
BeatmapSetID:180006

[Difficulty]
HPDrainRate:6
CircleSize:4
OverallDifficulty:6
ApproachRate:5
SliderMultiplier:1.4
SliderTickRate:1

[Events]
//Background and Video events
0,0,"5.jpg",0,0
//Break Periods
//Storyboard Layer 0 (Background)
//Storyboard Layer 1 (Fail)
//Storyboard Layer 2 (Pass)
//Storyboard Layer 3 (Foreground)
//Storyboard Sound Samples
//Background Colour Transformations
3,100,163,162,255

[TimingPoints]
327,408.163265306122,4,2,0,40,1,0
54204,-100,4,2,0,40,0,1
66857,-100,4,2,0,40,0,0
67265,-100,4,2,0,40,0,1
80326,-100,4,2,0,40,0,0

[HitObjects]
448,192,327,5,2,0:0:0:0:
64,192,1959,1,2,0:0:0:0:
320,192,3592,1,2,0:0:0:0:
192,192,5224,128,2,6857:0:0:0:0:
448,192,6857,1,0,0:0:0:0:
64,192,6857,1,0,0:0:0:0:
320,192,7265,1,0,0:0:0:0:
192,192,7673,1,0,0:0:0:0:
448,192,8082,1,2,0:0:0:0:
64,192,8490,1,0,0:0:0:0:
320,192,8490,1,0,0:0:0:0:
192,192,8898,1,0,0:0:0:0:
320,192,9306,1,0,0:0:0:0:
64,192,9714,1,2,0:0:0:0:
192,192,10122,1,0,0:0:0:0:
448,192,10122,1,0,0:0:0:0:
320,192,10531,1,0,0:0:0:0:
64,192,10939,1,0,0:0:0:0:
192,192,11347,1,2,0:0:0:0:
448,192,11755,1,0,0:0:0:0:
64,192,12061,1,0,0:0:0:0:
320,192,12367,1,0,0:0:0:0:
448,192,12367,128,0,13388:0:0:0:0:
192,192,12775,1,0,0:0:0:0:
64,192,12980,128,0,13388:0:0:0:0:
320,192,13388,1,0,0:0:0:0:
192,192,13694,1,0,0:0:0:0:
448,192,14000,1,0,0:0:0:0:
64,192,14000,1,0,0:0:0:0:
320,192,14408,1,0,0:0:0:0:
192,192,14612,1,0,0:0:0:0:
448,192,15020,1,0,0:0:0:0:
320,192,15020,1,0,0:0:0:0:
64,192,15429,1,0,0:0:0:0:
192,192,15837,1,0,0:0:0:0:
448,192,16245,1,0,0:0:0:0:
192,192,16653,1,0,0:0:0:0:
320,192,17061,1,0,0:0:0:0:
448,192,17469,1,0,0:0:0:0:
64,192,17878,1,0,0:0:0:0:
192,192,18286,1,0,0:0:0:0:
320,192,18592,1,0,0:0:0:0:
192,192,18898,1,0,0:0:0:0:
320,192,19306,1,0,0:0:0:0:
192,192,19510,128,0,19918:0:0:0:0:
448,192,19918,1,0,0:0:0:0:
64,192,19918,1,0,0:0:0:0:
320,192,20326,1,0,0:0:0:0:
64,192,20735,1,0,0:0:0:0:
320,192,21143,1,0,0:0:0:0:
192,192,21551,1,0,0:0:0:0:
64,192,21551,1,0,0:0:0:0:
320,192,21959,1,0,0:0:0:0:
192,192,22367,1,0,0:0:0:0:
64,192,22775,1,0,0:0:0:0:
320,192,23184,1,0,0:0:0:0:
192,192,23592,1,0,0:0:0:0:
448,192,24000,1,0,0:0:0:0:
320,192,24408,1,0,0:0:0:0:
64,192,24816,1,0,0:0:0:0:
320,192,25122,1,0,0:0:0:0:
448,192,25429,1,0,0:0:0:0:
192,192,25735,1,0,0:0:0:0:
64,192,26041,1,0,0:0:0:0:
448,192,26449,128,0,27265:0:0:0:0:
192,192,26449,1,0,0:0:0:0:
64,192,26857,1,0,0:0:0:0:
64,192,27367,1,0,0:0:0:0:
320,192,27673,1,0,0:0:0:0:
64,192,28082,128,0,28898:0:0:0:0:
320,192,28082,1,0,0:0:0:0:
448,192,28490,1,0,0:0:0:0:
448,192,29000,1,0,0:0:0:0:
192,192,29306,1,0,0:0:0:0:
320,192,29714,128,0,30531:0:0:0:0:
64,192,29714,1,0,0:0:0:0:
192,192,30122,1,0,0:0:0:0:
64,192,30633,1,0,0:0:0:0:
448,192,30939,1,0,0:0:0:0:
64,192,31347,1,0,0:0:0:0:
448,192,31653,1,0,0:0:0:0:
448,192,31959,1,0,0:0:0:0:
64,192,32265,1,0,0:0:0:0:
448,192,32571,1,0,0:0:0:0:
64,192,32775,1,0,0:0:0:0:
192,192,32980,1,0,0:0:0:0:
320,192,32980,128,0,33796:0:0:0:0:
448,192,33388,1,0,0:0:0:0:
192,192,33898,1,0,0:0:0:0:
320,192,34204,1,0,0:0:0:0:
192,192,34612,128,0,35429:0:0:0:0:
320,192,34612,1,0,0:0:0:0:
64,192,35020,1,0,0:0:0:0:
320,192,35531,1,0,0:0:0:0:
192,192,35837,1,0,0:0:0:0:
448,192,36245,128,0,37061:0:0:0:0:
64,192,36245,1,0,0:0:0:0:
192,192,36653,1,0,0:0:0:0:
64,192,37163,1,0,0:0:0:0:
448,192,37469,1,0,0:0:0:0:
320,192,37878,1,0,0:0:0:0:
320,192,38184,1,0,0:0:0:0:
320,192,38490,1,0,0:0:0:0:
192,192,38694,128,0,39510:0:0:0:0:
448,192,39510,128,0,40326:0:0:0:0:
64,192,39510,1,0,0:0:0:0:
64,192,40326,128,0,41143:0:0:0:0:
320,192,41143,128,0,41959:0:0:0:0:
448,192,41959,128,0,42775:0:0:0:0:
320,192,42775,1,0,0:0:0:0:
64,192,42775,128,0,43592:0:0:0:0:
448,192,43592,128,0,44408:0:0:0:0:
192,192,44408,128,0,45224:0:0:0:0:
448,192,45224,1,0,0:0:0:0:
320,192,45531,1,0,0:0:0:0:
192,192,45837,1,0,0:0:0:0:
64,192,46041,1,0,0:0:0:0:
64,192,46347,1,0,0:0:0:0:
64,192,46653,1,0,0:0:0:0:
448,192,46857,128,0,47673:0:0:0:0:
320,192,47673,1,0,0:0:0:0:
320,192,47980,1,0,0:0:0:0:
320,192,48286,1,0,0:0:0:0:
64,192,48490,128,0,49306:0:0:0:0:
448,192,49306,1,0,0:0:0:0:
192,192,49918,1,0,0:0:0:0:
320,192,50122,1,0,0:0:0:0:
192,192,50531,1,0,0:0:0:0:
320,192,50939,1,0,0:0:0:0:
64,192,51245,1,0,0:0:0:0:
320,192,51551,1,0,0:0:0:0:
448,192,51755,1,0,0:0:0:0:
320,192,52061,1,0,0:0:0:0:
64,192,52367,1,0,0:0:0:0:
320,192,52571,1,0,0:0:0:0:
192,192,52571,128,0,53796:0:0:0:0:
320,192,52878,1,0,0:0:0:0:
448,192,53184,1,0,0:0:0:0:
320,192,53796,1,0,0:0:0:0:
448,192,54204,1,0,0:0:0:0:
64,192,54204,1,0,0:0:0:0:
192,192,54612,1,0,0:0:0:0:
448,192,55020,1,0,0:0:0:0:
64,192,55429,1,0,0:0:0:0:
320,192,55837,1,0,0:0:0:0:
192,192,56245,1,0,0:0:0:0:
448,192,56653,1,0,0:0:0:0:
192,192,57061,1,0,0:0:0:0:
320,192,57469,1,0,0:0:0:0:
64,192,57878,1,0,0:0:0:0:
320,192,58286,1,0,0:0:0:0:
192,192,58694,1,0,0:0:0:0:
448,192,59102,1,0,0:0:0:0:
192,192,59510,1,0,0:0:0:0:
320,192,59918,1,0,0:0:0:0:
64,192,60326,1,0,0:0:0:0:
192,192,60735,1,0,0:0:0:0:
448,192,60735,1,0,0:0:0:0:
64,192,61143,1,0,0:0:0:0:
448,192,61551,1,0,0:0:0:0:
192,192,61959,1,0,0:0:0:0:
64,192,62367,1,0,0:0:0:0:
320,192,62775,1,0,0:0:0:0:
64,192,63184,1,0,0:0:0:0:
448,192,63592,1,0,0:0:0:0:
320,192,64000,1,0,0:0:0:0:
192,192,64306,1,0,0:0:0:0:
320,192,64612,1,0,0:0:0:0:
192,192,64816,1,0,0:0:0:0:
448,192,65224,1,2,0:0:0:0:
64,192,65633,1,0,0:0:0:0:
320,192,65633,1,0,0:0:0:0:
192,192,66041,1,0,0:0:0:0:
448,192,66449,1,2,0:0:0:0:
64,192,66857,1,2,0:0:0:0:
320,192,67265,128,0,68898:0:0:0:0:
192,192,67265,1,0,0:0:0:0:
64,192,67673,1,0,0:0:0:0:
192,192,68082,1,0,0:0:0:0:
448,192,68490,1,0,0:0:0:0:
192,192,68898,128,0,70531:0:0:0:0:
448,192,69306,1,0,0:0:0:0:
320,192,69714,1,0,0:0:0:0:
64,192,70122,1,0,0:0:0:0:
64,192,70531,128,0,71347:0:0:0:0:
320,192,70939,1,0,0:0:0:0:
448,192,71347,128,0,72163:0:0:0:0:
64,192,71755,1,0,0:0:0:0:
192,192,72163,128,0,72980:0:0:0:0:
448,192,72571,1,0,0:0:0:0:
320,192,72980,1,2,0:0:0:0:
448,192,73388,1,2,0:0:0:0:
448,192,73796,1,0,0:0:0:0:
192,192,73796,128,0,75429:0:0:0:0:
320,192,74204,1,0,0:0:0:0:
448,192,74612,1,0,0:0:0:0:
64,192,75020,1,0,0:0:0:0:
320,192,75429,128,0,77061:0:0:0:0:
192,192,75837,1,0,0:0:0:0:
64,192,76245,1,0,0:0:0:0:
448,192,76653,1,0,0:0:0:0:
192,192,77061,128,0,78694:0:0:0:0:
320,192,77469,1,0,0:0:0:0:
448,192,77878,1,0,0:0:0:0:
64,192,78286,1,0,0:0:0:0:
320,192,78694,1,0,0:0:0:0:
192,192,79102,1,0,0:0:0:0:
448,192,79102,1,0,0:0:0:0:
64,192,79510,1,0,0:0:0:0:
320,192,79510,128,0,80326:0:0:0:0:
448,192,80326,1,0,0:0:0:0:
64,192,80326,1,0,0:0:0:0:
192,192,80735,1,0,0:0:0:0:
320,192,81143,1,0,0:0:0:0:
192,192,81551,1,0,0:0:0:0:
320,192,81959,128,0,83592:0:0:0:0:
64,192,83592,1,0,0:0:0:0:
192,192,83898,1,0,0:0:0:0:
448,192,84204,1,0,0:0:0:0:
320,192,84510,1,0,0:0:0:0:
64,192,84816,1,0,0:0:0:0:
192,192,84816,128,0,85224:0:0:0:0:
320,192,85224,128,0,86857:0:0:0:0:
448,192,85224,1,0,0:0:0:0:
192,192,86857,128,0,88490:0:0:0:0:
