osu file format v13

[General]
AudioFilename: this game.mp3
AudioLeadIn: 0
PreviewTime: 54194
Countdown: 0
SampleSet: Soft
StackLeniency: 0.7
Mode: 3
LetterboxInBreaks: 0
SpecialStyle: 1
WidescreenStoryboard: 0

[Editor]
DistanceSpacing: 1
BeatDivisor: 8
GridSize: 4
TimelineZoom: 1

[Metadata]
Title:This Game ( TV size )
TitleUnicode:This Game ( TV size )
Artist:Suzuki Konomi
ArtistUnicode:Suzuki Konomi
Creator:Strugatskaya
Version:7K MX
Source:
Tags:Dimz no game no life
BeatmapID:476923
BeatmapSetID:198376

[Difficulty]
HPDrainRate:8
CircleSize:7
OverallDifficulty:8
ApproachRate:5
SliderMultiplier:1.4
SliderTickRate:1

[Events]
//Background and Video events
0,0,"shiro_pts.jpg",0,0
//Break Periods
//Storyboard Layer 0 (Background)
//Storyboard Layer 1 (Fail)
//Storyboard Layer 2 (Pass)
//Storyboard Layer 3 (Foreground)
//Storyboard Sound Samples
//Background Colour Transformations
3,100,163,162,255

[TimingPoints]
317,408.163265306122,4,2,1,0,1,0
54194,-100,4,2,1,0,0,1
73258,-100,4,2,1,0,0,0

[HitObjects]
182,192,317,5,0,0:0:0:0:
36,192,317,128,0,623:0:0:0:0:
109,192,623,128,0,929:0:0:0:0:
256,192,623,1,0,0:0:0:0:
329,192,929,1,0,0:0:0:0:
182,192,929,128,0,1133:0:0:0:0:
329,192,1337,1,0,0:0:0:0:
256,192,1541,1,0,0:0:0:0:
182,192,1745,1,0,0:0:0:0:
475,192,1949,128,0,2153:0:0:0:0:
36,192,1949,1,0,0:0:0:0:
182,192,1949,1,0,0:0:0:0:
109,192,2051,1,0,0:0:0:0:
256,192,2153,1,0,0:0:0:0:
402,192,2153,128,0,2561:0:0:0:0:
182,192,2561,1,0,0:0:0:0:
109,192,2561,1,0,0:0:0:0:
329,192,2561,128,0,3378:0:0:0:0:
36,192,2970,1,0,0:0:0:0:
109,192,3174,1,0,0:0:0:0:
182,192,3378,1,0,0:0:0:0:
109,192,3582,128,0,3786:0:0:0:0:
402,192,3582,1,0,0:0:0:0:
475,192,3582,1,0,0:0:0:0:
329,192,3786,1,0,0:0:0:0:
402,192,3786,1,0,0:0:0:0:
36,192,3786,128,0,3990:0:0:0:0:
475,192,3888,1,0,0:0:0:0:
109,192,3990,128,0,4194:0:0:0:0:
329,192,3990,1,0,0:0:0:0:
256,192,3990,1,0,0:0:0:0:
182,192,4194,128,0,4398:0:0:0:0:
329,192,4194,1,0,0:0:0:0:
402,192,4194,1,0,0:0:0:0:
329,192,4602,1,0,0:0:0:0:
256,192,4806,1,0,0:0:0:0:
182,192,5010,1,0,0:0:0:0:
109,192,5214,1,0,0:0:0:0:
36,192,5214,1,0,0:0:0:0:
402,192,5214,128,0,5419:0:0:0:0:
475,192,5419,128,0,5623:0:0:0:0:
109,192,5419,1,0,0:0:0:0:
182,192,5419,1,0,0:0:0:0:
36,192,5521,1,0,0:0:0:0:
402,192,5623,128,0,5827:0:0:0:0:
256,192,5623,1,0,0:0:0:0:
182,192,5623,1,0,0:0:0:0:
329,192,5827,128,0,6031:0:0:0:0:
36,192,5827,128,0,6847:0:0:0:0:
109,192,5827,128,0,6847:0:0:0:0:
182,192,6235,1,0,0:0:0:0:
256,192,6439,1,0,0:0:0:0:
329,192,6643,1,0,0:0:0:0:
182,192,6847,1,0,0:0:0:0:
475,192,6847,128,4,7153:0:0:0:0:
402,192,6847,1,0,0:0:0:0:
329,192,7153,1,0,0:0:0:0:
402,192,7153,128,8,7459:0:0:0:0:
256,192,7204,1,0,0:0:0:0:
182,192,7255,1,0,0:0:0:0:
109,192,7459,1,0,0:0:0:0:
256,192,7459,1,0,0:0:0:0:
329,192,7459,128,0,7868:0:0:0:0:
36,192,7765,1,0,0:0:0:0:
109,192,7816,1,0,0:0:0:0:
182,192,7868,1,0,0:0:0:0:
402,192,7868,128,0,8072:0:0:0:0:
256,192,8072,128,0,8276:0:0:0:0:
329,192,8072,1,0,0:0:0:0:
182,192,8276,1,0,0:0:0:0:
329,192,8276,128,0,8480:0:0:0:0:
109,192,8327,1,0,0:0:0:0:
36,192,8378,1,0,0:0:0:0:
402,192,8480,128,4,8684:0:0:0:0:
329,192,8684,1,0,0:0:0:0:
475,192,8684,128,8,9092:0:0:0:0:
182,192,8735,1,0,0:0:0:0:
36,192,8786,1,0,0:0:0:0:
402,192,9092,1,0,0:0:0:0:
36,192,9092,128,4,9500:0:0:0:0:
256,192,9092,1,0,0:0:0:0:
109,192,9500,128,0,9704:0:0:0:0:
256,192,9500,1,0,0:0:0:0:
329,192,9551,1,0,0:0:0:0:
402,192,9602,1,0,0:0:0:0:
182,192,9704,128,0,9908:0:0:0:0:
256,192,9908,128,0,10112:0:0:0:0:
329,192,9908,1,0,0:0:0:0:
402,192,9959,1,0,0:0:0:0:
475,192,10010,1,0,0:0:0:0:
182,192,10112,128,0,10316:0:0:0:0:
256,192,10316,1,0,0:0:0:0:
109,192,10316,128,0,10725:0:0:0:0:
402,192,10368,1,0,0:0:0:0:
475,192,10419,1,0,0:0:0:0:
36,192,10725,128,0,11133:0:0:0:0:
182,192,10725,1,0,0:0:0:0:
329,192,10725,1,0,0:0:0:0:
109,192,11133,128,0,11337:0:0:0:0:
256,192,11133,1,0,0:0:0:0:
329,192,11184,1,0,0:0:0:0:
475,192,11235,1,0,0:0:0:0:
182,192,11337,128,0,11541:0:0:0:0:
256,192,11541,128,0,11745:0:0:0:0:
329,192,11541,1,0,0:0:0:0:
402,192,11592,1,0,0:0:0:0:
475,192,11643,1,0,0:0:0:0:
182,192,11949,128,0,12153:0:0:0:0:
329,192,11949,128,0,12153:0:0:0:0:
109,192,11949,1,0,0:0:0:0:
402,192,11949,1,0,0:0:0:0:
109,192,12357,128,0,12765:0:0:0:0:
402,192,12357,128,0,12765:0:0:0:0:
256,192,12357,1,0,0:0:0:0:
182,192,12765,1,8,0:0:0:0:
329,192,12765,1,8,0:0:0:0:
182,192,12868,1,8,0:0:0:0:
329,192,12868,1,8,0:0:0:0:
109,192,13378,128,0,13582:0:0:0:0:
36,192,13378,128,0,16439:0:0:0:0:
182,192,13582,128,0,13990:0:0:0:0:
256,192,13582,1,0,0:0:0:0:
402,192,13582,1,0,0:0:0:0:
329,192,13684,1,0,0:0:0:0:
475,192,13684,1,0,0:0:0:0:
256,192,13990,128,0,14398:0:0:0:0:
182,192,14398,128,0,14602:0:0:0:0:
329,192,14398,1,0,0:0:0:0:
402,192,14500,1,0,0:0:0:0:
475,192,14500,1,0,0:0:0:0:
109,192,14602,128,0,16439:0:0:0:0:
475,192,14806,1,0,0:0:0:0:
329,192,14806,1,0,0:0:0:0:
182,192,14908,1,0,0:0:0:0:
256,192,15010,1,0,0:0:0:0:
402,192,15010,1,0,0:0:0:0:
475,192,15112,1,0,0:0:0:0:
256,192,15214,1,0,0:0:0:0:
329,192,15316,1,0,0:0:0:0:
402,192,15419,1,0,0:0:0:0:
256,192,15521,1,0,0:0:0:0:
475,192,15623,1,0,0:0:0:0:
182,192,15725,1,0,0:0:0:0:
402,192,15827,1,0,0:0:0:0:
256,192,15929,1,0,0:0:0:0:
329,192,16031,1,0,0:0:0:0:
402,192,16133,1,0,0:0:0:0:
256,192,16235,1,0,0:0:0:0:
475,192,16337,1,0,0:0:0:0:
402,192,16439,1,0,0:0:0:0:
329,192,16541,1,0,0:0:0:0:
475,192,16643,128,0,18888:0:0:0:0:
256,192,16643,1,0,0:0:0:0:
182,192,16745,1,0,0:0:0:0:
36,192,16847,1,0,0:0:0:0:
182,192,16949,1,0,0:0:0:0:
109,192,17051,1,0,0:0:0:0:
256,192,17051,1,0,0:0:0:0:
256,192,17153,1,0,0:0:0:0:
329,192,17255,1,0,0:0:0:0:
182,192,17255,1,0,0:0:0:0:
182,192,17357,1,0,0:0:0:0:
109,192,17459,1,0,0:0:0:0:
36,192,17459,128,0,19500:0:0:0:0:
182,192,17561,1,0,0:0:0:0:
256,192,17663,1,0,0:0:0:0:
329,192,17765,1,0,0:0:0:0:
402,192,17868,1,0,0:0:0:0:
109,192,18072,1,0,0:0:0:0:
256,192,18072,1,0,0:0:0:0:
182,192,18174,1,0,0:0:0:0:
329,192,18174,1,0,0:0:0:0:
402,192,18378,1,0,0:0:0:0:
256,192,18378,1,0,0:0:0:0:
329,192,18480,1,0,0:0:0:0:
182,192,18480,1,0,0:0:0:0:
256,192,18582,1,0,0:0:0:0:
109,192,18582,1,0,0:0:0:0:
109,192,18684,1,0,0:0:0:0:
256,192,18684,1,0,0:0:0:0:
182,192,18786,1,0,0:0:0:0:
329,192,18786,1,0,0:0:0:0:
256,192,18888,1,0,0:0:0:0:
329,192,18990,1,0,0:0:0:0:
109,192,19092,1,0,0:0:0:0:
402,192,19092,1,0,0:0:0:0:
182,192,19194,1,0,0:0:0:0:
329,192,19194,1,0,0:0:0:0:
256,192,19296,1,0,0:0:0:0:
182,192,19398,1,0,0:0:0:0:
402,192,19398,1,0,0:0:0:0:
109,192,19500,1,0,0:0:0:0:
475,192,19500,1,0,0:0:0:0:
402,192,19602,1,0,0:0:0:0:
329,192,19704,1,0,0:0:0:0:
256,192,19806,1,0,0:0:0:0:
109,192,19908,128,0,20214:0:0:0:0:
475,192,19908,1,0,0:0:0:0:
182,192,19908,1,0,0:0:0:0:
402,192,20010,1,0,0:0:0:0:
329,192,20112,1,0,0:0:0:0:
182,192,20214,128,0,20521:0:0:0:0:
256,192,20214,1,0,0:0:0:0:
402,192,20214,1,0,0:0:0:0:
475,192,20316,1,0,0:0:0:0:
402,192,20419,1,0,0:0:0:0:
256,192,20521,128,0,21745:0:0:0:0:
329,192,20521,1,0,0:0:0:0:
475,192,20521,1,0,0:0:0:0:
402,192,20623,1,0,0:0:0:0:
329,192,20725,1,0,0:0:0:0:
109,192,20827,1,0,0:0:0:0:
36,192,20929,128,0,21745:0:0:0:0:
475,192,20929,1,0,0:0:0:0:
402,192,20929,1,0,0:0:0:0:
182,192,20929,1,0,0:0:0:0:
109,192,21133,128,0,21745:0:0:0:0:
402,192,21133,1,0,0:0:0:0:
329,192,21133,1,0,0:0:0:0:
475,192,21235,1,0,0:0:0:0:
402,192,21337,1,0,0:0:0:0:
329,192,21388,1,0,0:0:0:0:
402,192,21439,1,0,0:0:0:0:
329,192,22153,1,0,0:0:0:0:
256,192,22255,1,0,0:0:0:0:
182,192,22357,1,0,0:0:0:0:
109,192,22357,1,0,0:0:0:0:
36,192,22357,128,0,22663:0:0:0:0:
256,192,22663,1,0,0:0:0:0:
329,192,22663,1,0,0:0:0:0:
109,192,22663,128,0,24602:0:0:0:0:
256,192,22970,1,0,0:0:0:0:
402,192,22970,1,0,0:0:0:0:
329,192,23072,1,0,0:0:0:0:
402,192,23174,1,0,0:0:0:0:
329,192,23276,1,0,0:0:0:0:
256,192,23378,1,0,0:0:0:0:
182,192,23480,1,0,0:0:0:0:
402,192,23480,1,0,0:0:0:0:
329,192,23582,1,0,0:0:0:0:
475,192,23684,1,0,0:0:0:0:
402,192,23786,1,0,0:0:0:0:
256,192,23786,1,0,0:0:0:0:
329,192,23888,1,0,0:0:0:0:
256,192,23990,1,0,0:0:0:0:
402,192,23990,1,0,0:0:0:0:
256,192,24092,1,0,0:0:0:0:
475,192,24194,1,0,0:0:0:0:
329,192,24194,1,0,0:0:0:0:
402,192,24398,1,0,0:0:0:0:
256,192,24398,1,0,0:0:0:0:
182,192,24602,1,0,0:0:0:0:
329,192,24602,1,0,0:0:0:0:
256,192,24755,1,0,0:0:0:0:
402,192,24755,1,0,0:0:0:0:
329,192,24857,1,0,0:0:0:0:
475,192,24857,1,0,0:0:0:0:
256,192,25010,1,0,0:0:0:0:
109,192,25010,1,0,0:0:0:0:
182,192,25112,1,0,0:0:0:0:
36,192,25112,1,0,0:0:0:0:
182,192,25419,1,0,0:0:0:0:
329,192,25419,1,0,0:0:0:0:
256,192,25419,128,0,25674:0:0:0:0:
109,192,25674,1,0,0:0:0:0:
402,192,25674,1,0,0:0:0:0:
182,192,25827,1,0,0:0:0:0:
256,192,25878,1,0,0:0:0:0:
329,192,25929,1,0,0:0:0:0:
402,192,25980,1,0,0:0:0:0:
36,192,26031,1,0,0:0:0:0:
475,192,26031,1,0,0:0:0:0:
256,192,26031,128,0,26847:0:0:0:0:
109,192,26541,1,0,0:0:0:0:
182,192,26643,1,0,0:0:0:0:
402,192,26643,1,0,0:0:0:0:
109,192,26745,1,0,0:0:0:0:
475,192,26745,1,0,0:0:0:0:
402,192,26847,1,0,0:0:0:0:
36,192,26847,1,0,0:0:0:0:
109,192,26949,1,0,0:0:0:0:
329,192,26949,1,0,0:0:0:0:
182,192,27051,1,0,0:0:0:0:
402,192,27051,1,0,0:0:0:0:
475,192,27153,1,0,0:0:0:0:
256,192,27153,1,0,0:0:0:0:
402,192,27255,1,0,0:0:0:0:
182,192,27255,1,0,0:0:0:0:
329,192,27357,1,0,0:0:0:0:
109,192,27357,1,0,0:0:0:0:
182,192,27459,1,0,0:0:0:0:
402,192,27459,1,0,0:0:0:0:
109,192,27561,1,0,0:0:0:0:
475,192,27561,1,0,0:0:0:0:
36,192,27663,1,0,0:0:0:0:
402,192,27663,1,0,0:0:0:0:
109,192,27765,1,0,0:0:0:0:
182,192,27868,1,0,0:0:0:0:
256,192,27868,128,0,28888:0:0:0:0:
329,192,27868,1,0,0:0:0:0:
402,192,28174,1,0,0:0:0:0:
36,192,28276,1,0,0:0:0:0:
329,192,28276,1,0,0:0:0:0:
182,192,28378,1,0,0:0:0:0:
475,192,28378,1,0,0:0:0:0:
402,192,28480,1,0,0:0:0:0:
182,192,28480,1,0,0:0:0:0:
109,192,28582,1,0,0:0:0:0:
329,192,28582,1,0,0:0:0:0:
36,192,28684,1,0,0:0:0:0:
402,192,28684,1,0,0:0:0:0:
109,192,28786,1,0,0:0:0:0:
475,192,28786,1,0,0:0:0:0:
182,192,28888,1,0,0:0:0:0:
402,192,28888,1,0,0:0:0:0:
329,192,28990,1,0,0:0:0:0:
109,192,28990,1,0,0:0:0:0:
256,192,29092,1,0,0:0:0:0:
36,192,29092,1,0,0:0:0:0:
109,192,29194,1,0,0:0:0:0:
329,192,29194,1,0,0:0:0:0:
182,192,29296,1,0,0:0:0:0:
402,192,29296,1,0,0:0:0:0:
475,192,29398,1,0,0:0:0:0:
256,192,29500,1,0,0:0:0:0:
329,192,29500,1,0,0:0:0:0:
256,192,29704,1,0,0:0:0:0:
182,192,29755,1,0,0:0:0:0:
36,192,29806,128,0,31133:0:0:0:0:
109,192,29806,1,0,0:0:0:0:
182,192,29908,1,0,0:0:0:0:
329,192,29908,1,0,0:0:0:0:
109,192,30112,1,0,0:0:0:0:
256,192,30112,1,0,0:0:0:0:
475,192,30214,1,0,0:0:0:0:
182,192,30316,1,0,0:0:0:0:
329,192,30316,1,0,0:0:0:0:
329,192,30521,1,0,0:0:0:0:
182,192,30623,1,0,0:0:0:0:
329,192,30623,1,0,0:0:0:0:
109,192,30725,1,0,0:0:0:0:
256,192,30725,1,0,0:0:0:0:
182,192,30827,1,0,0:0:0:0:
329,192,30827,1,0,0:0:0:0:
256,192,30929,1,0,0:0:0:0:
402,192,30929,1,0,0:0:0:0:
329,192,31031,1,0,0:0:0:0:
475,192,31031,1,0,0:0:0:0:
402,192,31133,1,0,0:0:0:0:
109,192,31337,1,0,0:0:0:0:
256,192,31337,1,0,0:0:0:0:
182,192,31541,1,0,0:0:0:0:
329,192,31541,1,0,0:0:0:0:
109,192,31643,1,0,0:0:0:0:
256,192,31643,1,0,0:0:0:0:
36,192,31949,1,0,0:0:0:0:
182,192,31949,1,0,0:0:0:0:
109,192,32255,128,0,32765:0:0:0:0:
182,192,32255,1,0,0:0:0:0:
329,192,32255,1,0,0:0:0:0:
475,192,32561,1,0,0:0:0:0:
329,192,32561,1,0,0:0:0:0:
402,192,32765,1,0,0:0:0:0:
256,192,32765,1,0,0:0:0:0:
329,192,32970,1,0,0:0:0:0:
182,192,33174,1,0,0:0:0:0:
182,192,33378,128,0,34398:0:0:0:0:
256,192,33378,1,0,0:0:0:0:
402,192,33378,1,0,0:0:0:0:
475,192,33480,1,0,0:0:0:0:
109,192,33582,1,0,0:0:0:0:
329,192,33582,1,0,0:0:0:0:
36,192,33684,1,0,0:0:0:0:
402,192,33684,1,0,0:0:0:0:
109,192,33786,1,0,0:0:0:0:
475,192,33786,1,0,0:0:0:0:
402,192,33888,1,0,0:0:0:0:
36,192,33888,1,0,0:0:0:0:
109,192,33990,1,0,0:0:0:0:
256,192,33990,1,0,0:0:0:0:
329,192,34092,1,0,0:0:0:0:
475,192,34092,1,0,0:0:0:0:
402,192,34194,1,0,0:0:0:0:
109,192,34194,1,0,0:0:0:0:
256,192,34296,1,0,0:0:0:0:
475,192,34296,1,0,0:0:0:0:
402,192,34398,1,0,0:0:0:0:
36,192,34398,1,0,0:0:0:0:
109,192,34500,1,0,0:0:0:0:
182,192,34602,1,0,0:0:0:0:
36,192,34602,1,0,0:0:0:0:
256,192,34704,1,0,0:0:0:0:
109,192,34704,1,0,0:0:0:0:
329,192,34806,1,0,0:0:0:0:
182,192,34806,1,0,0:0:0:0:
402,192,34908,1,0,0:0:0:0:
256,192,34908,1,0,0:0:0:0:
475,192,35010,1,0,0:0:0:0:
329,192,35010,1,0,0:0:0:0:
402,192,35112,1,0,0:0:0:0:
256,192,35112,1,0,0:0:0:0:
329,192,35214,1,0,0:0:0:0:
182,192,35214,1,0,0:0:0:0:
256,192,35316,1,0,0:0:0:0:
109,192,35316,1,0,0:0:0:0:
329,192,35419,1,0,0:0:0:0:
182,192,35419,1,0,0:0:0:0:
402,192,35521,1,0,0:0:0:0:
256,192,35521,1,0,0:0:0:0:
475,192,35623,1,0,0:0:0:0:
329,192,35623,1,0,0:0:0:0:
402,192,35725,1,0,0:0:0:0:
256,192,35725,1,0,0:0:0:0:
329,192,35827,1,0,0:0:0:0:
182,192,35827,1,0,0:0:0:0:
256,192,35929,1,0,0:0:0:0:
109,192,35929,1,0,0:0:0:0:
182,192,36031,1,0,0:0:0:0:
36,192,36031,1,0,0:0:0:0:
109,192,36133,1,0,0:0:0:0:
256,192,36133,1,0,0:0:0:0:
36,192,36235,128,0,37663:0:0:0:0:
182,192,36235,128,0,37663:0:0:0:0:
256,192,36439,1,0,0:0:0:0:
402,192,36439,1,0,0:0:0:0:
329,192,36541,1,0,0:0:0:0:
402,192,36643,1,0,0:0:0:0:
475,192,36745,1,0,0:0:0:0:
475,192,36847,1,0,0:0:0:0:
402,192,36949,1,0,0:0:0:0:
256,192,36949,1,0,0:0:0:0:
329,192,37051,1,0,0:0:0:0:
109,192,37153,1,0,0:0:0:0:
256,192,37255,1,0,0:0:0:0:
329,192,37357,1,0,0:0:0:0:
402,192,37459,1,0,0:0:0:0:
329,192,37561,1,0,0:0:0:0:
475,192,37561,1,0,0:0:0:0:
402,192,37663,1,0,0:0:0:0:
256,192,37663,1,0,0:0:0:0:
109,192,37868,1,0,0:0:0:0:
182,192,37868,1,0,0:0:0:0:
256,192,37868,1,0,0:0:0:0:
182,192,38174,1,0,0:0:0:0:
256,192,38174,1,0,0:0:0:0:
329,192,38174,1,0,0:0:0:0:
256,192,38480,1,0,0:0:0:0:
329,192,38480,1,0,0:0:0:0:
402,192,38480,1,0,0:0:0:0:
36,192,38888,128,0,40521:0:0:0:0:
109,192,39092,128,0,40521:0:0:0:0:
402,192,39296,128,0,40521:0:0:0:0:
329,192,39296,1,0,0:0:0:0:
256,192,39398,1,0,0:0:0:0:
329,192,39500,128,0,40521:0:0:0:0:
182,192,39500,1,0,0:0:0:0:
182,192,40112,1,0,0:0:0:0:
256,192,40214,1,0,0:0:0:0:
182,192,40316,1,0,0:0:0:0:
475,192,40316,1,0,0:0:0:0:
256,192,40521,1,0,0:0:0:0:
475,192,40521,1,0,0:0:0:0:
402,192,40725,1,0,0:0:0:0:
182,192,40725,1,0,0:0:0:0:
329,192,40929,1,0,0:0:0:0:
109,192,40929,1,0,0:0:0:0:
182,192,41133,1,0,0:0:0:0:
256,192,41133,1,0,0:0:0:0:
329,192,41133,128,0,41949:0:0:0:0:
109,192,41745,1,0,0:0:0:0:
182,192,41847,1,0,0:0:0:0:
256,192,41949,1,0,0:0:0:0:
475,192,42561,1,0,0:0:0:0:
329,192,42765,1,0,0:0:0:0:
475,192,42765,1,0,0:0:0:0:
256,192,42765,128,0,43378:0:0:0:0:
329,192,43378,1,0,0:0:0:0:
182,192,43378,1,0,0:0:0:0:
256,192,43582,1,0,0:0:0:0:
109,192,43582,1,0,0:0:0:0:
182,192,43990,1,0,0:0:0:0:
109,192,44092,1,0,0:0:0:0:
36,192,44194,1,0,0:0:0:0:
109,192,44296,1,0,0:0:0:0:
182,192,44398,1,0,0:0:0:0:
256,192,44500,1,0,0:0:0:0:
329,192,44602,1,0,0:0:0:0:
402,192,44704,1,0,0:0:0:0:
475,192,44806,1,0,0:0:0:0:
402,192,44908,1,0,0:0:0:0:
329,192,45010,1,0,0:0:0:0:
256,192,45112,1,0,0:0:0:0:
182,192,45112,1,0,0:0:0:0:
109,192,45214,1,0,0:0:0:0:
329,192,45214,1,0,0:0:0:0:
109,192,45419,1,0,0:0:0:0:
182,192,45419,1,0,0:0:0:0:
256,192,45521,1,0,0:0:0:0:
109,192,45623,1,0,0:0:0:0:
36,192,45623,1,0,0:0:0:0:
182,192,45827,1,0,0:0:0:0:
329,192,45827,1,0,0:0:0:0:
256,192,46031,128,0,46541:0:0:0:0:
329,192,46031,128,0,46541:0:0:0:0:
36,192,46847,1,0,0:0:0:0:
109,192,46898,1,0,0:0:0:0:
182,192,46949,1,0,0:0:0:0:
256,192,47000,1,0,0:0:0:0:
329,192,47051,1,0,0:0:0:0:
402,192,47102,1,0,0:0:0:0:
475,192,47153,1,0,0:0:0:0:
36,192,47153,1,0,0:0:0:0:
109,192,47204,1,0,0:0:0:0:
182,192,47255,1,0,0:0:0:0:
256,192,47306,1,0,0:0:0:0:
329,192,47357,1,0,0:0:0:0:
402,192,47408,1,0,0:0:0:0:
475,192,47459,1,0,0:0:0:0:
329,192,47663,128,0,48072:0:0:0:0:
182,192,47663,128,0,48072:0:0:0:0:
256,192,47663,1,0,0:0:0:0:
36,192,48276,1,0,0:0:0:0:
182,192,48276,1,0,0:0:0:0:
109,192,48378,1,0,0:0:0:0:
182,192,48480,128,0,49092:0:0:0:0:
36,192,48480,128,0,49092:0:0:0:0:
329,192,49092,1,0,0:0:0:0:
402,192,49194,1,0,0:0:0:0:
475,192,49296,1,0,0:0:0:0:
256,192,49296,128,0,49500:0:0:0:0:
182,192,49500,128,0,49704:0:0:0:0:
329,192,49500,1,0,0:0:0:0:
109,192,49704,128,0,49908:0:0:0:0:
402,192,49704,1,0,0:0:0:0:
36,192,49908,128,0,50112:0:0:0:0:
475,192,49908,1,0,0:0:0:0:
109,192,50112,128,0,50316:0:0:0:0:
402,192,50112,1,0,0:0:0:0:
182,192,50316,128,0,50521:0:0:0:0:
329,192,50316,1,0,0:0:0:0:
256,192,50521,128,0,50725:0:0:0:0:
402,192,50521,1,0,0:0:0:0:
329,192,50725,1,0,0:0:0:0:
402,192,50827,1,0,0:0:0:0:
475,192,50929,1,0,0:0:0:0:
475,192,51133,1,0,0:0:0:0:
329,192,51235,1,0,0:0:0:0:
402,192,51337,1,0,0:0:0:0:
256,192,51541,1,0,0:0:0:0:
182,192,51643,1,0,0:0:0:0:
329,192,51745,1,0,0:0:0:0:
329,192,51949,1,0,0:0:0:0:
256,192,52051,1,0,0:0:0:0:
182,192,52153,1,0,0:0:0:0:
109,192,52255,1,0,0:0:0:0:
36,192,52357,1,0,0:0:0:0:
256,192,52561,1,0,0:0:0:0:
402,192,52561,1,0,0:0:0:0:
256,192,52765,1,0,0:0:0:0:
402,192,52765,1,0,0:0:0:0:
256,192,53174,1,0,0:0:0:0:
402,192,53174,1,0,0:0:0:0:
109,192,53582,1,0,0:0:0:0:
256,192,53582,1,0,0:0:0:0:
182,192,53633,1,0,0:0:0:0:
109,192,53786,1,0,0:0:0:0:
256,192,53786,1,0,0:0:0:0:
36,192,54194,128,0,55827:0:0:0:0:
109,192,54194,1,0,0:0:0:0:
329,192,54194,1,0,0:0:0:0:
256,192,54296,1,0,0:0:0:0:
402,192,54398,1,0,0:0:0:0:
182,192,54398,1,0,0:0:0:0:
329,192,54500,1,0,0:0:0:0:
475,192,54602,1,0,0:0:0:0:
256,192,54602,1,0,0:0:0:0:
329,192,54704,1,0,0:0:0:0:
402,192,54806,1,0,0:0:0:0:
182,192,54806,1,0,0:0:0:0:
256,192,54908,1,0,0:0:0:0:
109,192,55010,1,0,0:0:0:0:
329,192,55010,1,0,0:0:0:0:
256,192,55112,1,0,0:0:0:0:
182,192,55214,1,0,0:0:0:0:
402,192,55214,1,0,0:0:0:0:
256,192,55316,1,0,0:0:0:0:
329,192,55419,1,0,0:0:0:0:
109,192,55419,1,0,0:0:0:0:
182,192,55521,1,0,0:0:0:0:
256,192,55623,1,0,0:0:0:0:
475,192,55623,1,0,0:0:0:0:
109,192,55725,1,0,0:0:0:0:
402,192,55827,128,0,57459:0:0:0:0:
329,192,55827,1,0,0:0:0:0:
182,192,55827,1,0,0:0:0:0:
256,192,55929,1,0,0:0:0:0:
36,192,56031,1,0,0:0:0:0:
329,192,56031,1,0,0:0:0:0:
256,192,56133,1,0,0:0:0:0:
109,192,56235,1,0,0:0:0:0:
329,192,56235,1,0,0:0:0:0:
256,192,56337,1,0,0:0:0:0:
182,192,56439,1,0,0:0:0:0:
475,192,56439,1,0,0:0:0:0:
36,192,56541,1,0,0:0:0:0:
109,192,56643,1,0,0:0:0:0:
329,192,56643,1,0,0:0:0:0:
256,192,56745,1,0,0:0:0:0:
36,192,56847,1,0,0:0:0:0:
182,192,56847,1,0,0:0:0:0:
256,192,56949,1,0,0:0:0:0:
109,192,57051,1,0,0:0:0:0:
329,192,57051,1,0,0:0:0:0:
256,192,57153,1,0,0:0:0:0:
475,192,57255,1,0,0:0:0:0:
182,192,57255,1,0,0:0:0:0:
109,192,57357,1,0,0:0:0:0:
36,192,57459,1,0,0:0:0:0:
256,192,57459,1,0,0:0:0:0:
329,192,57459,128,0,59908:0:0:0:0:
182,192,57561,1,0,0:0:0:0:
109,192,57663,1,0,0:0:0:0:
475,192,57663,1,0,0:0:0:0:
182,192,57765,1,0,0:0:0:0:
36,192,57868,1,0,0:0:0:0:
256,192,57868,1,0,0:0:0:0:
109,192,57970,1,0,0:0:0:0:
182,192,58072,1,0,0:0:0:0:
402,192,58072,1,0,0:0:0:0:
256,192,58174,1,0,0:0:0:0:
109,192,58276,1,0,0:0:0:0:
402,192,58276,1,0,0:0:0:0:
475,192,58378,1,0,0:0:0:0:
256,192,58480,1,0,0:0:0:0:
36,192,58480,1,0,0:0:0:0:
402,192,58582,1,0,0:0:0:0:
256,192,58684,1,0,0:0:0:0:
475,192,58684,1,0,0:0:0:0:
182,192,58786,1,0,0:0:0:0:
109,192,58888,1,0,0:0:0:0:
402,192,58888,1,0,0:0:0:0:
182,192,58990,1,0,0:0:0:0:
36,192,59092,1,0,0:0:0:0:
256,192,59092,1,0,0:0:0:0:
109,192,59194,1,0,0:0:0:0:
182,192,59296,1,0,0:0:0:0:
402,192,59296,1,0,0:0:0:0:
256,192,59398,1,0,0:0:0:0:
109,192,59500,1,0,0:0:0:0:
402,192,59500,1,0,0:0:0:0:
182,192,59602,1,0,0:0:0:0:
256,192,59704,1,0,0:0:0:0:
475,192,59704,1,0,0:0:0:0:
182,192,59806,1,0,0:0:0:0:
36,192,59908,1,0,0:0:0:0:
109,192,60010,1,0,0:0:0:0:
182,192,60112,1,0,0:0:0:0:
256,192,60214,1,0,0:0:0:0:
329,192,60316,1,0,0:0:0:0:
402,192,60419,1,0,0:0:0:0:
475,192,60521,1,0,0:0:0:0:
329,192,60521,1,0,0:0:0:0:
402,192,60623,1,0,0:0:0:0:
329,192,60725,1,0,0:0:0:0:
182,192,60725,1,0,0:0:0:0:
256,192,60725,128,0,62153:0:0:0:0:
109,192,60827,1,0,0:0:0:0:
329,192,60929,1,0,0:0:0:0:
36,192,60929,1,0,0:0:0:0:
402,192,61337,1,0,0:0:0:0:
36,192,61337,1,0,0:0:0:0:
109,192,61439,1,0,0:0:0:0:
475,192,61439,1,0,0:0:0:0:
402,192,61541,1,0,0:0:0:0:
182,192,61541,1,0,0:0:0:0:
36,192,61745,128,0,62153:0:0:0:0:
109,192,61949,128,0,62153:0:0:0:0:
475,192,62153,128,0,63582:0:0:0:0:
402,192,62153,1,0,0:0:0:0:
329,192,62255,1,0,0:0:0:0:
402,192,62357,1,0,0:0:0:0:
182,192,62357,1,0,0:0:0:0:
109,192,62459,1,0,0:0:0:0:
329,192,62459,1,0,0:0:0:0:
182,192,62561,1,0,0:0:0:0:
402,192,62561,1,0,0:0:0:0:
329,192,62970,1,0,0:0:0:0:
109,192,62970,1,0,0:0:0:0:
256,192,63072,1,0,0:0:0:0:
36,192,63072,1,0,0:0:0:0:
109,192,63174,1,0,0:0:0:0:
182,192,63174,1,0,0:0:0:0:
402,192,63174,128,0,63582:0:0:0:0:
329,192,63378,128,0,63582:0:0:0:0:
36,192,63786,1,0,0:0:0:0:
109,192,63786,1,0,0:0:0:0:
256,192,63786,1,0,0:0:0:0:
402,192,63786,1,0,0:0:0:0:
182,192,63990,1,0,0:0:0:0:
329,192,63990,1,0,0:0:0:0:
475,192,63990,1,0,0:0:0:0:
402,192,63990,1,0,0:0:0:0:
36,192,64296,1,0,0:0:0:0:
182,192,64296,1,0,0:0:0:0:
329,192,64296,1,0,0:0:0:0:
109,192,64602,1,0,0:0:0:0:
256,192,64602,1,0,0:0:0:0:
402,192,64602,1,0,0:0:0:0:
109,192,65010,1,0,0:0:0:0:
256,192,65010,1,0,0:0:0:0:
36,192,65112,1,0,0:0:0:0:
182,192,65112,1,0,0:0:0:0:
109,192,65214,1,0,0:0:0:0:
256,192,65214,1,0,0:0:0:0:
182,192,65419,1,0,0:0:0:0:
402,192,65419,1,0,0:0:0:0:
329,192,65623,1,0,0:0:0:0:
256,192,65623,1,0,0:0:0:0:
36,192,65827,1,0,0:0:0:0:
109,192,65929,1,0,0:0:0:0:
182,192,66031,1,0,0:0:0:0:
256,192,66133,1,0,0:0:0:0:
329,192,66235,1,0,0:0:0:0:
109,192,66337,1,0,0:0:0:0:
182,192,66439,1,0,0:0:0:0:
256,192,66541,1,0,0:0:0:0:
329,192,66643,1,0,0:0:0:0:
402,192,66745,1,0,0:0:0:0:
475,192,66847,1,0,0:0:0:0:
36,192,67255,128,0,68888:0:0:0:0:
109,192,67255,1,0,0:0:0:0:
329,192,67255,1,0,0:0:0:0:
182,192,67357,1,0,0:0:0:0:
256,192,67459,1,0,0:0:0:0:
475,192,67459,1,0,0:0:0:0:
402,192,67561,1,0,0:0:0:0:
329,192,67663,1,0,0:0:0:0:
109,192,67663,1,0,0:0:0:0:
402,192,67765,1,0,0:0:0:0:
475,192,67868,1,0,0:0:0:0:
182,192,67868,1,0,0:0:0:0:
402,192,67970,1,0,0:0:0:0:
329,192,68072,1,0,0:0:0:0:
109,192,68072,1,0,0:0:0:0:
182,192,68174,1,0,0:0:0:0:
256,192,68276,1,0,0:0:0:0:
475,192,68276,1,0,0:0:0:0:
402,192,68378,1,0,0:0:0:0:
329,192,68480,1,0,0:0:0:0:
109,192,68480,1,0,0:0:0:0:
182,192,68582,1,0,0:0:0:0:
256,192,68684,1,0,0:0:0:0:
475,192,68684,1,0,0:0:0:0:
329,192,68786,1,0,0:0:0:0:
182,192,68888,128,0,70521:0:0:0:0:
256,192,68888,1,0,0:0:0:0:
475,192,68888,1,0,0:0:0:0:
402,192,68990,1,0,0:0:0:0:
329,192,69092,1,0,0:0:0:0:
109,192,69092,1,0,0:0:0:0:
402,192,69194,1,0,0:0:0:0:
36,192,69296,1,0,0:0:0:0:
256,192,69296,1,0,0:0:0:0:
329,192,69398,1,0,0:0:0:0:
256,192,69500,1,0,0:0:0:0:
475,192,69500,1,0,0:0:0:0:
36,192,69602,1,0,0:0:0:0:
329,192,69704,1,0,0:0:0:0:
109,192,69704,1,0,0:0:0:0:
402,192,69806,1,0,0:0:0:0:
36,192,69908,1,0,0:0:0:0:
475,192,69908,1,0,0:0:0:0:
402,192,70010,1,0,0:0:0:0:
329,192,70112,1,0,0:0:0:0:
109,192,70112,1,0,0:0:0:0:
256,192,70214,1,0,0:0:0:0:
36,192,70316,1,0,0:0:0:0:
475,192,70316,1,0,0:0:0:0:
109,192,70419,1,0,0:0:0:0:
329,192,70521,128,0,72153:0:0:0:0:
256,192,70521,1,0,0:0:0:0:
475,192,70521,1,0,0:0:0:0:
402,192,70623,1,0,0:0:0:0:
36,192,70725,1,0,0:0:0:0:
182,192,70725,1,0,0:0:0:0:
109,192,70827,1,0,0:0:0:0:
182,192,70929,1,0,0:0:0:0:
475,192,70929,1,0,0:0:0:0:
402,192,71031,1,0,0:0:0:0:
256,192,71133,1,0,0:0:0:0:
109,192,71133,1,0,0:0:0:0:
36,192,71235,1,0,0:0:0:0:
402,192,71337,1,0,0:0:0:0:
182,192,71337,1,0,0:0:0:0:
109,192,71439,1,0,0:0:0:0:
36,192,71541,1,0,0:0:0:0:
256,192,71541,1,0,0:0:0:0:
475,192,71643,1,0,0:0:0:0:
402,192,71745,1,0,0:0:0:0:
109,192,71745,1,0,0:0:0:0:
256,192,71847,1,0,0:0:0:0:
182,192,71949,1,0,0:0:0:0:
36,192,71949,1,0,0:0:0:0:
109,192,72051,1,0,0:0:0:0:
182,192,72153,1,0,0:0:0:0:
402,192,72153,1,0,0:0:0:0:
475,192,72153,128,0,73378:0:0:0:0:
256,192,72255,1,0,0:0:0:0:
182,192,72357,1,0,0:0:0:0:
329,192,72459,128,0,73378:0:0:0:0:
109,192,72459,1,0,0:0:0:0:
36,192,72561,1,0,0:0:0:0:
109,192,72663,1,0,0:0:0:0:
402,192,72765,128,0,73378:0:0:0:0:
182,192,72765,1,0,0:0:0:0:
256,192,72868,1,0,0:0:0:0:
109,192,72868,1,0,0:0:0:0:
182,192,72970,1,0,0:0:0:0:
36,192,72970,1,0,0:0:0:0:
109,192,73072,1,0,0:0:0:0:
182,192,73174,1,0,0:0:0:0:
256,192,73276,1,0,0:0:0:0:
182,192,73378,1,0,0:0:0:0:
36,192,73582,1,0,0:0:0:0:
182,192,73582,1,0,0:0:0:0:
109,192,73684,1,0,0:0:0:0:
256,192,73684,1,0,0:0:0:0:
182,192,73786,1,0,0:0:0:0:
329,192,73786,1,0,0:0:0:0:
402,192,73786,128,0,75010:0:0:0:0:
256,192,74092,1,0,0:0:0:0:
475,192,74092,1,0,0:0:0:0:
109,192,74398,1,0,0:0:0:0:
329,192,74398,1,0,0:0:0:0:
182,192,74602,1,0,0:0:0:0:
109,192,74704,1,0,0:0:0:0:
36,192,74806,1,0,0:0:0:0:
475,192,74806,128,0,75010:0:0:0:0:
109,192,74908,1,0,0:0:0:0:
182,192,75010,1,0,0:0:0:0:
329,192,75010,1,0,0:0:0:0:
36,192,75010,128,0,79296:0:0:0:0:
256,192,75112,1,0,0:0:0:0:
256,192,75214,1,0,0:0:0:0:
329,192,75316,1,0,0:0:0:0:
402,192,75419,1,0,0:0:0:0:
475,192,75419,1,0,0:0:0:0:
402,192,75521,1,0,0:0:0:0:
329,192,75623,1,0,0:0:0:0:
256,192,75725,1,0,0:0:0:0:
182,192,75827,1,0,0:0:0:0:
109,192,75827,1,0,0:0:0:0:
182,192,75929,1,0,0:0:0:0:
256,192,76031,1,0,0:0:0:0:
329,192,76133,1,0,0:0:0:0:
402,192,76235,1,0,0:0:0:0:
256,192,76235,1,0,0:0:0:0:
329,192,76337,1,0,0:0:0:0:
329,192,76439,1,0,0:0:0:0:
256,192,76541,1,0,0:0:0:0:
109,192,76643,1,0,0:0:0:0:
182,192,76643,1,0,0:0:0:0:
182,192,76745,1,0,0:0:0:0:
256,192,76847,1,0,0:0:0:0:
329,192,76949,1,0,0:0:0:0:
402,192,77051,1,0,0:0:0:0:
475,192,77051,1,0,0:0:0:0:
402,192,77153,1,0,0:0:0:0:
329,192,77255,1,0,0:0:0:0:
256,192,77357,1,0,0:0:0:0:
182,192,77459,1,0,0:0:0:0:
109,192,77459,1,0,0:0:0:0:
182,192,77561,1,0,0:0:0:0:
256,192,77663,1,0,0:0:0:0:
329,192,77765,1,0,0:0:0:0:
256,192,77868,1,0,0:0:0:0:
402,192,77868,1,0,0:0:0:0:
329,192,77970,1,0,0:0:0:0:
329,192,78072,1,0,0:0:0:0:
256,192,78174,1,0,0:0:0:0:
182,192,78276,1,0,0:0:0:0:
109,192,78378,1,0,0:0:0:0:
182,192,78480,1,0,0:0:0:0:
256,192,78582,1,0,0:0:0:0:
329,192,78684,1,0,0:0:0:0:
402,192,78786,1,0,0:0:0:0:
475,192,78888,1,0,0:0:0:0:
402,192,78990,1,0,0:0:0:0:
329,192,79092,1,0,0:0:0:0:
475,192,79092,1,0,0:0:0:0:
256,192,79194,1,0,0:0:0:0:
402,192,79194,1,0,0:0:0:0:
182,192,79296,1,0,0:0:0:0:
329,192,79296,1,0,0:0:0:0:
36,192,79602,1,0,0:0:0:0:
109,192,79653,1,0,0:0:0:0:
182,192,79704,1,0,0:0:0:0:
256,192,79755,1,0,0:0:0:0:
329,192,79806,1,0,0:0:0:0:
402,192,79857,1,0,0:0:0:0:
475,192,79908,1,0,0:0:0:0:
36,192,80010,1,0,0:0:0:0:
109,192,80061,1,0,0:0:0:0:
182,192,80112,1,0,0:0:0:0:
256,192,80163,1,0,0:0:0:0:
329,192,80214,1,0,0:0:0:0:
402,192,80265,1,0,0:0:0:0:
475,192,80316,128,0,80725:0:0:0:0:
402,192,80725,1,0,0:0:0:0:
256,192,80725,1,0,0:0:0:0:
329,192,80827,1,0,0:0:0:0:
402,192,80929,1,0,0:0:0:0:
182,192,80929,1,0,0:0:0:0:
329,192,81031,1,0,0:0:0:0:
402,192,81133,1,0,0:0:0:0:
109,192,81133,1,0,0:0:0:0:
329,192,81235,1,0,0:0:0:0:
402,192,81337,1,0,0:0:0:0:
36,192,81337,1,0,0:0:0:0:
329,192,81439,1,0,0:0:0:0:
109,192,81541,1,0,0:0:0:0:
402,192,81541,1,0,0:0:0:0:
329,192,81643,1,0,0:0:0:0:
182,192,81745,1,0,0:0:0:0:
402,192,81745,1,0,0:0:0:0:
256,192,81949,1,0,0:0:0:0:
329,192,82051,1,0,0:0:0:0:
36,192,82051,1,0,0:0:0:0:
402,192,82153,1,0,0:0:0:0:
109,192,82153,1,0,0:0:0:0:
475,192,82255,1,0,0:0:0:0:
182,192,82255,1,0,0:0:0:0:
36,192,82357,1,0,0:0:0:0:
256,192,82357,1,0,0:0:0:0:
109,192,82459,1,0,0:0:0:0:
182,192,82561,1,0,0:0:0:0:
329,192,82765,1,0,0:0:0:0:
402,192,82765,1,0,0:0:0:0:
256,192,82970,1,0,0:0:0:0:
109,192,82970,1,0,0:0:0:0:
329,192,83378,1,0,0:0:0:0:
475,192,83378,1,0,0:0:0:0:
36,192,83582,128,0,85214:0:0:0:0:
109,192,83888,128,0,86643:0:0:0:0:
182,192,84194,128,0,86643:0:0:0:0:
256,192,84500,128,0,86643:0:0:0:0:
402,192,84806,128,0,86643:0:0:0:0:
475,192,85214,128,0,86643:0:0:0:0:
36,192,86847,1,0,0:0:0:0:
329,192,86847,1,0,0:0:0:0:
402,192,86847,1,0,0:0:0:0:
475,192,86847,1,0,0:0:0:0:
