osu file format v14

[General]
AudioFilename: redo.mp3
AudioLeadIn: 0
PreviewTime: 54791
Countdown: 0
SampleSet: None
StackLeniency: 0.7
Mode: 0
LetterboxInBreaks: 1
WidescreenStoryboard: 0

[Editor]
DistanceSpacing: 1
BeatDivisor: 4
GridSize: 8
TimelineZoom: 1.1

[Metadata]
Title:Redo
TitleUnicode:Redo
Artist:Suzuki Konomi
ArtistUnicode:Suzuki Konomi
Creator:ohad1881
Version:extrad1881 (ar 9.5)
Source:
Tags:op Re:Zero kara Hajimeru Isekai Seikatsu
BeatmapID:1114547
BeatmapSetID:525151

[Difficulty]
HPDrainRate:4
CircleSize:4
OverallDifficulty:8.5
ApproachRate:9.5
SliderMultiplier:1.9
SliderTickRate:1

[Events]
//Background and Video events
0,0,"lul.jpg",0,0
//Break Periods
//Storyboard Layer 0 (Background)
//Storyboard Layer 1 (Fail)
//Storyboard Layer 2 (Pass)
//Storyboard Layer 3 (Foreground)
//Storyboard Sound Samples

[TimingPoints]
634,315.789473684211,4,1,0,100,1,0
634,-200,4,1,0,33,0,0
1818,-200,4,1,0,5,0,0
1897,-100,4,1,0,50,0,0
6949,-80,4,1,0,63,0,0
12002,-100,4,1,0,50,0,0
27081,-100,4,1,0,5,0,0
27160,-100,4,1,0,50,0,0
32212,-200,4,1,0,25,0,0
36791,-80,4,1,0,63,0,0
37265,-100,4,1,0,50,0,0
42318,-200,4,1,0,25,0,0
47370,-100,4,1,0,50,0,0
49897,-80,4,1,0,63,0,0
52423,-66.6666666666667,4,1,0,75,0,0
54870,-66.6666666666667,4,1,0,5,0,0
54949,-55.5555555555556,4,1,0,100,0,1
70028,-55.5555555555556,4,1,0,5,0,1
70107,-55.5555555555556,4,1,0,100,0,1
87397,-55.5555555555556,4,1,0,5,0,1
87476,-55.5555555555556,4,1,0,100,0,1
88976,-55.5555555555556,4,1,0,5,0,1
89055,-80,4,1,0,63,0,0
94107,-100,4,1,0,50,0,0
114318,-200,4,1,0,25,0,0
118423,-80,4,1,0,63,0,0
119370,-100,4,1,0,50,0,0
123160,-80,4,1,0,63,0,0
124423,-200,4,1,0,25,0,0
129476,-100,4,1,0,50,0,0
132002,-80,4,1,0,63,0,0
134528,-66.6666666666667,4,1,0,75,0,0
139502,-66.6666666666667,4,1,0,5,0,0
139581,-200,4,1,0,25,0,0
142107,-55.5555555555556,4,1,0,100,0,1
157186,-55.5555555555556,4,1,0,5,0,1
157265,-55.5555555555556,4,1,0,100,0,1
174555,-55.5555555555556,4,1,0,5,0,1
174634,-55.5555555555556,4,1,0,100,0,1
176212,-66.6666666666667,4,1,0,75,0,0
187502,-66.6666666666667,4,1,0,5,0,0
187581,-133.333333333333,4,1,0,33,0,0
192634,-200,4,1,0,25,0,0
197607,-200,4,1,0,5,0,0
197686,-80,4,1,0,63,0,0
200212,-66.6666666666667,4,1,0,75,0,0
202660,-66.6666666666667,4,1,0,5,0,0
202739,-200,4,1,0,25,0,0
207791,-133.333333333333,4,1,0,33,0,0
209055,-100,4,1,0,50,0,0
210318,-80,4,1,0,63,0,0
212844,-66.6666666666667,4,1,0,75,0,0
214423,-100,4,1,0,50,0,0
215370,-133.333333333333,4,1,0,50,0,0
217818,-133.333333333333,4,1,0,5,0,0
217897,-55.5555555555556,4,1,0,100,0,1
251686,-55.5555555555556,4,1,0,5,0,1
252002,-100,4,1,0,50,0,0

[HitObjects]
300,100,634,6,2,P|319:72|297:130,1,356.25
221,107,1897,6,0,P|159:99|103:113,1,95
423,342,2370,2,0,B|440:262|418:198|418:198|418:130,1,190,8|0,0:0|0:0,0:0:0:0:
276,282,2844,2,0,P|228:287|182:279,1,95
25,169,3160,6,0,L|38:278,1,95
331,22,3634,2,0,L|273:236,1,190,8|0,0:0|0:0,0:0:0:0:
454,127,4107,2,0,L|441:236,1,95
295,343,4423,6,0,B|246:349|246:349|163:333,1,95
5,12,4897,2,0,P|70:27|103:157,1,190,8|0,0:0|0:0,0:0:0:0:
33,306,5370,2,0,B|82:312|82:312|165:296,1,95
255,161,5686,6,0,L|256:276,1,95
491,17,6160,2,0,B|441:62|441:62|378:64|378:64|298:104,1,190,8|0,0:0|0:0,0:0:0:0:
178,213,6634,2,0,L|177:328,1,95
76,92,6949,6,0,P|150:84|214:100,1,118.75
352,198,7265,1,0,0:0:0:0:
260,31,7423,1,0,0:0:0:0:
258,268,7581,1,8,0:0:0:0:
410,85,7739,1,0,0:0:0:0:
198,193,7897,1,0,0:0:0:0:
419,278,8055,1,0,0:0:0:0:
248,114,8212,6,0,P|173:108|118:146,1,118.75
79,309,8528,1,0,0:0:0:0:
23,127,8686,2,0,L|61:189,1,59.375
141,260,8844,2,0,P|211:274|274:263,1,118.75,8|0,0:0|0:0,0:0:0:0:
410,85,9160,1,0,0:0:0:0:
336,311,9318,1,0,0:0:0:0:
244,91,9476,6,0,L|79:41,1,118.75
317,24,9791,1,0,0:0:0:0:
184,159,9949,1,0,0:0:0:0:
410,85,10107,1,8,0:0:0:0:
269,276,10265,1,0,0:0:0:0:
410,85,10423,1,0,0:0:0:0:
420,322,10581,1,0,0:0:0:0:
265,141,10739,6,0,B|208:127|208:127|95:128,1,118.75
3,253,11055,1,0,0:0:0:0:
70,76,11212,2,0,L|78:169,1,59.375
104,251,11370,1,8,0:0:0:0:
149,17,11528,1,0,0:0:0:0:
104,251,11686,1,0,0:0:0:0:
149,17,11844,1,0,0:0:0:0:
190,312,12002,6,0,P|115:347|5:282,1,190,12|0,0:0|0:0,0:0:0:0:
10,116,12476,1,0,0:0:0:0:
180,201,12634,2,0,P|255:236|365:171,1,190,8|0,0:0|0:0,0:0:0:0:
465,46,13107,1,0,0:0:0:0:
432,253,13265,2,0,B|383:219|362:147|362:147|368:55,1,190,8|0,0:0|0:0,0:0:0:0:
499,160,13739,1,0,0:0:0:0:
319,222,13897,6,0,P|265:228|206:205,1,95,8|0,0:0|0:0,0:0:0:0:
82,92,14212,2,0,P|136:98|195:75,1,95
403,18,14528,6,0,B|398:114|398:114|416:245,1,190,8|0,0:0|0:0,0:0:0:0:
257,92,15002,1,0,0:0:0:0:
101,207,15160,2,0,B|113:114|113:114|109:18,1,190,8|0,0:0|0:0,0:0:0:0:
10,182,15634,1,0,0:0:0:0:
174,310,15791,2,0,B|245:316|245:316|306:308|306:308|374:319,1,190,8|0,0:0|0:0,0:0:0:0:
506,369,16265,1,0,0:0:0:0:
411,203,16423,6,0,P|381:158|331:133,1,95,8|0,0:0|0:0,0:0:0:0:
164,79,16739,1,0,0:0:0:0:
349,36,16897,1,0,0:0:0:0:
214,169,17055,6,0,P|174:194|149:234,1,95,8|0,0:0|0:0,0:0:0:0:
314,329,17370,2,0,P|289:288|249:263,1,95
58,247,17686,1,8,0:0:0:0:
202,370,17844,1,0,0:0:0:0:
58,247,18002,2,0,P|48:177|68:124,1,95
215,20,18318,5,8,0:0:0:0:
163,223,18476,1,0,0:0:0:0:
70,36,18634,1,0,0:0:0:0:
260,125,18791,1,0,0:0:0:0:
54,159,18949,2,0,B|59:248|59:248|107:361,1,190,8|0,0:0|0:0,0:0:0:0:
185,170,19423,1,0,0:0:0:0:
295,348,19581,6,0,P|364:369|488:349,1,190,12|0,0:0|0:0,0:0:0:0:
390,183,20055,1,0,0:0:0:0:
220,303,20212,2,0,P|151:324|27:304,1,190,8|0,0:0|0:0,0:0:0:0:
124,138,20686,1,0,0:0:0:0:
289,268,20844,2,0,B|301:212|301:212|291:136|291:136|312:53,1,190,8|0,0:0|0:0,0:0:0:0:
489,30,21318,1,0,0:0:0:0:
280,17,21476,2,0,B|225:3|225:3|149:13|149:13|93:1,1,190,8|0,0:0|0:0,0:0:0:0:
224,138,21949,1,0,0:0:0:0:
247,173,22028,1,0,0:0:0:0:
260,213,22107,6,0,P|260:280|175:223,1,190,8|0,0:0|0:0,0:0:0:0:
87,82,22581,1,0,0:0:0:0:
170,254,22739,2,0,P|97:292|79:212,1,190,8|0,0:0|0:0,0:0:0:0:
219,82,23212,1,0,0:0:0:0:
312,269,23370,2,0,P|262:343|138:371,1,190,8|0,0:0|0:0,0:0:0:0:
25,323,23844,1,0,0:0:0:0:
171,201,24002,2,0,P|237:181|288:192,1,95,8|0,0:0|0:0,0:0:0:0:
92,95,24318,2,0,P|26:75|-25:86,1,95
234,24,24634,6,0,P|288:6|459:33,1,190,8|0,0:0|0:0,0:0:0:0:
328,181,25107,1,0,0:0:0:0:
175,67,25265,2,0,P|161:160|184:252,1,190,8|0,0:0|0:0,0:0:0:0:
314,112,25739,1,0,0:0:0:0:
266,316,25897,2,0,B|198:323|198:323|135:316|135:316|54:332,1,190,8|0,0:0|0:0,0:0:0:0:
74,137,26370,1,0,0:0:0:0:
267,221,26528,2,0,P|325:242|356:286,1,95,8|0,0:0|0:0,0:0:0:0:
306,49,26844,2,0,P|225:74|168:156,1,142.5
174,164,27160,6,0,B|128:176|128:176|37:162,1,95,12|0,0:0|0:0,0:0:0:0:
211,308,27476,2,0,B|257:320|257:320|348:306,1,95
437,151,27791,1,8,0:0:0:0:
412,359,27949,1,0,0:0:0:0:
292,189,28107,1,0,0:0:0:0:
485,269,28265,1,0,0:0:0:0:
292,189,28423,6,0,P|210:182|169:199,1,95,8|0,0:0|0:0,0:0:0:0:
159,212,28660,1,0,0:0:0:0:
120,239,28739,2,0,P|73:245|27:235,1,95
45,36,29055,6,0,L|61:151,1,95,8|0,0:0|0:0,0:0:0:0:
104,142,29291,1,0,0:0:0:0:
151,147,29370,2,0,P|212:142|257:114,1,95
423,17,29686,5,8,0:0:0:0:
403,206,29844,1,0,0:0:0:0:
291,53,30002,2,0,L|167:61,1,95
8,153,30318,5,8,0:0:0:0:
184,224,30476,1,0,0:0:0:0:
96,55,30634,2,0,P|83:132|106:177,1,95
175,336,30949,5,8,0:0:0:0:
225,133,31107,1,0,0:0:0:0:
90,338,31265,1,0,0:0:0:0:
257,211,31423,1,0,0:0:0:0:
8,324,31581,1,8,0:0:0:0:
254,293,31739,1,0,0:0:0:0:
46,157,31897,1,0,0:0:0:0:
254,293,32055,1,0,0:0:0:0:
170,62,32212,6,0,P|218:50|344:128,1,190
342,322,33476,2,0,P|294:334|168:256,1,190
419,158,34739,6,0,L|435:359,1,190
77,347,36002,2,0,L|93:158,1,190
202,2,36791,1,12,0:0:0:0:
234,237,36949,2,0,L|248:364,1,118.75,8|0,0:0|0:0,0:0:0:0:
322,179,37265,6,0,L|344:80,1,95,8|0,0:0|0:0,0:0:0:0:
462,235,37581,2,0,L|482:327,1,95
291,328,37897,2,0,P|372:304|421:315,1,95,8|0,0:0|0:0,0:0:0:0:
212,215,38212,2,0,P|131:191|82:202,1,95
254,53,38528,1,8,0:0:0:0:
74,117,38686,1,0,0:0:0:0:
254,53,38844,2,0,P|335:29|384:40,1,95
471,172,39160,5,8,0:0:0:0:
344,29,39318,1,0,0:0:0:0:
336,218,39476,2,0,L|330:330,1,95
172,208,39791,2,0,L|271:157,1,95,8|0,0:0|0:0,0:0:0:0:
47,68,40107,1,0,0:0:0:0:
66,278,40265,1,0,0:0:0:0:
160,91,40423,1,8,0:0:0:0:
66,278,40581,1,0,0:0:0:0:
253,63,40739,6,0,L|351:31,1,95
260,308,41055,1,8,0:0:0:0:
160,91,41212,1,0,0:0:0:0:
363,215,41370,1,0,0:0:0:0:
126,209,41528,1,0,0:0:0:0:
397,115,41686,1,8,0:0:0:0:
260,364,41844,1,0,0:0:0:0:
253,79,42002,1,0,0:0:0:0:
381,335,42160,2,0,L|321:304,1,47.5
126,209,42318,6,0,P|84:260|123:381,1,190,12|0,0:0|0:0,0:0:0:0:
169,296,43107,1,0,0:0:0:0:
215,212,43265,2,0,L|234:150,1,47.5
272,54,43581,2,0,P|187:72|107:28,1,166.25,8|0,0:0|0:0,0:0:0:0:
96,6,44212,2,0,L|70:62,1,47.5
86,144,44528,2,0,L|60:200,1,47.5
59,308,44844,6,0,B|131:327|189:307|189:307|258:304,1,190,8|0,0:0|0:0,0:0:0:0:
311,76,45791,2,0,L|254:37,1,47.5
296,166,46107,6,0,P|343:163|389:53,1,166.25,8|0,0:0|0:0,0:0:0:0:
360,28,46739,2,0,P|381:104|457:126,1,166.25,8|0,0:0|0:0,0:0:0:0:
494,140,47370,6,0,L|470:258,1,95,12|0,0:0|0:0,0:0:0:0:
321,346,47686,2,0,P|255:358|201:336,1,95
62,257,48002,2,0,L|86:375,1,95,8|0,0:0|0:0,0:0:0:0:
202,202,48318,2,0,P|247:189|294:196,1,95
442,317,48634,5,8,0:0:0:0:
396,133,48791,1,0,0:0:0:0:
289,290,48949,2,0,P|243:302|196:295,1,95
72,150,49265,1,8,0:0:0:0:
260,126,49423,1,0,0:0:0:0:
125,259,49581,2,0,L|111:370,1,95
141,115,49897,5,8,0:0:0:0:
214,340,50055,1,0,0:0:0:0:
287,115,50212,1,0,0:0:0:0:
78,228,50370,1,0,0:0:0:0:
373,264,50528,1,8,0:0:0:0:
173,43,50686,1,0,0:0:0:0:
214,340,50844,1,0,0:0:0:0:
0,134,51002,1,0,0:0:0:0:
331,265,51160,6,0,B|373:264|373:264|409:282|409:282|477:292,1,118.75,8|0,0:0|0:0,0:0:0:0:
320,16,51476,1,0,0:0:0:0:
234,300,51634,1,0,0:0:0:0:
320,16,51791,2,0,L|303:155,1,118.75,8|0,0:0|0:0,0:0:0:0:
512,12,52107,2,0,L|495:151,1,118.75
356,379,52423,5,8,0:0:0:0:
408,98,52581,1,8,0:0:0:0:
408,98,52897,5,8,0:0:0:0:
165,247,53055,1,8,0:0:0:0:
165,247,53370,5,8,0:0:0:0:
449,262,53528,1,8,0:0:0:0:
252,55,53686,2,0,L|265:155,1,71.2500027179719,0|8,0:0|0:0,0:0:0:0:
295,336,53844,1,0,0:0:0:0:
77,151,54002,1,0,0:0:0:0:
360,181,54160,2,0,L|283:228,1,71.2500027179719,0|8,0:0|0:0,0:0:0:0:
130,350,54318,1,0,0:0:0:0:
165,66,54476,1,0,0:0:0:0:
329,381,54634,2,0,B|357:337|357:337|339:230|339:230|379:136,1,213.750008153916,8|0,0:0|0:0,0:0:0:0:
394,103,54949,6,0,P|256:62|112:191,1,341.999989562989,12|0,0:0|0:0,0:0:0:0:
457,221,55423,2,0,P|390:98|191:85,1,341.999989562989
13,365,55897,1,0,0:0:0:0:
88,31,56055,2,0,L|109:231,1,170.999994781494,0|8,0:0|0:0,0:0:0:0:
383,1,56370,2,0,L|362:201,1,170.999994781494
330,240,56607,1,0,0:0:0:0:
283,301,56686,2,0,P|170:315|96:284,1,170.999994781494,0|8,0:0|0:0,0:0:0:0:
295,2,57002,2,0,B|326:112|331:240|331:240|384:273|419:327,1,341.999989562989
108,131,57476,5,8,0:0:0:0:
448,95,57634,1,0,0:0:0:0:
188,314,57791,1,0,0:0:0:0:
448,95,57949,1,0,0:0:0:0:
134,231,58107,1,8,0:0:0:0:
448,95,58265,1,0,0:0:0:0:
258,380,58423,1,0,0:0:0:0:
296,39,58581,1,0,0:0:0:0:
258,380,58739,5,8,0:0:0:0:
416,19,58897,1,0,0:0:0:0:
80,221,59055,1,0,0:0:0:0:
505,228,59212,2,0,B|412:196|412:196|265:194|265:194|111:148,1,341.999989562989
416,19,59686,1,0,0:0:0:0:
397,102,59764,1,0,0:0:0:0:
379,186,59843,1,0,0:0:0:0:
361,269,59922,1,0,0:0:0:0:
343,353,60002,6,0,L|266:4,1,341.999989562989,12|0,0:0|0:0,0:0:0:0:
130,334,60476,1,0,0:0:0:0:
416,19,60634,2,0,P|338:72|86:66,1,341.999989562989,8|0,0:0|0:0,0:0:0:0:
504,215,61107,2,0,P|411:233|181:129,1,341.999989562989
133,86,61502,1,0,0:0:0:0:
87,23,61581,2,0,P|28:98|16:196,1,170.999994781494
416,19,61897,2,0,P|338:72|86:66,1,341.999989562989,8|0,0:0|0:0,0:0:0:0:
504,215,62370,2,0,P|337:192|186:268,1,341.999989562989
469,263,62844,5,0,0:0:0:0:
504,215,62922,1,0,0:0:0:0:
512,156,63001,1,0,0:0:0:0:
492,100,63080,1,0,0:0:0:0:
448,61,63159,1,8,0:0:0:0:
390,47,63238,1,0,0:0:0:0:
333,62,63317,1,0,0:0:0:0:
289,102,63396,1,0,0:0:0:0:
270,158,63475,1,0,0:0:0:0:
279,216,63554,1,0,0:0:0:0:
315,263,63634,6,0,P|418:276|490:253,1,170.999994781494,0|8,0:0|0:0,0:0:0:0:
242,11,63949,1,0,0:0:0:0:
188,349,64107,1,0,0:0:0:0:
446,124,64265,1,0,0:0:0:0:
450,184,64343,1,0,0:0:0:0:
453,244,64422,1,8,0:0:0:0:
201,10,64581,5,0,0:0:0:0:
195,71,64659,1,0,0:0:0:0:
190,131,64738,1,0,0:0:0:0:
186,191,64817,1,0,0:0:0:0:
182,250,64896,1,0,0:0:0:0:
177,310,64975,1,0,0:0:0:0:
172,371,65055,6,0,B|262:365|262:365|356:320,1,170.999994781494,12|0,0:0|0:0,0:0:0:0:
11,218,65370,1,8,0:0:0:0:
320,70,65528,1,0,0:0:0:0:
174,376,65686,1,8,0:0:0:0:
93,43,65844,1,0,0:0:0:0:
174,376,66002,1,8,0:0:0:0:
210,30,66160,1,0,0:0:0:0:
174,376,66318,1,8,0:0:0:0:
320,70,66476,1,0,0:0:0:0:
11,218,66634,1,8,0:0:0:0:
348,285,66791,1,0,0:0:0:0:
93,43,66949,1,8,0:0:0:0:
174,376,67107,1,0,0:0:0:0:
320,70,67265,1,8,0:0:0:0:
11,218,67423,1,0,0:0:0:0:
320,70,67581,5,8,0:0:0:0:
172,371,67739,1,0,0:0:0:0:
492,249,67897,1,8,0:0:0:0:
165,145,68055,1,0,0:0:0:0:
420,369,68212,1,8,0:0:0:0:
359,32,68370,1,0,0:0:0:0:
254,356,68528,1,8,0:0:0:0:
239,271,68606,1,0,0:0:0:0:
225,187,68685,1,0,0:0:0:0:
211,103,68764,1,0,0:0:0:0:
196,18,68844,6,0,L|88:359,1,341.999989562989,8|0,0:0|0:0,0:0:0:0:
340,25,69318,2,0,L|444:350,1,341.999989562989
112,5,69791,2,0,L|12:317,1,256.499992172241,8|0,0:0|0:0,0:0:0:0:
20,336,70107,6,8,L|209:270,1,170.999994781494
443,55,70423,1,0,0:0:0:0:
112,5,70739,2,0,L|3:345,1,341.999989562989
256,96,71212,1,0,0:0:0:0:
502,333,71370,6,8,L|414:172,1,170.999994781494
126,3,71686,1,0,0:0:0:0:
253,342,72002,2,0,P|320:267|333:21,1,341.999989562989
61,239,72476,1,0,0:0:0:0:
119,249,72555,1,0,0:0:0:0:
178,250,72634,6,8,P|256:241|347:174,1,170.999994781494
32,26,72949,1,0,0:0:0:0:
464,30,73265,2,0,B|439:142|439:142|444:277|444:277|403:374,1,341.999989562989
255,53,73739,1,0,0:0:0:0:
67,339,73897,6,0,P|174:351|245:317,1,170.999994781494
386,23,74212,1,0,0:0:0:0:
353,363,74370,1,0,0:0:0:0:
353,363,74449,1,0,0:0:0:0:
353,363,74528,1,0,0:0:0:0:
170,73,74686,1,0,0:0:0:0:
488,197,74844,1,0,0:0:0:0:
434,223,74922,1,0,0:0:0:0:
376,238,75001,1,0,0:0:0:0:
316,241,75080,1,0,0:0:0:0:
257,233,75160,6,0,B|141:202|29:51|29:51|127:74,1,341.999989562989,8|0,0:0|0:0,0:0:0:0:
410,124,75634,1,0,0:0:0:0:
95,252,75791,2,8,P|242:275|291:258,1,170.999994781494
490,13,76107,1,0,0:0:0:0:
69,9,76423,6,0,L|127:362,1,341.999989562989
254,27,76897,1,0,0:0:0:0:
431,319,77055,2,0,B|327:323|327:323|227:295,1,170.999994781494,8|0,0:0|0:0,0:0:0:0:
512,80,77370,2,0,B|447:61|447:61|343:65,1,170.999994781494
21,188,77686,5,8,0:0:0:0:
237,136,77844,1,0,0:0:0:0:
29,56,78002,1,0,0:0:0:0:
237,136,78160,1,0,0:0:0:0:
50,257,78318,1,8,0:0:0:0:
237,136,78476,1,0,0:0:0:0:
14,127,78634,1,0,0:0:0:0:
237,136,78791,1,0,0:0:0:0:
100,311,78949,6,0,P|201:322|262:285,1,170.999994781494,8|0,0:0|0:0,0:0:0:0:
262,210,79186,1,0,0:0:0:0:
237,136,79265,2,0,P|136:125|75:162,1,170.999994781494
393,22,79581,6,0,L|408:202,1,170.999994781494,8|0,0:0|0:0,0:0:0:0:
379,265,79818,1,0,0:0:0:0:
342,332,79897,2,0,B|255:347|255:347|141:318,1,170.999994781494
315,111,80212,5,8,0:0:0:0:
368,87,80290,1,0,0:0:0:0:
426,99,80369,1,0,0:0:0:0:
466,142,80448,1,0,0:0:0:0:
474,200,80527,1,0,0:0:0:0:
447,253,80606,1,0,0:0:0:0:
394,279,80685,1,0,0:0:0:0:
336,270,80764,1,0,0:0:0:0:
293,230,80843,1,8,0:0:0:0:
250,189,80923,1,0,0:0:0:0:
192,180,81002,1,0,0:0:0:0:
139,207,81081,1,0,0:0:0:0:
112,259,81160,1,0,0:0:0:0:
120,317,81239,1,0,0:0:0:0:
160,360,81318,1,0,0:0:0:0:
217,372,81397,1,0,0:0:0:0:
271,349,81475,5,8,0:0:0:0:
410,154,81634,1,0,0:0:0:0:
204,274,81791,1,0,0:0:0:0:
343,79,81950,1,0,0:0:0:0:
362,316,82107,1,0,0:0:0:0:
212,128,82265,1,0,0:0:0:0:
362,316,82423,1,8,0:0:0:0:
131,249,82581,1,0,0:0:0:0:
356,169,82739,1,0,0:0:0:0:
122,116,82897,1,0,0:0:0:0:
347,36,83055,1,0,0:0:0:0:
243,250,83212,1,0,0:0:0:0:
218,11,83370,5,8,0:0:0:0:
243,250,83528,1,0,0:0:0:0:
103,55,83686,2,0,L|89:238,1,170.999994781494
335,65,84002,5,8,0:0:0:0:
208,326,84160,1,0,0:0:0:0:
103,55,84318,1,0,0:0:0:0:
208,326,84476,1,0,0:0:0:0:
221,35,84634,1,0,0:0:0:0:
36,257,84791,1,0,0:0:0:0:
370,184,84949,5,8,0:0:0:0:
36,257,85107,1,0,0:0:0:0:
296,35,85265,1,0,0:0:0:0:
36,257,85423,1,0,0:0:0:0:
370,331,85581,1,0,0:0:0:0:
121,95,85739,1,0,0:0:0:0:
474,278,85897,6,0,P|349:184|143:260,1,341.999989562989,8|0,0:0|0:0,0:0:0:0:
1,383,86370,1,0,0:0:0:0:
206,109,86528,6,0,L|193:338,1,170.999994781494
351,15,87160,6,0,L|337:318,1,256.499992172241
318,320,87476,2,0,P|232:327|133:274,1,170.999994781494
351,15,87791,5,8,0:0:0:0:
421,349,87949,1,8,0:0:0:0:
167,119,88107,1,8,0:0:0:0:
421,349,88265,1,8,0:0:0:0:
79,322,88423,1,8,0:0:0:0:
505,284,88581,2,0,B|400:241|189:284|189:284|51:228,1,427.499986953736,12|0,0:0|0:0,0:0:0:0:
37,225,89055,6,0,B|26:286|26:286|39:385,1,118.75
167,119,89370,2,0,B|178:180|178:180|165:279,1,118.75
117,207,89607,1,0,0:0:0:0:
75,164,89686,2,0,P|53:81|62:37,1,118.75
285,122,90002,2,0,P|288:180|267:236,1,118.75
179,13,90318,5,0,0:0:0:0:
401,96,90476,1,0,0:0:0:0:
179,13,90634,2,0,L|163:158,1,118.75
145,186,90870,1,0,0:0:0:0:
124,241,90949,2,0,L|108:386,1,118.75
237,256,91265,2,0,L|258:231,7,29.6875
230,287,91581,6,0,P|272:323|348:326,1,118.75
489,148,91897,2,0,P|447:184|371:187,1,118.75
229,80,92212,2,0,L|240:35,1,29.6875
305,168,92370,2,0,L|312:196,1,29.6875
333,74,92528,2,0,P|344:83|350:97,7,29.6875
312,50,92844,6,0,B|251:40|251:40|194:48,1,118.75
34,225,93160,2,0,P|32:290|75:366,1,118.75
108,360,93397,1,0,0:0:0:0:
164,379,93476,2,0,L|210:377,3,29.6875
182,346,93634,2,0,L|228:344,3,29.6875
204,316,93791,2,0,L|250:314,7,29.6875
222,280,94107,6,0,B|228:221|208:163|208:163|218:138|218:138|220:57,1,190,8|0,0:0|0:0,0:0:0:0:
355,228,94581,1,0,0:0:0:0:
489,93,94739,2,0,B|490:137|490:137|500:162|500:162|480:220|486:279,1,190,8|0,0:0|0:0,0:0:0:0:
355,142,95212,1,0,0:0:0:0:
222,280,95370,2,0,P|138:300|33:275,1,190,8|0,0:0|0:0,0:0:0:0:
16,87,95844,1,0,0:0:0:0:
196,147,96002,2,0,L|214:259,1,95,8|0,0:0|0:0,0:0:0:0:
359,120,96318,2,0,L|341:232,1,95
254,44,96634,6,0,B|176:61|176:61|124:44|124:44|36:50,1,190,8|0,0:0|0:0,0:0:0:0:
254,44,97107,1,0,0:0:0:0:
114,172,97265,2,0,B|192:189|192:189|244:172|244:172|332:178,1,190,8|0,0:0|0:0,0:0:0:0:
114,172,97738,1,0,0:0:0:0:
258,297,97897,2,0,B|336:314|336:314|388:297|388:297|476:303,1,190,8|0,0:0|0:0,0:0:0:0:
362,128,98370,1,0,0:0:0:0:
169,265,98528,2,0,P|163:338|172:381,1,95,8|0,0:0|0:0,0:0:0:0:
108,127,98844,2,0,P|155:122|202:129,1,95
423,224,99160,6,0,P|465:162|423:34,1,190,8|0,0:0|0:0,0:0:0:0:
256,16,99634,1,0,0:0:0:0:
261,225,99791,2,0,B|275:274|275:274|316:328,1,95,8|0,0:0|0:0,0:0:0:0:
150,164,100107,2,0,B|136:213|136:213|95:267,1,95
262,100,100423,5,8,0:0:0:0:
53,94,100581,1,0,0:0:0:0:
181,261,100739,1,0,0:0:0:0:
157,53,100897,1,0,0:0:0:0:
115,316,101055,2,0,P|163:347|302:322,1,190,8|0,0:0|0:0,0:0:0:0:
403,179,101528,1,0,0:0:0:0:
169,127,101686,6,0,B|123:214|123:214|113:326,1,190,8|0,0:0|0:0,0:0:0:0:
258,179,102160,1,0,0:0:0:0:
68,35,102318,2,0,B|22:122|22:122|12:234,1,190,8|0,0:0|0:0,0:0:0:0:
111,376,102791,1,0,0:0:0:0:
186,201,102949,5,8,0:0:0:0:
173,304,103107,1,0,0:0:0:0:
267,259,103265,1,0,0:0:0:0:
162,252,103423,1,0,0:0:0:0:
240,320,103581,1,8,0:0:0:0:
241,215,103739,1,0,0:0:0:0:
177,298,103897,1,0,0:0:0:0:
274,259,104055,1,0,0:0:0:0:
85,256,104212,6,0,P|71:159|80:63,1,190,8|0,0:0|0:0,0:0:0:0:
447,168,104844,6,0,B|387:184|297:170|297:170|238:178,1,190,8|0,0:0|0:0,0:0:0:0:
85,256,105318,1,0,0:0:0:0:
197,48,105476,2,0,B|182:139|182:139|197:258,1,190,8|0,0:0|0:0,0:0:0:0:
301,79,105949,1,0,0:0:0:0:
93,57,106107,2,0,B|82:109|82:109|84:177,1,95,8|0,0:0|0:0,0:0:0:0:
100,195,106344,1,0,0:0:0:0:
115,239,106423,2,0,B|116:280|116:280|105:332,1,95
280,216,106739,6,0,P|331:238|249:261,1,190,8|0,0:0|0:0,0:0:0:0:
156,121,107212,1,0,0:0:0:0:
341,77,107370,2,0,P|392:99|310:122,1,190,8|0,0:0|0:0,0:0:0:0:
178,12,107844,1,0,0:0:0:0:
135,247,108002,2,0,B|202:269|202:269|261:262|261:262|346:281,1,190,8|0,0:0|0:0,0:0:0:0:
505,320,108476,1,0,0:0:0:0:
388,113,108634,2,0,L|371:229,1,95,8|0,0:0|0:0,0:0:0:0:
504,7,108949,2,0,B|404:34|404:34|283:30,1,190,0|8,0:0|0:0,0:0:0:0:
127,14,109423,1,0,0:0:0:0:
243,164,109581,5,0,0:0:0:0:
217,62,109739,1,0,0:0:0:0:
116,92,109897,1,8,0:0:0:0:
142,194,110055,1,0,0:0:0:0:
195,104,110212,1,0,0:0:0:0:
142,194,110370,1,0,0:0:0:0:
49,144,110528,1,8,0:0:0:0:
103,54,110686,1,0,0:0:0:0:
56,238,110844,6,0,L|95:350,1,95
249,226,111160,2,0,P|325:216|450:269,1,190,8|0,0:0|0:0,0:0:0:0:
348,79,111634,1,0,0:0:0:0:
341,315,111791,2,0,B|363:174|363:174|354:111,1,190,8|0,0:0|0:0,0:0:0:0:
257,291,112265,1,0,0:0:0:0:
153,78,112423,2,0,B|146:124|146:124|168:265,1,190,8|0,0:0|0:0,0:0:0:0:
257,96,112897,1,0,0:0:0:0:
40,193,113055,6,0,L|35:312,1,95,8|0,0:0|0:0,0:0:0:0:
59,99,113370,2,0,L|64:218,1,95
188,366,113686,6,0,B|285:363|285:363|368:319,1,190,8|0,0:0|0:0,0:0:0:0:
383,284,114081,1,0,0:0:0:0:
403,251,114160,1,0,0:0:0:0:
428,222,114239,1,0,0:0:0:0:
459,200,114318,6,0,B|453:22|453:22|413:123,1,285
278,191,115581,2,0,P|211:205|283:114,1,285
383,215,116844,6,0,P|319:277|122:258,1,285
173,120,118107,2,0,L|234:112,1,47.5
449,181,118423,5,8,0:0:0:0:
287,7,118581,1,0,0:0:0:0:
303,244,118739,1,0,0:0:0:0:
313,88,118897,2,0,L|304:165,1,59.375
267,354,119055,1,8,0:0:0:0:
88,198,119212,2,0,L|175:161,1,59.375
237,158,119370,6,0,P|237:229|207:280,1,95,8|0,0:0|0:0,0:0:0:0:
122,90,119686,1,0,0:0:0:0:
313,88,119844,1,0,0:0:0:0:
122,90,120002,2,0,L|19:114,1,95,8|0,0:0|0:0,0:0:0:0:
220,66,120318,2,0,L|323:90,1,95
83,18,120634,6,0,B|120:88|120:88|91:231,1,190,8|0,0:0|0:0,0:0:0:0:
75,232,121028,1,0,0:0:0:0:
48,265,121107,2,0,P|110:292|160:289,1,95,0|8,0:0|0:0,0:0:0:0:
309,212,121423,1,0,0:0:0:0:
167,84,121581,2,0,L|158:187,1,95
355,41,121897,6,0,P|409:59|429:206,1,190,8|0,0:0|0:0,0:0:0:0:
330,327,122370,1,0,0:0:0:0:
355,138,122528,2,0,L|259:180,1,95,8|0,0:0|0:0,0:0:0:0:
108,282,122844,1,0,0:0:0:0:
161,99,123002,1,0,0:0:0:0:
198,360,123160,5,8,0:0:0:0:
280,111,123318,1,0,0:0:0:0:
198,360,123476,1,0,0:0:0:0:
388,181,123634,1,0,0:0:0:0:
77,352,123791,1,8,0:0:0:0:
212,131,123949,5,0,0:0:0:0:
223,164,124027,1,0,0:0:0:0:
235,198,124106,1,0,0:0:0:0:
247,231,124185,1,0,0:0:0:0:
259,265,124264,1,0,0:0:0:0:
271,298,124343,1,0,0:0:0:0:
283,332,124423,6,0,P|359:338|482:184,1,285
339,64,125686,2,0,B|234:83|132:56|132:56|42:76,1,285
130,248,126949,6,0,P|129:307|60:218,1,285
225,158,128212,2,0,B|323:137|323:137|408:157|408:157|503:136,1,285
442,61,129318,1,0,0:0:0:0:
390,243,129476,6,0,P|343:269|288:265,1,95,8|0,0:0|0:0,0:0:0:0:
118,221,129791,1,0,0:0:0:0:
279,120,129949,1,0,0:0:0:0:
227,354,130107,2,0,L|214:257,1,95,8|0,0:0|0:0,0:0:0:0:
44,171,130423,2,0,L|31:265,1,95
140,108,130739,5,8,0:0:0:0:
127,297,130897,1,0,0:0:0:0:
140,108,131055,2,0,L|127:202,1,95
315,60,131370,2,0,P|384:51|429:63,1,95,8|0,0:0|0:0,0:0:0:0:
318,224,131686,2,0,P|249:233|204:221,1,95
27,54,132002,5,8,0:0:0:0:
116,274,132160,1,0,0:0:0:0:
196,50,132318,1,0,0:0:0:0:
189,313,132476,1,0,0:0:0:0:
112,27,132634,1,8,0:0:0:0:
333,225,132791,5,0,0:0:0:0:
289,243,132869,1,0,0:0:0:0:
242,249,132948,1,0,0:0:0:0:
195,242,133027,1,0,0:0:0:0:
151,223,133106,1,0,0:0:0:0:
114,194,133185,1,0,0:0:0:0:
87,155,133265,5,8,0:0:0:0:
382,118,133423,1,0,0:0:0:0:
181,337,133581,1,0,0:0:0:0:
238,46,133739,1,0,0:0:0:0:
48,276,133897,1,8,0:0:0:0:
341,226,134055,1,0,0:0:0:0:
96,61,134212,1,0,0:0:0:0:
190,344,134370,2,0,L|186:266,1,59.375
180,6,134528,6,0,L|170:159,1,142.500005435944,12|0,0:0|0:0,0:0:0:0:
4,382,134844,1,0,0:0:0:0:
295,179,135002,2,0,P|376:163|448:183,1,142.500005435944,12|0,0:0|0:0,0:0:0:0:
210,356,135318,1,0,0:0:0:0:
311,16,135476,2,0,L|294:166,1,142.500005435944,12|0,0:0|0:0,0:0:0:0:
102,367,135791,1,0,0:0:0:0:
202,25,135949,2,0,L|185:175,1,142.500005435944,12|0,0:0|0:0,0:0:0:0:
461,86,136265,1,0,0:0:0:0:
419,58,136344,1,0,0:0:0:0:
369,53,136423,6,0,B|295:49|295:49|213:90,1,142.500005435944,12|0,0:0|0:0,0:0:0:0:
95,331,136739,2,0,B|169:335|169:335|230:304,1,142.500005435944,12|0,0:0|0:0,0:0:0:0:
369,53,137055,5,8,0:0:0:0:
329,333,137212,1,8,0:0:0:0:
329,333,137528,5,8,0:0:0:0:
165,99,137686,1,8,0:0:0:0:
165,99,138002,5,8,0:0:0:0:
430,201,138160,1,8,0:0:0:0:
170,320,138318,2,0,L|221:228,1,71.2500027179719,0|8,0:0|0:0,0:0:0:0:
296,66,138476,1,0,0:0:0:0:
348,346,138634,1,0,0:0:0:0:
296,66,138791,2,0,L|257:162,1,71.2500027179719,0|8,0:0|0:0,0:0:0:0:
170,320,138949,1,0,0:0:0:0:
416,176,139107,1,0,0:0:0:0:
70,98,139265,2,0,P|60:194|105:320,1,213.750008153916,8|0,0:0|0:0,0:0:0:0:
170,320,139581,6,0,P|82:127|101:280,1,736.25
170,320,142107,6,0,P|365:253|426:86,1,341.999989562989,12|0,0:0|0:0,0:0:0:0:
80,103,142581,2,0,P|275:170|336:337,1,341.999989562989
1,375,143055,1,0,0:0:0:0:
332,282,143212,2,0,B|418:266|418:266|504:281,1,170.999994781494,0|8,0:0|0:0,0:0:0:0:
242,51,143528,2,0,B|156:35|156:35|70:50,1,170.999994781494
29,113,143765,1,0,0:0:0:0:
2,185,143844,2,0,P|101:203|175:180,1,170.999994781494,0|8,0:0|0:0,0:0:0:0:
465,18,144160,6,0,B|436:116|436:116|440:264|440:264|389:357,1,341.999989562989
256,29,144634,1,8,0:0:0:0:
257,369,144791,1,0,0:0:0:0:
445,83,144949,1,0,0:0:0:0:
151,254,145106,1,0,0:0:0:0:
495,252,145265,1,8,0:0:0:0:
201,81,145422,1,0,0:0:0:0:
371,380,145581,1,0,0:0:0:0:
77,209,145738,1,0,0:0:0:0:
371,380,145897,5,8,0:0:0:0:
254,5,146055,1,0,0:0:0:0:
141,380,146212,1,0,0:0:0:0:
445,83,146370,6,0,P|255:126|89:75,1,341.999989562989
322,365,146844,5,8,0:0:0:0:
393,319,146922,1,0,0:0:0:0:
442,249,147001,1,0,0:0:0:0:
460,166,147080,1,0,0:0:0:0:
445,83,147160,2,0,B|288:61|163:85|163:85|59:57,1,341.999989562989,12|0,0:0|0:0,0:0:0:0:
372,287,147634,1,0,0:0:0:0:
48,14,147791,6,0,B|34:115|34:115|63:260|63:260|37:373,1,341.999989562989,8|0,0:0|0:0,0:0:0:0:
313,14,148265,2,0,B|327:115|327:115|298:260|298:260|324:373,1,341.999989562989
385,309,148660,1,0,0:0:0:0:
451,269,148739,2,0,B|479:177|479:177|468:80,1,170.999994781494
69,261,149055,2,0,P|183:288|417:164,1,341.999989562989,8|0,0:0|0:0,0:0:0:0:
8,1,149528,2,0,B|26:82|26:82|22:131|1:161|1:161|14:189|-5:248|-5:248|9:359,1,341.999989562989,8|0,0:0|0:0,0:0:0:0:
227,156,150002,5,0,0:0:0:0:
192,107,150080,1,0,0:0:0:0:
139,82,150159,1,0,0:0:0:0:
80,85,150238,1,0,0:0:0:0:
30,117,150317,1,8,0:0:0:0:
2,170,150396,1,0,0:0:0:0:
4,229,150475,1,0,0:0:0:0:
34,280,150554,1,0,0:0:0:0:
85,310,150633,1,0,0:0:0:0:
144,311,150712,1,0,0:0:0:0:
196,283,150791,2,0,P|306:271|395:295,1,170.999994781494
156,8,151107,5,0,0:0:0:0:
118,348,151265,1,8,0:0:0:0:
355,101,151423,1,0,0:0:0:0:
295,98,151501,1,0,0:0:0:0:
236,111,151580,1,0,0:0:0:0:
471,361,151739,5,0,0:0:0:0:
488,303,151817,1,0,0:0:0:0:
498,244,151896,1,8,0:0:0:0:
500,185,151975,1,0,0:0:0:0:
493,125,152054,1,0,0:0:0:0:
478,67,152133,1,0,0:0:0:0:
449,15,152212,6,0,B|366:6|366:6|245:17,1,170.999994781494,12|0,0:0|0:0,0:0:0:0:
316,356,152528,1,8,0:0:0:0:
102,88,152686,1,0,0:0:0:0:
425,200,152844,1,8,0:0:0:0:
102,88,153002,1,0,0:0:0:0:
434,6,153160,1,8,0:0:0:0:
190,246,153318,1,0,0:0:0:0:
434,6,153476,1,8,0:0:0:0:
340,335,153634,1,0,0:0:0:0:
255,3,153791,1,8,0:0:0:0:
340,335,153949,1,0,0:0:0:0:
102,88,154107,1,8,0:0:0:0:
425,200,154265,1,0,0:0:0:0:
102,88,154423,1,8,0:0:0:0:
434,6,154581,1,0,0:0:0:0:
190,246,154739,5,8,0:0:0:0:
434,6,154897,1,0,0:0:0:0:
134,171,155055,1,8,0:0:0:0:
434,6,155212,1,0,0:0:0:0:
267,305,155370,1,8,0:0:0:0:
434,6,155528,1,0,0:0:0:0:
102,88,155686,5,8,0:0:0:0:
132,167,155764,1,0,0:0:0:0:
182,236,155843,1,0,0:0:0:0:
249,288,155922,1,0,0:0:0:0:
328,320,156002,6,0,P|369:176|275:1,1,341.999989562989,12|0,0:0|0:0,0:0:0:0:
80,356,156476,2,0,P|224:397|399:303,1,341.999989562989
1,35,156949,2,0,B|6:120|6:120|22:169|22:169|7:221|28:305,1,256.499992172241
80,356,157265,6,8,L|254:320,1,170.999994781494
512,103,157581,1,0,0:0:0:0:
167,16,157897,2,0,B|194:177|194:177|141:364,1,341.999989562989
1,35,158370,1,0,0:0:0:0:
341,93,158528,6,8,L|533:104,1,170.999994781494
203,256,158844,1,0,0:0:0:0:
415,11,159160,2,0,P|432:135|314:342,1,341.999989562989
89,84,159634,1,0,0:0:0:0:
144,61,159712,1,0,0:0:0:0:
203,50,159791,6,8,L|187:271,1,170.999994781494
457,3,160107,1,0,0:0:0:0:
122,330,160423,2,0,P|59:186|228:67,1,341.999989562989
512,99,160897,1,0,0:0:0:0:
239,306,161055,5,8,0:0:0:0:
403,261,161212,1,0,0:0:0:0:
252,179,161370,1,0,0:0:0:0:
329,331,161528,1,0,0:0:0:0:
362,163,161686,1,8,0:0:0:0:
245,288,161844,1,0,0:0:0:0:
414,263,162002,1,0,0:0:0:0:
261,186,162160,1,0,0:0:0:0:
332,341,162318,6,8,P|206:351|160:331,1,170.999994781494
17,24,162634,1,0,0:0:0:0:
32,367,162949,2,0,B|37:272|37:272|110:121|110:121|100:-3,1,341.999989562989
179,378,163423,1,0,0:0:0:0:
357,86,163581,6,8,P|243:70|166:100,1,170.999994781494
446,317,163897,1,0,0:0:0:0:
103,42,164212,2,0,B|110:121|110:121|37:272|37:272|32:367,1,341.999989562989,8|0,0:0|0:0,0:0:0:0:
257,106,164686,1,0,0:0:0:0:
480,367,164844,2,0,B|475:272|475:272|402:121|402:121|408:42,1,341.999989562989,8|0,0:0|0:0,0:0:0:0:
255,350,165318,1,0,0:0:0:0:
103,42,165476,6,0,L|87:235,1,170.999994781494,8|0,0:0|0:0,0:0:0:0:
363,8,165791,2,0,L|379:201,1,170.999994781494
345,249,166028,1,0,0:0:0:0:
303,313,166107,2,0,B|216:331|216:331|107:313,1,170.999994781494,8|0,0:0|0:0,0:0:0:0:
263,2,166423,2,0,L|240:181,1,170.999994781494
184,224,166660,1,0,0:0:0:0:
109,243,166739,2,0,P|82:138|101:38,1,170.999994781494,8|0,0:0|0:0,0:0:0:0:
364,281,167055,2,0,P|286:356|190:390,1,170.999994781494
305,71,167370,5,8,0:0:0:0:
354,39,167448,1,0,0:0:0:0:
413,41,167527,1,0,0:0:0:0:
461,75,167606,1,0,0:0:0:0:
481,131,167685,1,0,0:0:0:0:
466,188,167764,1,0,0:0:0:0:
421,227,167843,1,0,0:0:0:0:
363,234,167922,1,0,0:0:0:0:
311,207,168001,1,8,0:0:0:0:
259,180,168081,1,0,0:0:0:0:
201,187,168160,1,0,0:0:0:0:
156,226,168239,1,0,0:0:0:0:
141,283,168318,1,0,0:0:0:0:
161,339,168397,1,0,0:0:0:0:
209,373,168476,1,0,0:0:0:0:
268,375,168555,1,0,0:0:0:0:
317,343,168633,5,8,0:0:0:0:
259,110,168791,1,0,0:0:0:0:
317,343,168949,1,0,0:0:0:0:
399,118,169107,1,0,0:0:0:0:
213,270,169265,1,0,0:0:0:0:
255,34,169423,1,0,0:0:0:0:
294,270,169581,1,8,0:0:0:0:
121,103,169739,1,0,0:0:0:0:
337,205,169897,1,0,0:0:0:0:
100,242,170055,1,0,0:0:0:0:
261,66,170212,1,0,0:0:0:0:
231,303,170370,1,0,0:0:0:0:
124,88,170528,5,8,0:0:0:0:
94,325,170686,1,0,0:0:0:0:
267,160,170844,2,0,B|277:251|277:251|264:340,1,170.999994781494,8|0,0:0|0:0,0:0:0:0:
383,61,171160,5,8,0:0:0:0:
156,243,171318,1,0,0:0:0:0:
446,245,171476,1,0,0:0:0:0:
220,61,171634,1,0,0:0:0:0:
506,100,171791,1,0,0:0:0:0:
248,236,171949,1,0,0:0:0:0:
504,9,172107,5,8,0:0:0:0:
248,236,172265,1,0,0:0:0:0:
504,9,172423,1,0,0:0:0:0:
416,339,172581,1,0,0:0:0:0:
326,8,172739,1,0,0:0:0:0:
238,338,172897,1,0,0:0:0:0:
489,32,173055,6,0,P|373:120|122:120,1,341.999989562989,8|0,0:0|0:0,0:0:0:0:
381,7,173528,1,0,0:0:0:0:
320,343,173686,6,0,B|306:262|306:262|314:157,1,170.999994781494,8|0,0:0|0:0,0:0:0:0:
95,353,174318,6,0,B|81:205|81:205|96:87,1,256.499992172241
134,34,174634,2,0,L|155:211,1,170.999994781494
438,13,174949,5,8,0:0:0:0:
154,203,175107,1,0,0:0:0:0:
438,13,175265,1,0,0:0:0:0:
323,335,175423,1,0,0:0:0:0:
213,10,175581,1,8,0:0:0:0:
491,208,175739,6,0,L|478:310,1,85.4999973907472
416,169,175897,2,0,L|403:271,1,85.4999973907472
341,130,176055,2,0,L|328:232,1,85.4999973907472
323,335,176212,5,8,0:0:0:0:
441,75,176370,1,8,0:0:0:0:
434,124,176448,1,0,0:0:0:0:
427,173,176527,1,0,0:0:0:0:
420,223,176606,1,0,0:0:0:0:
413,272,176685,1,0,0:0:0:0:
406,322,176764,1,0,0:0:0:0:
399,372,176844,5,8,0:0:0:0:
355,347,176922,1,0,0:0:0:0:
318,313,177001,1,0,0:0:0:0:
289,273,177080,1,0,0:0:0:0:
269,228,177159,1,0,0:0:0:0:
259,179,177238,1,0,0:0:0:0:
259,129,177317,1,0,0:0:0:0:
269,81,177396,1,0,0:0:0:0:
290,35,177476,6,0,P|183:22|124:46,1,142.500005435944,12|0,0:0|0:0,0:0:0:0:
53,299,177791,1,0,0:0:0:0:
290,35,177949,2,0,B|261:113|261:113|274:248|274:248|239:350,1,285.000010871888,8|0,0:0|0:0,0:0:0:0:
218,337,178344,1,0,0:0:0:0:
180,357,178423,2,0,P|102:366|40:327,1,142.500005435944,8|0,0:0|0:0,0:0:0:0:
4,52,178739,1,0,0:0:0:0:
180,357,178897,2,0,B|191:262|177:210|177:210|208:147|191:26,1,285.000010871888,8|0,0:0|0:0,0:0:0:0:
436,229,179370,6,0,P|354:243|276:222,1,142.500005435944
262,204,179607,1,0,0:0:0:0:
226,179,179686,2,0,P|144:165|66:186,1,142.500005435944
59,210,179923,1,0,0:0:0:0:
41,248,180002,6,0,B|95:299|95:299|179:308,1,142.500005435944,8|0,0:0|0:0,0:0:0:0:
436,229,180318,1,0,0:0:0:0:
111,377,180476,2,0,B|138:231|138:231|132:67,1,285.000010871888,8|0,0:0|0:0,0:0:0:0:
348,280,180949,2,0,P|412:328|483:320,1,142.500005435944,8|0,0:0|0:0,0:0:0:0:
445,39,181265,1,0,0:0:0:0:
179,281,181423,2,0,P|89:297|161:200,1,285.000010871888,8|0,0:0|0:0,0:0:0:0:
200,209,181818,1,0,0:0:0:0:
240,223,181897,6,0,B|323:235|323:235|389:228,1,142.500005435944
194,97,182212,2,0,B|111:109|111:109|45:102,1,142.500005435944
326,16,182528,6,0,B|338:88|338:88|337:167,1,142.500005435944,8|0,0:0|0:0,0:0:0:0:
156,380,182844,1,0,0:0:0:0:
462,193,183002,2,0,B|323:188|323:188|159:225,1,285.000010871888,8|0,0:0|0:0,0:0:0:0:
145,244,183397,1,0,0:0:0:0:
112,271,183476,2,0,B|87:202|87:202|95:127,1,142.500005435944,8|0,0:0|0:0,0:0:0:0:
258,366,183791,1,0,0:0:0:0:
389,36,183949,2,0,B|383:198|383:198|323:364,1,285.000010871888,8|0,0:0|0:0,0:0:0:0:
300,341,184344,1,0,0:0:0:0:
258,366,184423,6,0,P|141:379|79:344,1,142.500005435944
23,101,184739,2,0,L|10:263,1,142.500005435944
275,0,185055,1,8,0:0:0:0:
179,266,185212,1,0,0:0:0:0:
63,5,185370,1,0,0:0:0:0:
369,191,185528,2,0,B|269:221|179:266|179:266|78:267,1,285.000010871888,8|0,0:0|0:0,0:0:0:0:
396,70,186002,5,8,0:0:0:0:
323,345,186160,1,0,0:0:0:0:
396,70,186318,1,0,0:0:0:0:
93,261,186476,2,0,B|167:289|212:286|212:286|250:318|324:346|324:346|399:346,1,285.000010871888,8|0,0:0|0:0,0:0:0:0:
402,320,186870,1,0,0:0:0:0:
433,281,186949,2,0,P|453:209|446:136,1,142.500005435944
101,52,187265,2,0,P|166:97|304:98,1,213.750008153916
396,70,187581,5,0,0:0:0:0:
148,44,188844,1,0,0:0:0:0:
327,256,190107,1,0,0:0:0:0:
439,18,191370,1,0,0:0:0:0:
203,112,192002,6,0,L|189:197,1,71.2500027179719
119,58,192318,2,0,L|105:143,1,71.2500027179719
110,223,192634,6,0,P|182:241|288:83,1,285,12|0,0:0|0:0,0:0:0:0:
119,58,193739,1,0,0:0:0:0:
301,5,193897,6,0,B|367:100|367:100|352:286,1,285,8|0,0:0|0:0,0:0:0:0:
247,129,195002,1,0,0:0:0:0:
174,304,195160,6,0,B|146:258|137:95|137:95|100:173,1,285,8|0,0:0|0:0,0:0:0:0:
59,329,196265,1,0,0:0:0:0:
237,259,196423,6,0,L|342:258,1,95,0|8,0:0|0:0,0:0:0:0:
471,293,196897,1,0,0:0:0:0:
394,172,197055,1,0,0:0:0:0:
471,293,197212,1,0,0:0:0:0:
331,258,197370,2,0,L|250:258,1,71.25,8|0,0:0|0:0,0:0:0:0:
237,259,197686,6,0,P|226:189|259:112,1,118.75,12|0,0:0|0:0,0:0:0:0:
461,57,198002,1,0,0:0:0:0:
328,297,198160,1,0,0:0:0:0:
354,84,198318,2,0,L|211:120,1,118.75,8|0,0:0|0:0,0:0:0:0:
38,301,198634,1,0,0:0:0:0:
100,36,198791,1,0,0:0:0:0:
252,262,198949,2,0,B|327:297|327:297|407:306,1,118.75,8|0,0:0|0:0,0:0:0:0:
258,85,199265,5,0,0:0:0:0:
196,351,199423,1,0,0:0:0:0:
153,117,199581,1,8,0:0:0:0:
360,233,199739,1,0,0:0:0:0:
89,261,199897,1,0,0:0:0:0:
322,306,200055,1,0,0:0:0:0:
162,36,200212,5,8,0:0:0:0:
196,351,200370,1,8,0:0:0:0:
196,351,200686,6,0,L|250:49,1,285.000010871888
405,309,201160,1,0,0:0:0:0:
112,104,201318,2,0,P|204:165|412:125,1,285.000010871888,8|0,0:0|0:0,0:0:0:0:
119,19,201791,2,0,L|105:177,1,142.500005435944,12|0,0:0|0:0,0:0:0:0:
111,196,202028,1,0,0:0:0:0:
117,231,202107,2,0,L|103:389,1,142.500005435944
357,117,202423,2,0,P|260:244|169:224,1,213.750008153916,12|0,0:0|0:0,0:0:0:0:
117,231,202739,6,0,L|112:290,1,47.5
189,335,203055,2,0,L|184:394,1,47.5
280,382,203370,2,0,L|275:334,1,47.5
352,278,203686,2,0,L|347:230,1,47.5
321,138,204002,5,0,0:0:0:0:
261,212,204160,1,0,0:0:0:0:
232,121,204318,2,0,L|227:73,1,47.5
152,14,204634,1,0,0:0:0:0:
117,101,204791,1,0,0:0:0:0:
80,188,204949,2,0,L|75:235,1,47.5
159,188,205265,5,0,0:0:0:0:
145,282,205423,1,0,0:0:0:0:
230,239,205581,1,0,0:0:0:0:
217,333,205739,1,0,0:0:0:0:
297,282,205897,1,0,0:0:0:0:
317,374,206055,1,0,0:0:0:0:
377,301,206212,1,0,0:0:0:0:
455,354,206370,1,0,0:0:0:0:
434,212,206528,5,0,0:0:0:0:
354,329,206686,1,0,0:0:0:0:
330,188,206844,1,0,0:0:0:0:
354,329,207002,2,0,L|251:325,1,95
86,279,207476,2,0,L|78:342,1,47.5
154,155,207791,6,0,B|240:103|240:103|319:14|319:14|350:111|397:151|397:151|425:245|473:317,1,534.375020384789,12|0,0:0|0:0,0:0:0:0:
470,338,209055,6,0,B|329:357|26:81|26:81|97:47|97:47|199:24,1,665,12|0,0:0|0:0,0:0:0:0:
202,47,210239,1,0,0:0:0:0:
257,66,210318,2,0,B|282:131|282:131|287:209,1,118.75,12|0,0:0|0:0,0:0:0:0:
457,13,210634,5,0,0:0:0:0:
372,233,210791,1,0,0:0:0:0:
300,6,210949,1,8,0:0:0:0:
372,233,211107,1,0,0:0:0:0:
167,112,211265,1,0,0:0:0:0:
404,102,211423,1,0,0:0:0:0:
193,309,211581,5,8,0:0:0:0:
229,15,211739,1,0,0:0:0:0:
193,309,211897,1,0,0:0:0:0:
61,42,212055,1,0,0:0:0:0:
389,183,212212,1,8,0:0:0:0:
35,228,212370,1,0,0:0:0:0:
363,369,212527,1,0,0:0:0:0:
35,228,212686,1,0,0:0:0:0:
493,241,212844,6,0,L|449:382,1,142.500005435944,12|0,0:0|0:0,0:0:0:0:
388,95,213160,1,0,0:0:0:0:
283,360,213318,1,12,0:0:0:0:
283,360,213397,1,0,0:0:0:0:
283,360,213476,1,0,0:0:0:0:
194,88,213634,1,0,0:0:0:0:
407,273,213791,5,0,0:0:0:0:
350,282,213869,1,0,0:0:0:0:
294,281,213948,1,0,0:0:0:0:
238,269,214027,1,0,0:0:0:0:
186,247,214107,2,0,P|130:185|93:102,1,142.500005435944,12|0,0:0|0:0,0:0:0:0:
271,43,214423,6,0,L|269:176,1,95
419,19,214739,2,0,L|417:152,1,95
306,269,215055,2,0,P|249:268|191:229,1,95
448,207,215370,2,0,B|365:358|365:358|86:356|86:356|28:42|28:42|365:41,1,1104.37504212856
449,73,217897,6,0,B|375:128|375:128|221:141|221:141|112:188,1,341.999989562989,12|0,0:0|0:0,0:0:0:0:
449,309,218370,2,0,B|361:271|361:271|207:258|207:258|133:203,1,341.999989562989
411,0,218844,1,0,0:0:0:0:
133,203,219002,2,0,B|126:291|126:291|140:379,1,170.999994781494,0|8,0:0|0:0,0:0:0:0:
408,158,219318,2,0,B|335:107|335:107|252:76,1,170.999994781494
182,96,219555,1,0,0:0:0:0:
125,148,219634,2,0,B|118:236|118:236|132:324,1,170.999994781494,0|8,0:0|0:0,0:0:0:0:
298,19,219949,2,0,B|325:118|325:118|287:250|287:250|315:352,1,341.999989562989
471,42,220423,5,8,0:0:0:0:
142,136,220581,1,0,0:0:0:0:
464,250,220739,1,0,0:0:0:0:
190,44,220897,1,0,0:0:0:0:
312,363,221055,1,8,0:0:0:0:
385,30,221212,1,0,0:0:0:0:
222,331,221370,1,0,0:0:0:0:
385,30,221528,1,0,0:0:0:0:
412,371,221686,5,8,0:0:0:0:
190,44,221844,1,0,0:0:0:0:
412,371,222002,1,0,0:0:0:0:
51,148,222160,6,0,B|152:162|152:162|282:137|282:137|449:163,1,341.999989562989
71,18,222634,5,0,0:0:0:0:
58,102,222712,1,0,0:0:0:0:
46,187,222791,1,0,0:0:0:0:
34,271,222870,1,0,0:0:0:0:
22,356,222949,2,0,L|169:38,1,341.999989562989,8|0,0:0|0:0,0:0:0:0:
257,377,223423,1,0,0:0:0:0:
17,22,223581,6,0,L|160:332,1,341.999989562989
459,22,224055,2,0,L|315:332,1,341.999989562989
250,372,224449,1,0,0:0:0:0:
173,377,224528,2,0,P|71:365|-13:295,1,170.999994781494
330,36,224844,2,0,L|473:346,1,341.999989562989,8|0,0:0|0:0,0:0:0:0:
176,36,225318,2,0,L|32:346,1,341.999989562989
237,164,225791,5,0,0:0:0:0:
294,149,225869,1,0,0:0:0:0:
349,170,225948,1,0,0:0:0:0:
382,219,226027,1,0,0:0:0:0:
381,278,226106,1,8,0:0:0:0:
347,326,226185,1,0,0:0:0:0:
291,346,226264,1,0,0:0:0:0:
235,330,226343,1,0,0:0:0:0:
197,285,226422,1,0,0:0:0:0:
186,225,226502,1,0,0:0:0:0:
206,168,226581,2,0,P|310:135|419:168,1,170.999994781494,0|8,0:0|0:0,0:0:0:0:
47,20,226897,5,0,0:0:0:0:
85,360,227055,1,0,0:0:0:0:
225,49,227212,1,0,0:0:0:0:
215,108,227290,1,0,0:0:0:0:
206,168,227369,1,8,0:0:0:0:
509,4,227528,5,0,0:0:0:0:
499,63,227606,1,0,0:0:0:0:
490,122,227685,1,0,0:0:0:0:
481,181,227764,1,0,0:0:0:0:
472,240,227843,1,0,0:0:0:0:
463,299,227922,1,0,0:0:0:0:
455,359,228002,2,0,P|341:368|251:334,1,170.999994781494,12|0,0:0|0:0,0:0:0:0:
190,22,228318,5,8,0:0:0:0:
287,352,228476,1,0,0:0:0:0:
387,24,228634,1,8,0:0:0:0:
121,236,228791,1,0,0:0:0:0:
387,24,228949,1,8,0:0:0:0:
287,352,229107,1,0,0:0:0:0:
190,22,229265,1,8,0:0:0:0:
90,350,229423,1,0,0:0:0:0:
373,158,229581,1,8,0:0:0:0:
90,350,229739,1,0,0:0:0:0:
190,22,229897,1,8,0:0:0:0:
287,352,230055,1,0,0:0:0:0:
44,113,230212,1,8,0:0:0:0:
379,194,230370,1,0,0:0:0:0:
51,293,230528,5,8,0:0:0:0:
379,194,230686,1,0,0:0:0:0:
44,113,230844,1,8,0:0:0:0:
372,14,231002,1,0,0:0:0:0:
171,294,231160,1,8,0:0:0:0:
372,14,231318,1,0,0:0:0:0:
366,356,231476,2,0,L|346:269,1,85.4999973907472,8|0,0:0|0:0,0:0:0:0:
225,43,231634,2,0,L|208:151,1,85.4999973907472
131,371,231791,6,0,L|62:29,1,341.999989562989,12|0,0:0|0:0,0:0:0:0:
469,47,232265,2,0,L|401:382,1,341.999989562989,12|0,0:0|0:0,0:0:0:0:
63,35,232739,2,0,L|48:205,1,170.999994781494,12|0,0:0|0:0,0:0:0:0:
357,53,233055,6,8,P|239:35|178:59,1,170.999994781494
31,352,233370,1,0,0:0:0:0:
357,53,233686,2,0,B|322:158|322:158|317:293|317:293|256:382,1,341.999989562989
174,39,234160,1,0,0:0:0:0:
462,223,234318,6,8,L|286:217,1,170.999994781494
10,17,234634,1,0,0:0:0:0:
268,358,234949,2,0,B|213:278|213:278|208:143|208:143|173:38,1,341.999989562989
17,345,235423,1,0,0:0:0:0:
76,343,235502,1,0,0:0:0:0:
133,325,235581,6,8,P|144:261|123:144,1,170.999994781494
394,374,235897,1,0,0:0:0:0:
301,44,236055,1,0,0:0:0:0:
204,370,236212,2,0,L|189:187,1,170.999994781494
173,169,236449,1,0,0:0:0:0:
158,138,236527,1,0,0:0:0:0:
143,107,236606,1,0,0:0:0:0:
129,76,236685,1,0,0:0:0:0:
114,45,236764,1,0,0:0:0:0:
100,14,236844,6,0,L|66:107,1,85.4999973907472,8|0,0:0|0:0,0:0:0:0:
47,186,237002,2,0,P|139:217|263:195,1,170.999994781494
425,102,237318,1,0,0:0:0:0:
257,340,237476,1,0,0:0:0:0:
340,115,237634,1,0,0:0:0:0:
177,353,237791,1,0,0:0:0:0:
359,198,237949,1,0,0:0:0:0:
56,357,238107,6,8,L|138:188,1,170.999994781494
411,4,238423,1,0,0:0:0:0:
58,39,238739,2,0,P|187:120|410:72,1,341.999989562989
39,191,239212,1,0,0:0:0:0:
327,6,239370,6,8,L|291:188,1,170.999994781494
15,376,239686,1,0,0:0:0:0:
327,6,240002,2,0,B|297:98|297:98|297:248|297:248|246:372,1,341.999989562989
118,80,240476,1,0,0:0:0:0:
188,308,240634,1,8,0:0:0:0:
232,74,240791,1,0,0:0:0:0:
60,241,240949,1,0,0:0:0:0:
285,160,241107,1,0,0:0:0:0:
45,157,241265,1,8,0:0:0:0:
285,160,241423,1,0,0:0:0:0:
103,316,241581,5,0,0:0:0:0:
154,346,241659,1,0,0:0:0:0:
212,360,241738,1,0,0:0:0:0:
271,356,241817,1,0,0:0:0:0:
326,333,241897,2,0,P|382:239|398:140,1,170.999994781494,8|0,0:0|0:0,0:0:0:0:
78,52,242212,6,0,L|62:246,1,170.999994781494
385,99,242528,2,0,L|224:-11,1,170.999994781494,8|0,0:0|0:0,0:0:0:0:
190,341,242844,2,0,L|366:257,1,170.999994781494
173,52,243160,5,8,0:0:0:0:
114,54,243238,1,0,0:0:0:0:
66,89,243317,1,0,0:0:0:0:
45,144,243396,1,0,0:0:0:0:
58,201,243475,1,0,0:0:0:0:
101,242,243554,1,0,0:0:0:0:
159,252,243633,1,0,0:0:0:0:
213,229,243712,1,0,0:0:0:0:
245,180,243791,1,8,0:0:0:0:
277,130,243870,1,0,0:0:0:0:
331,107,243949,1,0,0:0:0:0:
389,117,244028,1,0,0:0:0:0:
432,158,244107,1,0,0:0:0:0:
445,215,244186,1,0,0:0:0:0:
424,271,244265,1,0,0:0:0:0:
376,305,244344,1,0,0:0:0:0:
317,308,244422,5,8,0:0:0:0:
512,167,244581,1,0,0:0:0:0:
277,130,244739,1,0,0:0:0:0:
442,303,244897,1,0,0:0:0:0:
277,130,245055,1,8,0:0:0:0:
306,366,245212,1,0,0:0:0:0:
277,130,245370,1,0,0:0:0:0:
169,343,245528,1,0,0:0:0:0:
368,209,245686,1,8,0:0:0:0:
128,223,245844,1,0,0:0:0:0:
368,209,246002,1,0,0:0:0:0:
157,93,246160,1,0,0:0:0:0:
285,295,246318,5,8,0:0:0:0:
157,93,246476,1,0,0:0:0:0:
285,295,246634,2,0,P|389:315|455:296,1,170.999994781494
316,39,246949,5,8,0:0:0:0:
202,306,247107,1,0,0:0:0:0:
453,160,247265,1,0,0:0:0:0:
202,306,247423,1,0,0:0:0:0:
316,39,247581,1,8,0:0:0:0:
388,320,247739,1,0,0:0:0:0:
218,22,247897,1,0,0:0:0:0:
388,320,248055,1,0,0:0:0:0:
86,163,248212,1,8,0:0:0:0:
388,320,248370,1,0,0:0:0:0:
139,84,248528,1,0,0:0:0:0:
388,320,248686,1,0,0:0:0:0:
8,217,248844,6,0,P|107:261|307:171,1,341.999989562989,12|0,0:0|0:0,0:0:0:0:
118,20,249318,1,0,0:0:0:0:
423,173,249476,2,0,B|424:267|424:267|394:352,1,170.999994781494,8|0,0:0|0:0,0:0:0:0:
118,20,250107,2,0,P|44:102|251:81,1,512.999984344483
239,51,250660,1,0,0:0:0:0:
221,11,250739,2,0,B|133:7|133:7|13:33,1,170.999994781494,8|0,0:0|0:0,0:0:0:0:
359,178,251055,2,0,P|392:254|392:360,1,170.999994781494,8|0,0:0|0:0,0:0:0:0:
474,8,251370,5,8,0:0:0:0:
306,306,251528,2,0,P|208:314|265:69,1,427.499986953736,12|0,0:0|0:0,0:0:0:0:
314,71,252002,6,0,L|298:208,1,95
109,24,252476,2,0,P|96:97|130:215,1,190
223,44,252949,2,0,L|118:109,1,95
314,177,253265,6,0,P|368:188|410:177,1,95
168,195,253739,2,0,B|160:258|160:258|172:320|172:320|156:390,1,190
39,232,254212,2,0,P|19:165|25:121,1,95
50,36,254528,5,0,3:3:0:0:
