osu file format v14

[General]
AudioFilename: redo.mp3
AudioLeadIn: 0
PreviewTime: 52965
Countdown: 0
SampleSet: Soft
StackLeniency: 0.7
Mode: 0
LetterboxInBreaks: 0
WidescreenStoryboard: 0

[Editor]
Bookmarks: 5182
DistanceSpacing: 1.1
BeatDivisor: 4
GridSize: 4
TimelineZoom: 2.2

[Metadata]
Title:Redo
TitleUnicode:Redo
Artist:Suzuki Konomi
ArtistUnicode:鈴木このみ
Creator:Rizia
Version:Hard
Source:Re:ゼロから始める異世界生活
Tags:Re:Zero kara Hajimeru Isekai Seikatsu Re: Life in a different world from zero opening tv size anime kawaiwkyik xxdeathx HabiHolic eINess DreaM117er m1223961117 Chloe
BeatmapID:945358
BeatmapSetID:437055

[Difficulty]
HPDrainRate:5.5
CircleSize:4
OverallDifficulty:6
ApproachRate:8
SliderMultiplier:1.6
SliderTickRate:1

[Events]
//Background and Video events
0,0,"BG.jpg",0,0
Video,-761,"video.avi"
//Break Periods
//Storyboard Layer 0 (Background)
//Storyboard Layer 1 (Fail)
//Storyboard Layer 2 (Pass)
//Storyboard Layer 3 (Foreground)
//Storyboard Sound Samples

[TimingPoints]
148,315.789473684211,4,2,1,50,1,0
148,-133.333333333333,4,2,1,50,0,0
10253,-125,4,2,1,50,0,0
30463,-200,4,2,1,40,0,0
35200,-200,4,2,1,60,0,0
35516,-111.111111111111,4,2,1,70,0,0
40569,-200,4,2,1,40,0,0
45621,-111.111111111111,4,2,1,70,0,0
52884,-133.333333333333,4,2,1,70,0,0
53200,-100,4,2,1,80,0,1
84779,-200,4,2,1,80,0,0
87305,-200,4,2,1,40,0,0
88884,-200,4,2,1,5,0,0

[Colours]
Combo1 : 0,128,255
Combo2 : 255,0,0
Combo3 : 128,128,128
Combo4 : 0,128,0

[HitObjects]
92,168,148,6,0,L|168:180,1,60.0000022888184,0|0,0:0|0:0,0:0:0:0:
151,177,621,2,0,L|291:169,1,120.000004577637,2|0,0:0|0:0,0:0:0:0:
356,160,1095,2,0,L|344:236,1,60.0000022888184,0|0,0:0|0:0,0:0:0:0:
296,288,1411,6,0,L|308:364,1,60.0000022888184,0|0,0:0|0:0,0:0:0:0:
305,347,1884,2,0,L|165:339,1,120.000004577637,2|0,0:0|0:0,0:0:0:0:
104,364,2358,2,0,L|94:304,1,60.0000022888184,0|0,0:0|0:0,0:0:0:0:
44,236,2674,6,0,P|52:192|48:156,1,60.0000022888184,0|0,0:0|0:0,0:0:0:0:
51,176,3148,2,0,P|88:184|160:140,1,120.000004577637,2|0,0:0|0:0,0:0:0:0:
184,68,3621,2,0,P|228:76|264:72,1,60.0000022888184,0|0,0:0|0:0,0:0:0:0:
324,52,3937,6,0,P|316:96|320:132,1,60.0000022888184,0|0,0:0|0:0,0:0:0:0:
316,112,4411,2,0,P|332:161|320:249,1,120.000004577637,2|0,0:0|0:0,0:0:0:0:
284,300,4884,2,0,L|204:288,1,60.0000022888184,0|0,0:0|0:0,0:0:0:0:
148,328,5200,5,0,1:0:0:0:
28,288,5516,2,0,B|88:278,1,60.0000022888184,0|0,1:0|0:0,0:0:0:0:
148,328,5832,2,0,B|128:288|128:288|141:213,1,120.000004577637,0|0,1:0|1:0,0:0:0:0:
252,44,6463,6,0,B|272:84|272:84|256:172,1,120.000004577637,0|0,1:0|0:0,0:0:0:0:
220,228,6937,1,0,0:0:0:0:
220,228,7095,2,0,P|296:208|360:216,1,120.000004577637,0|0,1:0|0:0,0:0:0:0:
420,344,7726,6,0,P|344:364|280:356,1,120.000004577637,0|0,1:0|0:0,0:0:0:0:
240,316,8200,1,0,0:0:0:0:
240,316,8358,2,0,L|92:308,1,120.000004577637,0|0,1:0|1:0,0:0:0:0:
24,188,8990,6,0,L|172:180,1,120.000004577637,0|0,1:0|0:0,0:0:0:0:
208,140,9463,1,0,0:0:0:0:
208,140,9621,2,0,P|240:152|324:124,1,120.000004577637,0|0,1:0|0:0,0:0:0:0:
460,40,10253,6,0,B|488:112|488:112|448:192|448:192|472:296,1,256,0|0,1:0|1:0,0:0:0:0:
376,368,11200,1,0,0:0:0:0:
256,320,11516,6,0,P|224:308|132:332,1,128,0|0,1:0|0:0,0:0:0:0:
24,208,12148,2,0,L|96:220,1,64,0|0,1:0|0:0,0:0:0:0:
88,136,12463,2,0,L|160:148,1,64,0|0,1:0|0:0,0:0:0:0:
148,64,12779,6,0,B|326:94|326:94|400:48,1,256,0|0,1:0|1:0,0:0:0:0:
484,140,13726,1,0,0:0:0:0:
408,244,14042,6,0,L|265:220,1,128,0|0,1:0|1:0,0:0:0:0:
200,204,14516,1,0,0:0:0:0:
200,204,14674,2,0,P|176:244|180:336,1,128,0|0,1:0|1:0,0:0:0:0:
56,208,15305,6,0,P|80:168|76:76,1,128,0|0,1:0|1:0,0:0:0:0:
24,28,15779,1,0,0:0:0:0:
24,28,15937,2,0,L|172:44,1,128,0|0,1:0|1:0,0:0:0:0:
236,48,16411,1,0,0:0:0:0:
236,48,16569,6,0,L|240:120,1,64,0|0,1:0|0:0,0:0:0:0:
316,144,16884,2,0,L|319:80,1,64,0|0,1:0|0:0,0:0:0:0:
404,84,17200,2,0,P|444:80|512:128,1,128,0|0,1:0|1:0,0:0:0:0:
396,248,17832,6,0,B|236:220|236:220|144:268,2,256,0|0|0,1:0|1:0|1:0,0:0:0:0:
480,344,19411,1,0,0:0:0:0:
356,368,19726,2,0,P|340:316|348:236,1,128,0|0,1:0|0:0,0:0:0:0:
428,144,20358,6,0,P|434:80|417:19,1,128,0|0,1:0|0:0,0:0:0:0:
352,72,20832,1,0,0:0:0:0:
352,72,20990,2,0,L|196:64,1,128,0|0,1:0|0:0,0:0:0:0:
116,192,21621,6,0,L|243:185,1,128,0|0,1:0|0:0,0:0:0:0:
372,292,22253,2,0,L|435:295,2,64,0|0|0,1:0|0:0|1:0,0:0:0:0:
212,344,22884,6,0,P|168:360|88:324,1,128,0|0,1:0|0:0,0:0:0:0:
160,276,23358,1,0,0:0:0:0:
160,276,23516,2,0,L|148:148,1,128,0|0,1:0|0:0,0:0:0:0:
272,36,24148,6,0,L|284:164,1,128,0|0,1:0|0:0,0:0:0:0:
428,244,24779,1,0,1:0:0:0:
428,244,25095,1,0,0:0:0:0:
308,360,25411,5,0,1:0:0:0:
308,360,25569,2,0,P|348:352|380:352,2,64,0|0|0,0:0|1:0|0:0,0:0:0:0:
228,376,26042,2,0,P|216:344|212:248,1,128,2|0,1:3|1:0,0:0:0:0:
252,176,26516,1,0,0:0:0:0:
324,216,26674,6,0,L|404:224,1,64,0|0,1:0|0:0,0:0:0:0:
328,124,26990,2,0,L|265:131,1,64,0|0,1:0|0:0,0:0:0:0:
172,168,27305,2,0,P|192:120|184:32,1,128,0|0,1:0|1:0,0:0:0:0:
24,128,27937,6,0,P|18:191|40:250,1,128,0|0,1:0|0:0,0:0:0:0:
112,292,28411,1,0,0:0:0:0:
112,292,28569,2,0,L|260:280,1,128,0|0,1:0|0:0,0:0:0:0:
344,152,29200,6,0,L|216:141,2,128,0|0|0,1:0|0:0|1:0,0:0:0:0:
344,152,30148,1,0,0:0:0:0:
392,304,30463,6,0,P|444:316|512:276,2,120,2|2|0,0:0|0:0|0:0,0:0:0:0:
348,244,31569,1,0,0:0:0:0:
400,188,31726,2,0,L|416:56,1,120,2|2,0:0|0:0,0:0:0:0:
264,92,32516,2,0,L|259:131,1,40,2|0,0:0|0:0,0:0:0:0:
112,168,32990,6,0,L|126:48,2,120,2|2|0,0:0|0:0|0:0,0:0:0:0:
88,320,34253,2,0,P|147:321|199:293,1,120,2|2,0:0|0:0,0:0:0:0:
256,152,35042,5,0,1:0:0:0:
256,152,35200,1,8,0:1:0:0:
256,152,35516,6,0,L|352:160,1,71.9999978027344,6|2,0:0|0:0,0:0:0:0:
408,124,35832,2,0,B|424:168|424:168|408:288,1,143.999995605469,8|0,0:0|0:0,0:0:0:0:
328,236,36305,1,2,0:0:0:0:
252,200,36463,2,0,B|239:296|239:296|255:340,1,143.999995605469,8|2,0:0|0:0,0:0:0:0:
168,348,36937,1,2,0:0:0:0:
124,272,37095,6,0,P|84:264|-8:312,1,143.999995605469,8|2,0:0|0:0,0:0:0:0:
40,192,37569,1,0,0:0:0:0:
122,164,37726,2,0,P|181:203|252:200,1,143.999995605469,8|2,0:0|0:0,0:0:0:0:
332,168,38200,1,2,0:0:0:0:
264,112,38358,6,0,L|268:36,1,71.9999978027344,8|0,0:0|0:0,0:0:0:0:
420,80,38674,2,0,L|344:84,1,71.9999978027344,2|0,0:0|0:0,0:0:0:0:
424,172,38990,2,0,L|500:176,1,71.9999978027344,8|0,0:0|0:0,0:0:0:0:
432,264,39305,6,0,L|264:276,1,143.999995605469,4|8,0:0|0:0,0:0:0:0:
212,316,39779,1,0,0:0:0:0:
212,316,39937,2,0,P|200:268|212:224,1,71.9999978027344,8|0,0:0|0:0,0:0:0:0:
259,118,40253,2,0,P|270:152|268:188,1,71.9999978027344,8|0,0:0|0:0,0:0:0:0:
120,296,40569,6,0,L|-12:288,2,120,2|2|2,0:0|0:0|0:0,0:0:0:0:
108,220,41674,1,0,0:0:0:0:
96,144,41832,2,0,P|100:96|196:44,1,160,2|2,0:0|0:0,0:0:0:0:
256,180,42779,1,2,0:0:0:0:
323,42,43095,6,0,P|395:69|416:144,1,160,2|0,0:0|0:0,0:0:0:0:
360,284,44042,1,2,0:0:0:0:
360,284,44358,2,0,L|200:268,1,160,2|2,0:0|0:0,0:0:0:0:
44,320,45621,5,6,0:0:0:0:
44,320,45779,1,2,0:0:0:0:
88,244,45937,2,0,P|96:208|60:104,1,143.999995605469,8|2,0:0|0:0,0:0:0:0:
8,44,46411,1,2,0:0:0:0:
8,44,46569,2,0,L|176:60,1,143.999995605469,8|2,0:0|0:0,0:0:0:0:
200,128,47042,5,0,0:0:0:0:
200,128,47200,2,0,L|368:112,1,143.999995605469,8|2,0:0|0:0,0:0:0:0:
424,76,47674,1,2,0:0:0:0:
476,148,47832,2,0,L|464:240,1,71.9999978027344,8|0,0:0|0:0,0:0:0:0:
488,304,48148,6,0,P|444:328|352:324,1,143.999995605469,2|8,0:0|0:0,0:0:0:0:
224,208,48779,1,10,0:0:0:0:
276,140,48937,2,0,L|280:84,2,35.9999989013672,0|0|8,0:0|0:0|0:0,0:0:0:0:
360,156,49253,2,0,L|364:100,2,35.9999989013672,0|0|4,0:0|0:0|0:0,0:0:0:0:
232,348,49726,5,8,0:0:0:0:
44,216,50042,1,8,0:0:0:0:
176,28,50358,1,8,0:0:0:0:
360,156,50674,6,0,L|348:236,1,71.9999978027344,8|8,0:0|0:0,0:0:0:0:
152,156,51148,2,0,L|164:236,1,71.9999978027344,8|8,0:0|0:0,0:0:0:0:
256,24,51621,2,0,L|256:116,1,71.9999978027344,8|8,0:0|0:0,0:0:0:0:
316,160,51937,6,0,L|368:168,2,35.9999989013672,4|0|8,0:0|0:0|0:0,0:0:0:0:
256,224,52253,1,0,0:0:0:0:
196,160,52411,2,0,L|144:168,2,35.9999989013672,4|0|8,0:0|0:0|0:0,0:0:0:0:
256,224,52726,1,0,0:0:0:0:
256,304,52884,2,0,L|256:380,1,60.0000022888184,8|0,0:0|0:0,0:0:0:0:
172,336,53200,6,0,P|136:352|24:312,1,160,4|8,0:0|0:0,0:0:0:0:
48,184,53674,2,0,P|84:168|196:208,1,160,2|0,0:0|0:0,0:0:0:0:
236,280,54148,1,8,0:0:0:0:
324,296,54305,6,0,L|496:284,1,160,4|2,0:0|0:0,0:0:0:0:
480,196,54779,1,8,0:0:0:0:
480,196,54937,2,0,P|492:144|508:100,1,80,0|2,0:0|0:0,0:0:0:0:
401,68,55253,2,0,P|406:108|408:148,1,80,0|8,0:0|0:0,0:0:0:0:
344,208,55569,1,0,0:0:0:0:
344,208,55648,1,0,0:0:0:0:
344,208,55726,6,0,L|176:196,1,160,6|8,0:0|0:0,0:0:0:0:
112,248,56200,1,0,0:0:0:0:
164,320,56358,2,0,P|208:316|264:300,1,80,2|2,0:0|0:0,0:0:0:0:
112,248,56674,2,0,P|73:238|33:235,1,80,8|0,0:0|0:0,0:0:0:0:
176,184,56990,6,0,P|192:140|188:84,2,80,2|0|8,0:0|0:0|0:0,0:0:0:0:
116,128,57463,2,0,P|201:115|296:108,1,160,2|2,0:0|0:0,0:0:0:0:
348,60,57937,1,8,0:0:0:0:
348,60,58095,1,0,0:0:0:0:
424,104,58253,6,0,L|408:204,1,80,4|0,0:0|0:0,0:0:0:0:
292,312,58726,2,0,P|248:296|148:348,1,160,8|8,0:0|0:0,0:0:0:0:
64,336,59200,1,10,0:0:0:0:
64,336,59358,6,0,P|48:284|32:164,1,160,4|0,0:0|0:0,0:0:0:0:
160,152,59832,2,0,P|176:204|192:324,1,160,8|2,0:0|0:0,0:0:0:0:
276,288,60305,2,0,P|272:352|264:384,2,80,0|8|0,0:0|0:0|0:0,0:0:0:0:
352,240,60779,5,4,0:0:0:0:
420,296,60937,2,0,L|476:308,2,40,8|8|8,0:0|0:0|0:0,0:0:0:0:
436,208,61253,1,4,0:0:0:0:
456,124,61411,2,0,L|512:136,2,40,8|8|8,0:0|0:0|0:0,0:0:0:0:
356,68,61726,1,0,0:0:0:0:
293,136,61884,6,0,P|359:94|436:108,1,160,4|0,0:0|0:0,0:0:0:0:
436,208,62358,2,0,P|396:210|357:202,1,80,8|0,0:0|0:0,0:0:0:0:
276,224,62674,2,0,P|278:263|270:302,1,80
200,356,62990,2,0,L|132:352,3,40,8|8|8|8,0:0|0:0|0:0|0:0,0:0:0:0:
120,364,63305,6,0,P|72:368|24:376,1,80,4|0,0:0|0:0,0:0:0:0:
4,284,63621,2,0,P|52:280|100:272,1,80,8|0,0:0|0:0,0:0:0:0:
120,184,63937,2,0,P|72:188|24:196,1,80,8|0,0:0|0:0,0:0:0:0:
4,104,64253,2,0,P|52:100|100:92,1,80,8|0,0:0|0:0,0:0:0:0:
164,44,64569,6,0,P|168:92|176:140,1,80,8|0,0:0|0:0,0:0:0:0:
264,179,64884,2,0,P|261:139|256:99,1,80,8|0,0:0|0:0,0:0:0:0:
336,28,65200,2,0,P|340:76|348:124,1,80,8|0,0:0|0:0,0:0:0:0:
436,163,65516,2,0,P|432:123|427:83,1,80,8|0,0:0|0:0,0:0:0:0:
500,248,65832,6,0,P|452:268|408:264,1,80,8|0,0:0|0:0,0:0:0:0:
376,340,66148,2,0,P|324:333|288:307,1,80,8|0,0:0|0:0,0:0:0:0:
212,332,66463,1,8,0:0:0:0:
168,256,66621,2,0,L|172:208,5,40,8|8|8|8|8|8,0:0|0:0|0:0|0:0|0:0|0:0,0:0:0:0:
200,192,67095,6,0,B|256:160|256:160|388:180,1,160,4|0,0:0|0:0,0:0:0:0:
460,72,67569,2,0,B|404:104|404:104|272:84,1,160,8|0,0:0|0:0,0:0:0:0:
220,72,68042,1,8,0:0:0:0:
100,180,68358,6,0,P|52:188|8:200,2,80,4|8|0,0:0|0:0|0:0,0:0:0:0:
77,338,68990,2,0,P|86:258|100:180,1,160,8|8,0:0|0:0,0:0:0:0:
200,284,69463,1,0,0:0:0:0:
200,284,69542,1,0,0:0:0:0:
200,284,69621,6,0,P|248:276|292:264,2,80,0|8|0,0:0|0:0|0:0,0:0:0:0:
187,124,70253,2,0,P|267:133|346:147,1,160,8|8,0:0|0:0,0:0:0:0:
404,12,70726,1,0,0:0:0:0:
404,12,70805,1,0,0:0:0:0:
404,12,70884,5,0,0:0:0:0:
416,100,71042,1,8,0:0:0:0:
336,68,71200,1,0,0:0:0:0:
336,68,71516,2,0,P|344:120|348:176,1,80,8|8,0:0|0:0,0:0:0:0:
320,232,71832,2,0,L|316:280,3,40,8|8|8|0,0:0|0:0|0:0|0:0,0:0:0:0:
328,316,72148,6,0,L|424:308,2,80,12|0|0,0:0|0:0|0:0,0:0:0:0:
256,364,72621,1,0,0:0:0:0:
256,364,72779,2,0,P|184:356|88:352,1,160,12|12,0:0|0:0,0:0:0:0:
196,152,73411,6,0,P|188:108|184:64,1,80,4|8,0:0|0:0,0:0:0:0:
256,20,73726,2,0,P|328:28|424:32,2,160,0|8|0,0:0|0:0|0:0,0:0:0:0:
216,252,74674,6,0,P|172:260|128:264,1,80,4|8,0:0|0:0,0:0:0:0:
84,192,74989,2,0,P|92:120|96:24,1,160,0|8,0:0|0:0,0:0:0:0:
256,104,75621,1,4,0:0:0:0:
416,32,75937,5,0,0:0:0:0:
416,32,76095,2,0,P|420:88|432:148,1,80,8|0,0:0|0:0,0:0:0:0:
452,196,76411,2,0,P|448:251|436:311,1,80,8|0,0:0|0:0,0:0:0:0:
376,332,76726,1,0,0:0:0:0:
288,348,76884,2,0,P|282:308|280:268,1,80,8|0,0:0|0:0,0:0:0:0:
328,192,77200,6,0,P|272:244|176:232,1,160,8|0,0:0|0:0,0:0:0:0:
128,304,77674,2,0,P|110:229|169:152,1,160,8|0,0:0|0:0,0:0:0:0:
132,76,78148,2,0,P|205:98|242:187,1,160,8|12,0:0|0:0,0:0:0:0:
128,304,78779,6,0,L|80:312,2,40,8|8|8,0:0|0:0|0:0,0:0:0:0:
208,340,79095,1,8,0:0:0:0:
208,340,79174,1,8,0:0:0:0:
208,340,79253,2,0,L|256:348,5,40,8|8|8|8|0|0,0:0|0:0|0:0|0:0|0:0|0:0,0:0:0:0:
288,340,79726,6,0,P|300:272|312:156,1,160,4|0,0:0|0:0,0:0:0:0:
368,116,80200,2,0,P|300:128|184:140,1,160,12|0,0:0|0:0,0:0:0:0:
116,60,80674,2,0,P|184:48|300:36,1,160,12|0,0:0|0:0,0:0:0:0:
368,116,81148,2,0,P|408:124|376:36,1,160,12|0,0:0|0:0,0:0:0:0:
280,128,81621,2,0,P|280:184|288:236,1,80,12|0,0:0|0:0,0:0:0:0:
408,284,81937,2,0,P|411:244|410:204,1,80,8|0,0:0|0:0,0:0:0:0:
328,336,82253,6,0,P|280:364|168:344,1,160,12|0,0:0|0:0,0:0:0:0:
168,224,82726,2,0,P|216:196|328:216,1,160,12|0,0:0|0:0,0:0:0:0:
408,284,83200,2,0,P|424:244|416:112,1,160,12|0,0:0|0:0,0:0:0:0:
268,52,83674,2,0,P|252:92|260:224,1,160,12|0,0:0|0:0,0:0:0:0:
296,304,84148,1,12,0:0:0:0:
144,352,84779,6,0,B|32:348|32:348|72:316,1,160,4|0,0:0|0:0,0:0:0:0:
180,88,86042,5,8,0:0:0:0:
180,88,86200,1,8,0:0:0:0:
256,132,86358,1,8,0:0:0:0:
256,132,86516,1,8,0:0:0:0:
332,88,86674,1,0,0:0:0:0:
332,88,86832,1,8,0:0:0:0:
384,276,87305,6,0,L|328:284,1,40,0|0,0:0|0:0,0:0:0:0:
328,300,87779,2,0,L|407:288,1,80,2|0,0:0|0:0,0:0:0:0:
480,320,88253,2,0,L|488:264,1,40
492,200,88569,6,0,P|504:180|484:200,1,80
