osu file format v14

[General]
AudioFilename: redo.mp3
AudioLeadIn: 0
PreviewTime: 52965
Countdown: 0
SampleSet: Soft
StackLeniency: 0.7
Mode: 0
LetterboxInBreaks: 0
WidescreenStoryboard: 0

[Editor]
Bookmarks: 5182
DistanceSpacing: 1.5
BeatDivisor: 6
GridSize: 4
TimelineZoom: 2.2

[Metadata]
Title:Redo
TitleUnicode:Redo
Artist:Suzuki Konomi
ArtistUnicode:鈴木このみ
Creator:Rizia
Version:Extra
Source:Re:ゼロから始める異世界生活
Tags:Re:Zero kara Hajimeru Isekai Seikatsu Re: Life in a different world from zero opening tv size anime kawaiwkyik xxdeathx HabiHolic eINess DreaM117er m1223961117 Chloe
BeatmapID:941197
BeatmapSetID:437055

[Difficulty]
HPDrainRate:7
CircleSize:4
OverallDifficulty:8.3
ApproachRate:9.3
SliderMultiplier:1.8
SliderTickRate:1

[Events]
//Background and Video events
0,0,"BG.jpg",0,0
Video,-761,"video.avi"
//Break Periods
//Storyboard Layer 0 (Background)
//Storyboard Layer 1 (Fail)
//Storyboard Layer 2 (Pass)
//Storyboard Layer 3 (Foreground)
//Storyboard Sound Samples

[TimingPoints]
148,315.789473684211,4,2,1,50,1,0
148,-133.333333333333,4,2,1,50,0,0
10253,-125,4,2,1,50,0,0
30463,-200,4,2,1,40,0,0
35200,-200,4,2,1,60,0,0
35516,-111.111111111111,4,2,1,70,0,0
40569,-200,4,2,1,40,0,0
45621,-111.111111111111,4,2,1,70,0,0
52884,-133.333333333333,4,2,1,70,0,0
53200,-100,4,2,1,80,0,1
84779,-200,4,2,1,80,0,0
87305,-200,4,2,1,40,0,0
88884,-200,4,2,1,5,0,0

[Colours]
Combo1 : 0,128,255
Combo2 : 255,0,0
Combo3 : 128,128,128
Combo4 : 0,128,0

[HitObjects]
268,204,147,5,0,0:0:0:0:
200,356,304,1,0,0:0:0:0:
164,284,621,6,0,L|312:276,1,135.000015258789,2|0,0:0|0:0,0:0:0:0:
192,208,1095,1,0,0:0:0:0:
276,356,1253,1,0,0:0:0:0:
268,204,1412,5,0,0:0:0:0:
200,356,1569,1,0,0:0:0:0:
298,276,1884,6,0,L|164:284,1,135.000015258789,2|0,0:0|0:0,0:0:0:0:
233,79,2358,1,0,0:0:0:0:
192,208,2516,1,0,0:0:0:0:
128,112,2674,5,0,0:0:0:0:
352,196,2832,1,0,0:0:0:0:
192,208,3147,2,0,L|236:72,1,135.000015258789,2|0,0:0|0:0,0:0:0:0:
352,196,3621,1,0,0:0:0:0:
192,208,3779,1,0,0:0:0:0:
260,64,3937,5,0,0:0:0:0:
276,276,4095,1,0,0:0:0:0:
116,164,4411,6,0,P|164:128|244:140,1,135.000005149842,2|0,0:0|0:0,0:0:0:0:
148,280,4884,1,0,0:0:0:0:
32,160,5042,1,0,0:0:0:0:
285,209,5200,6,0,L|273:297,1,67.5000025749208,0|0,1:0|0:0,0:0:0:0:
275,275,5674,1,0,0:0:0:0:
275,275,5832,2,0,B|379:255|379:255|367:299,1,135.000005149842,0|0,1:0|1:0,0:0:0:0:
316,364,6305,1,0,0:0:0:0:
164,356,6463,6,0,B|247:340|247:340,2,67.5000025749208,0|0|0,1:0|0:0|0:0,0:0:0:0:
72,280,6937,2,0,L|76:248,2,22.5000008583069
80,300,7095,2,0,L|97:161,1,135.000005149842,0|0,1:0|0:0,0:0:0:0:
96,166,7569,1,0,0:0:0:0:
228,44,7726,6,0,L|244:177,1,135.000005149842,0|0,1:0|0:0,0:0:0:0:
244,177,8200,1,0,0:0:0:0:
388,128,8358,2,0,L|316:112,1,67.5000025749208,0|0,1:0|0:0,0:0:0:0:
232,264,8674,2,0,L|304:248,1,67.5000025749208,0|0,1:0|0:0,0:0:0:0:
404,344,8990,5,0,1:0:0:0:
440,228,9148,2,0,L|368:212,1,67.5000025749208
232,264,9463,2,0,L|228:224,2,22.5000008583069
228,284,9621,2,0,P|184:312|80:288,1,135.000005149842,0|0,1:0|0:0,0:0:0:0:
100,48,10253,6,0,P|144:68|144:232,1,216,0|0,1:0|0:0,0:0:0:0:
80,152,10884,2,0,B|224:112|224:112|304:128,1,216,0|0,1:0|0:0,0:0:0:0:
372,144,11516,2,0,B|516:104|516:104,1,144,0|0,1:0|0:0,0:0:0:0:
316,348,12148,5,0,1:0:0:0:
276,272,12305,1,0,0:0:0:0:
208,328,12463,1,0,1:0:0:0:
168,252,12620,1,0,0:0:0:0:
96,300,12779,6,0,P|80:248|216:184,1,216,0|0,1:0|0:0,0:0:0:0:
362,235,13411,2,0,B|320:280|320:280|168:252,1,216,0|0,1:0|0:0,0:0:0:0:
32,360,14042,2,0,B|182:332,1,144,0|0,1:0|1:0,0:0:0:0:
200,188,14516,1,0,0:0:0:0:
128,116,14674,2,0,P|104:164|132:268,1,144,0|0,1:0|1:0,0:0:0:0:
272,264,15305,6,0,P|296:216|268:112,1,144,0|0,1:0|1:0,0:0:0:0:
136,40,15779,1,0,0:0:0:0:
72,116,15937,2,0,P|140:133|206:106,1,144,0|0,1:0|1:0,0:0:0:0:
272,32,16411,1,0,0:0:0:0:
412,156,16569,6,0,L|335:118,1,72,0|0,1:0|0:0,0:0:0:0:
288,292,16884,2,0,L|299:207,1,72,0|0,1:0|0:0,0:0:0:0:
52,216,17200,2,0,L|203:188,1,144,0|0,1:0|1:0,0:0:0:0:
193,189,17832,6,0,P|236:200|240:64,1,216,0|0,1:0|0:0,0:0:0:0:
152,112,18463,2,0,P|152:196|180:332,1,216,0|0,1:0|0:0,0:0:0:0:
264,352,19095,6,0,P|296:360|392:312,1,144,0|0,1:0|0:0,0:0:0:0:
152,112,19726,2,0,P|120:104|24:152,1,144,0|0,1:0|0:0,0:0:0:0:
308,272,20358,6,0,B|324:208|292:144|292:144|324:188|396:180,1,216,0|0,1:0|0:0,0:0:0:0:
360,92,20990,2,0,P|328:68|208:156,1,216,0|0,1:0|0:0,0:0:0:0:
152,232,21621,2,0,P|112:172|123:101,1,144,0|0,1:0|0:0,0:0:0:0:
360,92,22253,5,0,1:0:0:0:
284,160,22411,1,0,0:0:0:0:
264,60,22569,1,0,1:0:0:0:
356,204,22884,6,0,B|500:228|500:228|432:164,1,216,0|0,1:0|0:0,0:0:0:0:
472,312,23516,2,0,B|329:288|329:288|240:336|240:336,1,216,0|0,1:0|0:0,0:0:0:0:
276,212,24148,6,0,L|260:376,1,144,0|0,1:0|0:0,0:0:0:0:
112,136,24779,2,0,L|96:300,1,144,0|0,1:0|0:0,0:0:0:0:
420,88,25411,5,0,1:0:0:0:
420,88,25726,2,0,L|408:176,1,72,0|0,1:0|0:0,0:0:0:0:
357,238,26042,2,0,P|317:181|328:112,1,144,2|0,1:3|1:0,0:0:0:0:
327,112,26516,1,0,0:0:0:0:
152,192,26674,5,0,1:0:0:0:
220,108,26832,1,0,0:0:0:0:
116,92,26990,1,0,1:0:0:0:
220,108,27148,1,0,0:0:0:0:
48,168,27305,2,0,P|24:124|32:32,1,144,0|0,1:0|1:0,0:0:0:0:
260,200,27937,6,0,P|260:264|120:304,1,216,0|0,1:0|0:0,0:0:0:0:
180,236,28569,2,0,P|220:276|348:200,1,216,0|0,1:0|0:0,0:0:0:0:
276,62,29200,2,0,B|251:109|251:109|260:200,1,144,0|0,1:0|0:0,0:0:0:0:
416,284,29832,2,0,B|441:236|441:236|432:146,1,144,0|0,1:0|0:0,0:0:0:0:
228,128,30463,6,0,P|188:128|144:152,1,90,2|0,0:0|0:0,0:0:0:0:
104,224,30937,2,0,L|0:216,1,90,2|2,0:0|0:0,0:0:0:0:
14,217,31411,1,0,0:0:0:0:
64,128,31569,1,0,0:0:0:0:
152,312,31726,6,0,L|256:304,1,90,2|0,0:0|0:0,0:0:0:0:
328,300,32200,1,2,0:0:0:0:
228,128,32516,1,2,0:0:0:0:
228,128,32674,1,0,0:0:0:0:
264,352,32990,6,0,P|248:316|256:252,1,90,2|0,0:0|0:0,0:0:0:0:
316,212,33463,2,0,L|416:228,2,90,2|2|2,0:0|0:0|0:0,0:0:0:0:
228,96,34253,6,0,P|232:136|236:196,1,90,2|0,0:0|0:0,0:0:0:0:
308,301,34726,2,0,P|311:256|315:211,1,90,2|0,0:0|1:0,0:0:0:0:
420,124,35200,1,8,0:1:0:0:
420,124,35516,5,6,0:0:0:0:
484,264,35674,1,2,0:0:0:0:
484,264,35832,2,0,P|420:248|320:228,1,161.999995056153,8|0,0:0|0:0,0:0:0:0:
224,180,36305,1,2,0:0:0:0:
236,364,36463,2,0,P|244:316|248:264,1,80.9999975280763,8|0,0:0|0:0,0:0:0:0:
132,168,36779,5,2,0:0:0:0:
247,283,36937,1,2,0:0:0:0:
80,356,37095,2,0,P|71:308|67:256,1,80.9999975280763,8|0,0:0|0:0,0:0:0:0:
224,180,37411,1,2,0:0:0:0:
68,275,37569,1,0,0:0:0:0:
236,364,37726,2,0,L|408:348,1,161.999995056153,8|2,0:0|0:0,0:0:0:0:
308,192,38200,5,2,0:0:0:0:
308,192,38358,2,0,L|146:207,1,161.999995056153,8|2,0:0|0:0,0:0:0:0:
216,88,38832,1,0,0:0:0:0:
392,156,38990,1,8,0:0:0:0:
216,88,39148,1,0,0:0:0:0:
336,4,39305,6,0,L|344:92,1,80.9999975280763,4|0,0:0|0:0,0:0:0:0:
244,236,39621,1,8,0:0:0:0:
216,88,39779,1,0,0:0:0:0:
311,145,39937,2,0,P|359:153|419:157,1,80.9999975280763,8|0,0:0|0:0,0:0:0:0:
136,192,40253,1,8,0:0:0:0:
148,336,40411,1,0,0:0:0:0:
148,336,40490,1,8,0:0:0:0:
148,336,40569,6,0,P|184:344|240:324,1,90,2|0,0:0|0:0,0:0:0:0:
304,280,41042,2,0,L|408:292,1,90,2|0,0:0|0:0,0:0:0:0:
248,208,41516,1,2,0:0:0:0:
248,208,41674,1,0,0:0:0:0:
320,156,41832,6,0,P|336:120|240:32,1,180,2|2,0:0|0:0,0:0:0:0:
160,116,42779,1,2,0:0:0:0:
48,60,43095,2,0,P|64:136|76:248,1,180,2|0,0:0|0:0,0:0:0:0:
200,216,44042,1,2,0:0:0:0:
312,272,44358,2,0,P|360:288|472:224,1,180,2|2,0:0|0:0,0:0:0:0:
200,368,45621,5,6,0:0:0:0:
100,244,45779,1,2,0:0:0:0:
100,244,45937,2,0,L|264:264,1,161.999995056153,8|2,0:0|0:0,0:0:0:0:
336,164,46411,1,2,0:0:0:0:
248,100,46569,2,0,P|232:140|232:188,1,80.9999975280763,8|0,0:0|0:0,0:0:0:0:
348,264,46884,5,2,0:0:0:0:
230,177,47042,1,0,0:0:0:0:
204,344,47200,1,8,0:0:0:0:
384,284,47358,2,0,L|468:296,2,80.9999975280763,0|2|2,0:0|0:0|0:0,0:0:0:0:
276,264,47832,1,8,0:0:0:0:
372,140,47990,1,0,0:0:0:0:
320,336,48148,6,0,P|276:348|228:336,1,80.9999975280763,2|0,0:0|0:0,0:0:0:0:
84,360,48463,2,0,P|51:327|38:280,1,80.9999975280763,8|0,0:0|0:0,0:0:0:0:
188,56,48779,1,10,0:0:0:0:
196,268,48937,1,0,0:0:0:0:
196,268,49016,1,0,0:0:0:0:
196,268,49095,1,8,0:0:0:0:
20,168,49253,1,0,0:0:0:0:
20,168,49332,1,0,0:0:0:0:
20,168,49411,6,0,L|36:272,1,80.9999975280763,4|0,0:0|0:0,0:0:0:0:
183,348,49726,2,0,L|195:267,1,80.9999975280763,8|0,0:0|0:0,0:0:0:0:
328,35,50042,2,0,L|340:115,1,80.9999975280763,8|0,0:0|0:0,0:0:0:0:
492,216,50358,2,0,L|504:135,1,80.9999975280763,8|0,0:0|0:0,0:0:0:0:
136,120,50674,5,8,0:0:0:0:
136,120,50832,1,8,0:0:0:0:
392,192,51148,1,8,0:0:0:0:
392,192,51306,1,8,0:0:0:0:
56,232,51621,5,8,0:0:0:0:
292,112,51779,1,8,0:0:0:0:
144,284,51937,1,4,0:0:0:0:
144,284,52016,1,0,0:0:0:0:
144,284,52095,1,8,0:0:0:0:
212,68,52253,5,0,0:0:0:0:
344,312,52411,1,4,0:0:0:0:
344,312,52490,1,0,0:0:0:0:
344,312,52569,1,8,0:0:0:0:
288,16,52726,1,0,0:0:0:0:
128,316,52884,6,0,L|117:208,1,101.250003862381,8|0,0:0|0:0,0:0:0:0:
200,236,53200,6,0,P|248:268|360:244,1,135,4|0,0:0|0:0,0:0:0:0:
388,224,53516,1,8,0:0:0:0:
272,128,53674,1,0,0:0:0:0:
276,156,53753,1,0,0:0:0:0:
280,184,53832,1,2,0:0:0:0:
340,40,53990,2,0,P|300:20|236:24,1,90,0|8,0:0|0:0,0:0:0:0:
0,112,54305,6,0,B|68:100|68:100|100:108|100:108|180:92,1,180,4|2,0:0|0:0,0:0:0:0:
100,8,54779,1,8,0:0:0:0:
64,188,54937,2,0,P|64:236|92:289,1,90,0|2,0:0|0:0,0:0:0:0:
292,216,55253,2,0,L|176:204,1,90,0|8,0:0|0:0,0:0:0:0:
196,368,55569,1,0,0:0:0:0:
196,368,55648,1,0,0:0:0:0:
196,368,55726,5,6,0:0:0:0:
292,216,55884,1,0,0:0:0:0:
144,264,56042,1,8,0:0:0:0:
316,344,56200,1,0,0:0:0:0:
296,136,56358,5,2,0:0:0:0:
144,264,56516,1,2,0:0:0:0:
360,280,56674,1,8,0:0:0:0:
196,192,56832,1,0,0:0:0:0:
92,340,56990,5,2,0:0:0:0:
275,128,57148,2,0,P|290:171|292:216,1,90,0|8,0:0|0:0,0:0:0:0:
58,252,57463,2,0,P|110:183|196:192,1,180,2|2,0:0|0:0,0:0:0:0:
292,216,57937,1,8,0:0:0:0:
80,68,58095,1,0,0:0:0:0:
56,300,58253,5,4,0:0:0:0:
56,300,58411,1,0,0:0:0:0:
388,244,58726,1,8,0:0:0:0:
104,136,59042,5,8,0:0:0:0:
256,192,59200,1,10,0:0:0:0:
408,248,59358,6,0,P|432:208|404:68,1,180,4|0,0:0|0:0,0:0:0:0:
152,200,59832,1,8,0:0:0:0:
300,76,59990,1,0,0:0:0:0:
300,76,60069,1,0,0:0:0:0:
300,76,60148,1,2,0:0:0:0:
304,312,60305,1,0,0:0:0:0:
216,80,60463,1,8,0:0:0:0:
44,240,60621,1,0,0:0:0:0:
340,232,60779,5,4,0:0:0:0:
128,112,60937,1,8,0:0:0:0:
128,112,61016,1,8,0:0:0:0:
128,112,61095,1,8,0:0:0:0:
392,100,61253,1,4,0:0:0:0:
104,292,61411,1,8,0:0:0:0:
104,292,61490,1,8,0:0:0:0:
104,292,61569,2,0,L|168:312,1,45,8|0,0:0|0:0,0:0:0:0:
228,352,61726,2,0,L|270:338,1,45,8|0,0:0|0:0,0:0:0:0:
376,304,61884,6,0,P|388:260|296:136,1,180,4|0,0:0|0:0,0:0:0:0:
140,188,62358,1,8,0:0:0:0:
272,36,62516,2,0,L|280:112,1,45
292,248,62674,1,0,0:0:0:0:
76,116,62832,1,0,0:0:0:0:
116,96,62911,1,0,0:0:0:0:
160,96,62990,1,8,0:0:0:0:
200,112,63069,1,8,0:0:0:0:
240,132,63148,1,8,0:0:0:0:
284,136,63226,1,8,0:0:0:0:
328,124,63305,6,0,L|316:240,1,90,4|0,0:0|0:0,0:0:0:0:
140,188,63621,1,8,0:0:0:0:
308,336,63779,1,0,0:0:0:0:
200,112,63937,1,8,0:0:0:0:
156,348,64095,1,0,0:0:0:0:
276,44,64253,1,8,0:0:0:0:
48,264,64411,2,0,L|108:256,1,45
280,240,64569,5,8,0:0:0:0:
140,188,64726,1,0,0:0:0:0:
328,124,64884,1,8,0:0:0:0:
172,272,65042,1,0,0:0:0:0:
388,316,65200,1,8,0:0:0:0:
324,80,65358,1,0,0:0:0:0:
240,360,65517,1,8,0:0:0:0:
368,96,65675,1,0,0:0:0:0:
368,96,65753,1,0,0:0:0:0:
368,96,65832,5,8,0:0:0:0:
312,324,65990,1,0,0:0:0:0:
140,188,66148,1,8,0:0:0:0:
280,240,66306,1,0,0:0:0:0:
116,332,66463,1,8,0:0:0:0:
100,96,66621,1,8,0:0:0:0:
146,87,66700,1,8,0:0:0:0:
188,99,66779,1,8,0:0:0:0:
223,130,66858,1,8,0:0:0:0:
236,172,66937,1,8,0:0:0:0:
236,217,67016,1,8,0:0:0:0:
256,256,67095,6,0,P|300:276|444:204,1,180,4|0,0:0|0:0,0:0:0:0:
200,356,67569,2,0,L|16:336,1,180,8|0,0:0|0:0,0:0:0:0:
132,136,68042,1,8,0:0:0:0:
168,264,68200,1,0,0:0:0:0:
44,232,68358,5,4,0:0:0:0:
220,160,68516,1,8,0:0:0:0:
28,72,68674,1,0,0:0:0:0:
28,72,68990,1,8,0:0:0:0:
132,136,69148,1,0,0:0:0:0:
268,24,69306,1,8,0:0:0:0:
248,236,69463,1,0,0:0:0:0:
248,236,69542,1,0,0:0:0:0:
248,236,69621,5,0,0:0:0:0:
324,144,69779,1,8,0:0:0:0:
360,340,69937,1,0,0:0:0:0:
360,340,70253,1,8,0:0:0:0:
156,256,70411,1,0,0:0:0:0:
156,256,70490,1,0,0:0:0:0:
156,256,70569,1,8,0:0:0:0:
324,144,70726,2,0,L|332:216,1,45
344,312,70884,5,0,0:0:0:0:
240,212,71042,1,8,0:0:0:0:
192,384,71200,1,0,0:0:0:0:
180,44,71516,1,8,0:0:0:0:
128,128,71674,1,8,0:0:0:0:
157,139,71752,1,8,0:0:0:0:
188,141,71831,1,8,0:0:0:0:
218,132,71910,1,8,0:0:0:0:
245,115,71989,1,8,0:0:0:0:
180,44,72148,5,12,0:0:0:0:
132,316,72305,1,0,0:0:0:0:
132,316,72384,1,0,0:0:0:0:
132,316,72463,1,0,0:0:0:0:
396,220,72621,1,0,0:0:0:0:
72,176,72779,5,12,0:0:0:0:
448,92,73095,1,12,0:0:0:0:
448,92,73411,5,4,0:0:0:0:
256,192,73569,1,8,0:0:0:0:
64,292,73726,1,0,0:0:0:0:
160,96,74042,5,8,0:0:0:0:
352,288,74358,1,0,0:0:0:0:
56,92,74674,5,4,0:0:0:0:
256,192,74832,1,8,0:0:0:0:
456,292,74990,1,0,0:0:0:0:
363,84,75305,5,8,0:0:0:0:
148,299,75621,1,4,0:0:0:0:
440,372,75937,5,0,0:0:0:0:
148,299,76095,1,8,0:0:0:0:
336,232,76253,1,0,0:0:0:0:
240,152,76411,1,8,0:0:0:0:
148,299,76569,2,0,L|137:209,1,90
316,292,76884,2,0,L|304:392,1,90,8|0,0:0|0:0,0:0:0:0:
44,236,77200,6,0,P|40:184|140:112,1,180,8|0,0:0|0:0,0:0:0:0:
316,196,77674,2,0,B|228:232|228:232|120:208,1,180,8|0,0:0|0:0,0:0:0:0:
200,28,78148,2,0,P|234:84|225:150,1,135,8|0,0:0|0:0,0:0:0:0:
204,168,78463,5,12,0:0:0:0:
368,96,78621,1,0,0:0:0:0:
368,96,78700,1,0,0:0:0:0:
368,96,78779,2,0,L|376:36,2,45,8|8|8,0:0|0:0|0:0,0:0:0:0:
316,208,79095,6,0,L|321:252,1,45,8|8,0:0|0:0,0:0:0:0:
240,360,79253,2,0,L|235:316,1,45,8|8,0:0|0:0,0:0:0:0:
180,240,79411,1,8,0:0:0:0:
137,228,79489,1,8,0:0:0:0:
94,239,79568,1,0,0:0:0:0:
62,270,79647,1,0,0:0:0:0:
48,312,79726,5,4,0:0:0:0:
192,200,79884,1,0,0:0:0:0:
300,344,80042,1,0,0:0:0:0:
108,228,80200,2,0,P|112:168|224:120,1,180,12|0,0:0|0:0,0:0:0:0:
376,172,80674,5,12,0:0:0:0:
192,200,80832,1,0,0:0:0:0:
256,28,80990,1,0,0:0:0:0:
308,255,81148,2,0,P|311:300|300:344,2,90,12|0|0,0:0|0:0|0:0,0:0:0:0:
116,139,81621,2,0,P|105:183|108:228,1,90,12|0,0:0|0:0,0:0:0:0:
284,148,81937,2,0,P|252:116|212:96,1,90,8|0,0:0|0:0,0:0:0:0:
180,308,82253,5,12,0:0:0:0:
308,256,82411,1,0,0:0:0:0:
392,376,82569,1,0,0:0:0:0:
376,192,82726,1,12,0:0:0:0:
276,352,82884,1,0,0:0:0:0:
188,120,83042,1,0,0:0:0:0:
72,288,83200,6,0,P|100:256|148:244,1,90,12|0,0:0|0:0,0:0:0:0:
276,352,83516,1,0,0:0:0:0:
376,192,83674,1,12,0:0:0:0:
212,148,83832,1,0,0:0:0:0:
168,312,83990,1,0,0:0:0:0:
332,356,84148,1,12,0:0:0:0:
280,20,84779,6,0,L|292:216,1,180,4|0,0:0|0:0,0:0:0:0:
290,199,85884,5,0,0:0:0:0:
290,199,85963,1,0,0:0:0:0:
290,199,86042,1,8,0:0:0:0:
192,148,86200,1,8,0:0:0:0:
368,80,86358,1,8,0:0:0:0:
192,24,86516,1,8,0:0:0:0:
396,184,86674,1,0,0:0:0:0:
124,264,86832,1,8,0:0:0:0:
392,348,87305,6,0,L|448:356,1,45
436,354,87779,2,0,P|408:332|352:336,1,90,2|0,0:0|0:0,0:0:0:0:
280,372,88253,1,0,0:0:0:0:
312,244,88411,1,0,0:0:0:0:
312,244,88569,6,0,B|324:312|324:312|307:300|288:296,1,90
