osu file format v14

[General]
AudioFilename: Re_Zero kara Hajimeru Isekai Seikatsu - OP _ Opening.mp3
AudioLeadIn: 0
PreviewTime: 53122
Countdown: 0
SampleSet: Soft
StackLeniency: 0.7
Mode: 0
LetterboxInBreaks: 0
WidescreenStoryboard: 0

[Editor]
Bookmarks: 149,5201,30464,35517,40570,45622,50675,53201,63306,68359,79727,87306
DistanceSpacing: 0.7
BeatDivisor: 6
GridSize: 4
TimelineZoom: 1.4

[Metadata]
Title:Redo
TitleUnicode:Redo
Artist:Suzuki Konomi
ArtistUnicode:鈴木このみ
Creator:Cryptic
Version:Return by Death
Source:Re:ゼロから始める異世界生活
Tags:Re: Re:Zero Starting Life In A Different World From Zero 2016 Spring Anime Opening TV size kara hajimeru isekai seikatsu Anxient Joey Sharkie Exote Fizz Regraz
BeatmapID:988619
BeatmapSetID:451168

[Difficulty]
HPDrainRate:6.4
CircleSize:4.3
OverallDifficulty:8.9
ApproachRate:9.4
SliderMultiplier:1.9
SliderTickRate:1

[Events]
//Background and Video events
0,0,"691162.jpg",0,0
Video,-761,"video.avi"
//Break Periods
//Storyboard Layer 0 (Background)
//Storyboard Layer 1 (Fail)
//Storyboard Layer 2 (Pass)
//Storyboard Layer 3 (Foreground)
//Storyboard Sound Samples

[TimingPoints]
149,315.789473684211,4,2,9,60,1,0
149,-133.333333333333,4,2,9,60,0,0
5201,-113.636363636364,4,2,9,60,0,0
30464,-200,4,2,9,60,0,0
32912,-200,4,2,9,60,0,0
32991,-200,4,2,9,60,0,0
34964,-200,4,2,9,60,0,0
35043,-100,4,2,9,60,0,0
35438,-100,4,2,9,60,0,0
35517,-100,4,2,9,60,0,0
40570,-200,4,2,9,60,0,0
44596,-200,4,2,9,5,0,0
44675,-133.333333333333,4,2,9,60,0,0
44912,-133.333333333333,4,2,9,5,0,0
44991,-113.636363636364,4,2,9,60,0,0
45306,-113.636363636364,4,2,9,5,0,0
45543,-113.636363636364,4,2,9,5,0,0
45622,-100,4,2,9,60,0,0
53201,-80,4,2,9,70,0,1
68359,-113.636363636364,4,2,9,70,0,1
73412,-100,4,2,9,70,0,1
79727,-80,4,2,9,70,0,1
84464,-200,4,2,9,70,0,1
84780,-100,4,2,9,70,0,1
85333,-100,4,2,9,70,0,1
85412,-100,4,2,9,70,0,1
85806,-100,4,2,9,70,0,1
85885,-100,4,2,9,70,0,1
87306,-133.333333333333,4,2,9,60,0,0
88517,-133.333333333333,4,2,9,60,0,0
88570,-133.333333333333,4,2,9,60,0,0
88727,-133.333333333333,4,2,9,5,0,0
89043,-133.333333333333,4,2,9,5,0,0

[Colours]
Combo1 : 109,153,101
Combo2 : 172,152,186
Combo3 : 148,91,138
Combo4 : 193,123,133

[HitObjects]
88,148,149,6,0,L|12:168,1,71.2500027179719,0|0,0:0|0:0,0:0:0:0:
228,208,622,2,0,L|366:242,1,142.500005435944
240,226,1096,2,0,L|316:246,1,71.2500027179719,0|0,0:0|0:0,0:0:0:0:
112,184,1412,6,0,L|36:204,1,71.2500027179719,0|0,0:0|0:0,0:0:0:0:
252,244,1885,2,0,L|390:278,1,142.500005435944
264,262,2359,2,0,L|340:282,1,71.2500027179719,0|0,0:0|0:0,0:0:0:0:
140,220,2675,6,0,L|64:240,1,71.2500027179719,0|0,0:0|0:0,0:0:0:0:
280,280,3148,2,0,L|418:314,1,142.500005435944
292,298,3622,2,0,L|368:318,1,71.2500027179719,0|0,0:0|0:0,0:0:0:0:
164,256,3938,6,0,L|88:276,1,71.2500027179719,0|0,0:0|0:0,0:0:0:0:
304,316,4412,2,0,L|442:350,1,142.500005435944
316,334,4886,2,0,L|392:354,1,71.2500027179719,0|0,0:0|0:0,0:0:0:0:
164,256,5201,6,0,P|184:220|224:188,1,83.6000025512696,2|0,0:0|0:0,0:0:0:0:
384,180,5517,2,0,P|342:180|295:162,1,83.6000025512696,2|0,0:0|0:0,0:0:0:0:
209,28,5833,2,0,P|230:63|238:104,1,83.6000025512696,10|0,0:0|0:0,0:0:0:0:
72,120,6149,1,2,0:0:0:0:
84,116,6201,1,0,0:0:0:0:
96,112,6254,1,0,0:0:0:0:
108,108,6306,1,0,0:0:0:0:
238,104,6464,6,0,L|157:127,1,83.6000025512696,2|0,0:0|0:0,0:0:0:0:
289,41,6780,1,2,0:0:0:0:
267,180,6938,1,0,0:0:0:0:
265,193,6991,1,0,0:0:0:0:
263,206,7043,1,0,0:0:0:0:
261,219,7096,2,0,L|356:192,1,83.6000025512696,10|0,0:0|0:0,0:0:0:0:
187,167,7412,2,0,L|106:190,1,83.6000025512696,2|0,0:0|0:0,0:0:0:0:
290,295,7727,6,0,B|328:312|328:312|376:316,1,83.6000025512696,2|0,0:0|0:0,0:0:0:0:
318,160,8043,2,0,B|284:184|284:184|256:223,1,83.6000025512696,2|0,0:0|0:0,0:0:0:0:
420,251,8359,2,0,B|415:209|415:209|395:166,1,83.6000025512696,10|0,0:0|0:0,0:0:0:0:
428,40,8674,1,2,0:0:0:0:
435,53,8727,1,0,0:0:0:0:
441,64,8779,1,0,0:0:0:0:
447,76,8832,1,0,0:0:0:0:
488,196,8991,6,0,L|447:122,1,83.6000025512696,2|0,0:0|0:0,0:0:0:0:
502,283,9306,1,2,0:0:0:0:
338,219,9464,1,0,0:0:0:0:
324,214,9517,1,0,0:0:0:0:
310,209,9570,1,0,0:0:0:0:
296,205,9622,2,0,L|336:278,1,83.6000025512696,10|0,0:0|0:0,0:0:0:0:
380,104,9938,2,0,L|339:30,1,83.6000025512696,2|0,0:0|0:0,0:0:0:0:
296,205,10254,6,0,L|420:247,1,125.400003826904,2|0,0:0|0:0,0:0:0:0:
319,292,10570,2,0,L|235:264,1,83.6000025512696,2|0,0:0|0:0,0:0:0:0:
80,316,10885,2,0,B|132:308|132:308|252:348,1,167.200005102539,10|2,0:0|0:0,0:0:0:0:
342,379,11359,1,0,0:0:0:0:
160,200,11517,6,0,P|188:120|260:76,1,167.200005102539,2|2,0:0|0:0,0:0:0:0:
296,205,11991,1,0,0:0:0:0:
308,196,12043,1,0,0:0:0:0:
320,188,12096,1,0,0:0:0:0:
332,180,12149,1,10,0:0:0:0:
136,200,12306,1,0,0:0:0:0:
319,292,12464,1,2,0:0:0:0:
123,312,12622,1,0,0:0:0:0:
342,379,12780,6,0,P|393:347|407:279,1,125.400003826904,2|0,0:0|0:0,0:0:0:0:
472,204,13096,2,0,P|500:236|512:284,1,83.6000025512696,2|0,0:0|0:0,0:0:0:0:
366,192,13412,2,0,B|384:140|384:140|424:108|424:108|440:48,1,167.200005102539,10|2,0:0|0:0,0:0:0:0:
336,48,13885,1,0,0:0:0:0:
136,200,14043,6,0,P|212:224|296:204,1,167.200005102539,2|2,0:0|0:0,0:0:0:0:
220,92,14517,1,0,0:0:0:0:
208,88,14570,1,0,0:0:0:0:
196,84,14622,1,0,0:0:0:0:
184,80,14675,2,0,B|152:68|152:68|88:72,1,83.6000025512696,10|0,0:0|0:0,0:0:0:0:
0,148,14991,2,0,L|98:141,1,83.6000025512696,2|0,0:0|0:0,0:0:0:0:
316,128,15306,5,2,0:0:0:0:
184,80,15464,2,0,L|100:48,1,83.6000025512696,0|2,0:0|0:0,0:0:0:0:
293,219,15780,1,0,0:0:0:0:
161,171,15938,2,0,L|77:139,1,83.6000025512696,10|0,0:0|0:0,0:0:0:0:
384,194,16254,1,2,0:0:0:0:
202,244,16412,1,0,0:0:0:0:
316,128,16570,6,0,P|360:100|441:118,1,125.400003826904,2|0,0:0|0:0,0:0:0:0:
448,128,16885,1,2,0:0:0:0:
293,219,17043,1,0,0:0:0:0:
308,224,17096,1,0,0:0:0:0:
320,228,17149,1,0,0:0:0:0:
332,232,17201,2,0,L|316:132,1,83.6000025512696,10|0,0:0|0:0,0:0:0:0:
461,45,17517,2,0,L|445:145,1,83.6000025512696,2|0,0:0|0:0,0:0:0:0:
344,236,17833,6,0,B|288:216|288:216|176:252,1,167.200005102539,2|2,0:0|0:0,0:0:0:0:
84,284,18306,1,0,0:0:0:0:
332,320,18464,2,0,P|392:312|428:260,1,125.400003826904,10|0,0:0|0:0,0:0:0:0:
422,156,18780,2,0,P|416:196|428:244,1,83.6000025512696,2|0,0:0|0:0,0:0:0:0:
500,76,19096,6,0,P|444:44|344:76,1,167.200005102539,2|2,0:0|0:0,0:0:0:0:
221,180,19570,1,0,0:0:0:0:
207,181,19623,1,0,0:0:0:0:
194,179,19675,1,0,0:0:0:0:
181,174,19727,2,0,B|232:144|300:168|300:168|360:196|422:156,1,250.800007653809,10|0,0:0|0:0,0:0:0:0:
181,174,20359,6,0,L|49:162,1,125.400003826904,2|0,0:0|0:0,0:0:0:0:
121,246,20675,2,0,L|209:254,1,83.6000025512696,2|0,0:0|0:0,0:0:0:0:
324,372,20991,2,0,B|268:335|268:335|167:326,1,167.200005102539,10|2,0:0|0:0,0:0:0:0:
60,320,21464,1,0,0:0:0:0:
304,260,21622,6,0,P|328:184|300:84,1,167.200005102539,2|2,0:0|0:0,0:0:0:0:
181,174,22096,1,0,0:0:0:0:
191,178,22149,1,0,0:0:0:0:
205,183,22201,1,0,0:0:0:0:
216,188,22254,1,10,0:0:0:0:
408,192,22412,1,0,0:0:0:0:
220,88,22570,1,2,0:0:0:0:
316,280,22727,1,0,0:0:0:0:
500,104,22885,6,0,P|456:72|380:68,1,125.400003826904,2|0,0:0|0:0,0:0:0:0:
288,28,23201,2,0,L|372:60,1,83.6000025512696,2|0,0:0|0:0,0:0:0:0:
200,80,23517,2,0,L|360:140,1,167.200005102539,10|2,0:0|0:0,0:0:0:0:
456,172,23991,1,0,0:0:0:0:
200,176,24149,6,0,P|168:236|176:340,1,167.200005102539,2|2,0:0|0:0,0:0:0:0:
316,280,24622,1,0,0:0:0:0:
328,276,24675,1,0,0:0:0:0:
340,272,24727,1,0,0:0:0:0:
352,268,24780,2,0,B|381:258|381:258|448:264,1,83.6000025512696,10|0,0:0|0:0,0:0:0:0:
496,152,25096,2,0,L|406:162,1,83.6000025512696,2|0,0:0|0:0,0:0:0:0:
288,176,25412,5,2,0:0:0:0:
336,60,25570,1,0,0:0:0:0:
381,259,25727,1,2,0:0:0:0:
332,40,25885,1,0,0:0:0:0:
280,196,26043,2,0,L|252:284,1,83.6000025512696,10|0,0:0|0:0,0:0:0:0:
308,116,26359,1,2,0:0:0:0:
350,357,26517,1,0,0:0:0:0:
412,161,26675,5,2,0:0:0:0:
225,132,26833,1,0,0:0:0:0:
432,164,26991,1,2,0:0:0:0:
198,212,27149,1,0,0:0:0:0:
184,215,27201,1,0,0:0:0:0:
170,218,27254,1,0,0:0:0:0:
156,222,27306,2,0,L|240:240,1,83.6000025512696,10|0,0:0|0:0,0:0:0:0:
417,244,27622,2,0,L|333:262,1,83.6000025512696,2|0,0:0|0:0,0:0:0:0:
481,294,27938,6,0,P|497:258|425:162,1,167.200005102539,2|2,0:0|0:0,0:0:0:0:
472,304,28412,1,0,0:0:0:0:
449,80,28570,2,0,P|384:92|350:187,1,167.200005102539,10|2,0:0|0:0,0:0:0:0:
462,83,29043,1,0,0:0:0:0:
268,193,29201,6,0,B|204:204|204:204|136:196,1,125.400003826904,2|0,0:0|0:0,0:0:0:0:
124,192,29517,1,2,0:0:0:0:
253,110,29675,1,0,0:0:0:0:
333,260,29833,2,0,B|347:178,1,83.6000025512696,10|0,0:0|0:0,0:0:0:0:
267,357,30149,2,0,B|253:275,1,83.6000025512696,2|0,0:0|0:0,0:0:0:0:
84,321,30464,5,0,0:0:0:0:
50,258,30622,1,0,0:0:0:0:
50,186,30780,1,0,0:0:0:0:
82,122,30938,1,0,0:0:0:0:
50,186,31254,5,0,0:0:0:0:
79,251,31411,1,0,0:0:0:0:
147,274,31569,1,0,0:0:0:0:
82,122,31885,5,0,0:0:0:0:
50,186,32043,1,0,0:0:0:0:
79,251,32201,1,0,0:0:0:0:
147,274,32359,1,0,0:0:0:0:
218,262,32517,1,0,0:0:0:0:
289,266,32675,2,0,P|321:270|365:294,1,71.25
384,309,32990,5,0,0:0:0:0:
374,238,33148,1,0,0:0:0:0:
394,170,33306,1,0,0:0:0:0:
446,122,33464,1,0,0:0:0:0:
394,170,33780,5,0,0:0:0:0:
326,193,33938,1,0,0:0:0:0:
258,174,34096,1,0,0:0:0:0:
202,130,34254,1,0,0:0:0:0:
141,94,34411,1,0,0:0:0:0:
70,102,34569,1,0,0:0:0:0:
20,153,34727,2,0,P|12:177|16:229,1,71.25
25,257,35043,5,2,0:0:0:0:
160,1,35201,2,0,P|136:56|64:104,1,142.5,8|0,0:0|0:0,0:0:0:0:
20,153,35517,6,0,P|70:151|122:175,1,95,4|0,0:0|0:0,0:0:0:0:
2,135,35833,2,0,P|66:131|146:163,1,142.5,8|0,0:0|0:0,0:0:0:0:
240,220,36149,2,0,P|280:236|336:240,1,95,2|2,0:0|0:0,0:0:0:0:
241,99,36464,1,8,0:0:0:0:
241,99,36622,1,0,0:0:0:0:
135,278,36780,6,0,L|112:184,1,95,2|2,0:0|0:0,0:0:0:0:
120,300,37096,2,0,L|97:206,1,95,8|0,0:0|0:0,0:0:0:0:
34,362,37412,1,2,0:0:0:0:
240,220,37570,1,2,0:0:0:0:
92,188,37727,1,8,0:0:0:0:
92,188,37885,1,0,0:0:0:0:
239,341,38043,6,0,P|284:332|324:304,1,95,2|2,0:0|0:0,0:0:0:0:
224,360,38359,2,0,P|284:352|356:296,1,142.5,8|0,0:0|0:0,0:0:0:0:
324,188,38675,2,0,P|320:144|328:88,1,95,2|2,0:0|0:0,0:0:0:0:
500,260,38991,2,0,P|504:304|496:360,1,95,8|0,0:0|0:0,0:0:0:0:
304,196,39306,5,6,0:0:0:0:
474,71,39464,1,2,0:0:0:0:
424,284,39622,1,8,0:0:0:0:
332,78,39780,1,2,0:0:0:0:
276,314,39938,1,8,0:0:0:0:
190,85,40096,1,2,0:0:0:0:
128,344,40254,1,8,0:0:0:0:
48,92,40412,1,8,0:0:0:0:
48,92,40491,1,8,0:0:0:0:
48,92,40570,5,0,0:0:0:0:
93,147,40727,1,0,0:0:0:0:
164,140,40885,1,0,0:0:0:0:
233,160,41043,1,0,0:0:0:0:
164,140,41359,5,0,0:0:0:0:
97,166,41517,1,0,0:0:0:0:
62,228,41675,1,0,0:0:0:0:
72,299,41833,1,0,0:0:0:0:
124,348,41991,1,0,0:0:0:0:
195,356,42149,1,0,0:0:0:0:
255,318,42306,1,0,0:0:0:0:
293,257,42464,1,0,0:0:0:0:
343,206,42622,1,0,0:0:0:0:
414,209,42780,1,0,0:0:0:0:
460,264,42938,1,0,0:0:0:0:
448,335,43096,5,0,0:0:0:0:
493,280,43254,1,0,0:0:0:0:
508,211,43412,1,0,0:0:0:0:
496,140,43570,1,0,0:0:0:0:
460,79,43727,2,0,P|448:51|444:23,1,47.5
496,140,44043,1,0,0:0:0:0:
508,211,44201,1,0,0:0:0:0:
493,280,44359,6,0,P|461:264|441:224,1,71.25
436,200,44675,6,0,P|400:244|396:296,1,106.875004076958,0|0,0:0|0:0,0:0:0:0:
404,328,44991,6,0,B|332:296|272:316|272:316|184:344|124:296,1,292.600008929444
100,272,45622,6,0,L|128:176,1,95,6|2,0:0|0:0,0:0:0:0:
76,284,45938,2,0,L|120:140,1,142.5,8|0,0:0|0:0,0:0:0:0:
208,68,46254,2,0,L|234:159,1,95,2|2,0:0|0:0,0:0:0:0:
34,203,46570,1,8,0:0:0:0:
34,203,46727,1,0,0:0:0:0:
93,29,46885,6,0,P|88:96|104:128,1,95,2|2,0:0|0:0,0:0:0:0:
80,8,47201,2,0,P|68:48|72:104,1,95,8|0,0:0|0:0,0:0:0:0:
124,256,47517,1,2,0:0:0:0:
208,68,47675,1,2,0:0:0:0:
34,203,47833,1,8,0:0:0:0:
34,203,47991,1,0,0:0:0:0:
214,309,48149,6,0,B|176:340|176:340|128:360,1,95,2|2,0:0|0:0,0:0:0:0:
211,188,48464,2,0,B|256:196|256:196|307:232,1,95,8|0,0:0|0:0,0:0:0:0:
124,256,48780,1,2,0:0:0:0:
208,68,48938,1,8,0:0:0:0:
216,48,49017,1,8,0:0:0:0:
224,28,49096,1,8,0:0:0:0:
211,188,49254,1,8,0:0:0:0:
195,143,49333,1,8,0:0:0:0:
179,99,49412,5,8,0:0:0:0:
116,280,49570,1,0,0:0:0:0:
298,120,49727,1,8,0:0:0:0:
34,203,49885,1,2,0:0:0:0:
314,230,50043,5,8,0:0:0:0:
60,78,50201,1,2,0:0:0:0:
198,357,50359,1,8,0:0:0:0:
298,120,50517,1,0,0:0:0:0:
330,340,50675,5,10,0:0:0:0:
100,272,50833,1,10,0:0:0:0:
80,276,51149,5,10,0:0:0:0:
360,236,51306,1,10,0:0:0:0:
380,240,51622,5,10,0:0:0:0:
60,144,51780,1,10,0:0:0:0:
40,148,52017,5,8,0:0:0:0:
40,148,52096,1,8,0:0:0:0:
416,96,52254,1,2,0:0:0:0:
436,100,52491,5,8,0:0:0:0:
436,100,52570,1,8,0:0:0:0:
164,20,52727,1,2,0:0:0:0:
231,296,52885,2,0,L|239:323,6,23.75,12|0|0|0|0|0|0,0:0|0:0|0:0|0:0|0:0|0:0|0:0,0:0:0:0:
240,328,53201,6,0,P|228:272|316:192,1,178.125,6|0,0:0|0:0,0:0:0:0:
389,226,53517,1,8,0:0:0:0:
240,328,53675,2,0,B|212:272|212:272|204:208,1,118.75,0|2,0:0|0:0,0:0:0:0:
390,18,53991,2,0,L|377:138,1,118.75,0|8,0:0|0:0,0:0:0:0:
356,312,54306,6,0,P|432:308|480:224,1,178.125,6|0,0:0|0:0,0:0:0:0:
402,108,54622,2,0,L|388:226,1,118.75,0|8,0:0|0:0,0:0:0:0:
416,0,54938,1,0,0:0:0:0:
480,226,55096,1,2,0:0:0:0:
252,168,55254,2,0,B|194:150|194:150|136:160,1,118.75,2|8,0:0|0:0,0:0:0:0:
402,108,55570,1,8,0:0:0:0:
444,100,55649,1,8,0:0:0:0:
484,92,55727,5,8,0:0:0:0:
269,12,55885,1,2,0:0:0:0:
388,225,56043,1,8,0:0:0:0:
512,16,56201,1,0,0:0:0:0:
204,84,56359,5,2,0:0:0:0:
456,168,56517,1,2,0:0:0:0:
257,344,56675,1,8,0:0:0:0:
299,105,56833,1,0,0:0:0:0:
471,255,56991,5,2,0:0:0:0:
272,252,57149,2,0,B|388:225,1,118.75,2|8,0:0|0:0,0:0:0:0:
188,222,57464,1,0,0:0:0:0:
299,105,57622,1,2,0:0:0:0:
257,344,57780,1,2,0:0:0:0:
362,210,57938,2,0,P|384:132|336:40,1,178.125,8|0,0:0|0:0,0:0:0:0:
264,12,58254,5,2,0:0:0:0:
348,228,58412,1,2,0:0:0:0:
132,312,58727,1,8,0:0:0:0:
48,96,59043,1,8,0:0:0:0:
264,12,59359,6,0,P|224:80|124:112,1,178.125,6|0,0:0|0:0,0:0:0:0:
48,96,59675,1,2,0:0:0:0:
264,12,59833,2,0,P|292:88|264:196,1,178.125,8|0,0:0|0:0,0:0:0:0:
181,258,60149,2,0,P|129:266|52:244,1,118.75,2|2,0:0|0:0,0:0:0:0:
273,180,60464,2,0,P|296:231|294:303,1,118.75,12|0,0:0|0:0,0:0:0:0:
160,140,60780,5,6,0:0:0:0:
386,220,60938,1,8,0:0:0:0:
393,179,61016,1,8,0:0:0:0:
385,138,61095,1,8,0:0:0:0:
365,101,61174,1,0,0:0:0:0:
332,74,61253,1,2,0:0:0:0:
181,258,61412,5,8,0:0:0:0:
236,236,61491,1,8,0:0:0:0:
296,240,61570,1,8,0:0:0:0:
344,272,61649,1,0,0:0:0:0:
372,324,61727,2,0,P|348:344|312:352,1,59.375,0|0,0:0|0:0,0:0:0:0:
68,217,61885,6,0,B|160:140|160:140|184:272,1,237.5,4|0,0:0|0:0,0:0:0:0:
200,372,62359,1,8,0:0:0:0:
143,45,62596,1,2,0:0:0:0:
139,22,62675,1,10,0:0:0:0:
68,217,62833,1,8,0:0:0:0:
96,164,62912,1,8,0:0:0:0:
148,132,62991,1,10,0:0:0:0:
208,132,63070,1,8,0:0:0:0:
260,156,63149,1,8,0:0:0:0:
320,148,63227,1,8,0:0:0:0:
372,116,63306,6,0,P|392:68|384:-8,1,118.75,14|2,0:0|0:0,0:0:0:0:
354,236,63622,2,0,P|405:232|469:190,1,118.75,8|0,0:0|0:0,0:0:0:0:
280,44,63938,1,8,0:0:0:0:
336,356,64096,1,2,0:0:0:0:
488,80,64254,1,8,0:0:0:0:
181,258,64412,1,2,0:0:0:0:
129,287,64491,1,2,0:0:0:0:
77,316,64570,6,0,P|60:264|84:188,1,118.75,8|2,0:0|0:0,0:0:0:0:
296,288,64885,2,0,L|179:354,1,118.75,8|2,0:0|0:0,0:0:0:0:
320,148,65201,1,8,0:0:0:0:
420,364,65359,1,2,0:0:0:0:
181,258,65517,1,8,0:0:0:0:
392,104,65675,1,2,0:0:0:0:
440,72,65754,1,2,0:0:0:0:
492,40,65833,5,8,0:0:0:0:
428,344,65991,1,2,0:0:0:0:
308,0,66149,5,8,0:0:0:0:
316,312,66306,1,2,0:0:0:0:
120,16,66464,5,8,0:0:0:0:
200,322,66622,1,8,0:0:0:0:
141,310,66701,1,0,0:0:0:0:
116,255,66780,1,0,0:0:0:0:
144,203,66859,1,0,0:0:0:0:
188,164,66938,1,2,0:0:0:0:
188,104,67017,1,2,0:0:0:0:
172,48,67096,6,0,P|132:124|184:260,1,237.5,6|2,0:0|0:0,0:0:0:0:
382,38,67570,2,0,P|306:-2|170:50,1,237.5,8|2,0:0|0:0,0:0:0:0:
432,140,68043,2,0,P|418:82|381:36,1,118.75,8|0,0:0|0:0,0:0:0:0:
181,258,68359,5,6,0:0:0:0:
391,248,68517,1,8,0:0:0:0:
273,203,68675,2,0,P|266:270|304:340,1,125.400003826904,2|0,0:0|0:0,0:0:0:0:
208,356,68991,2,0,P|168:361|116:338,1,83.6000025512696,12|2,0:0|0:0,0:0:0:0:
304,340,69306,1,0,0:0:0:0:
181,258,69464,1,8,0:0:0:0:
168,220,69543,1,8,0:0:0:0:
172,180,69622,5,10,0:0:0:0:
370,123,69780,2,0,B|392:158|392:158|395:220,1,83.6000025512696,8|0,0:0|0:0,0:0:0:0:
304,340,70096,1,2,0:0:0:0:
270,185,70254,2,0,L|251:103,1,83.6000025512696,12|0,0:0|0:0,0:0:0:0:
168,160,70491,1,8,0:0:0:0:
172,180,70570,1,2,0:0:0:0:
39,256,70727,1,8,0:0:0:0:
43,236,70806,1,8,0:0:0:0:
47,216,70885,6,0,L|65:134,1,83.6000025512696,6|0,0:0|0:0,0:0:0:0:
166,260,71201,2,0,P|210:256|254:276,1,83.6000025512696,4|2,0:0|0:0,0:0:0:0:
365,347,71517,2,0,P|409:351|453:331,1,83.6000025512696,8|0,0:0|0:0,0:0:0:0:
397,267,71754,1,8,0:0:0:0:
377,263,71833,1,10,0:0:0:0:
353,263,71912,1,8,0:0:0:0:
325,267,71991,1,8,0:0:0:0:
289,271,72070,1,8,0:0:0:0:
247,271,72149,5,2,0:0:0:0:
208,254,72227,1,8,0:0:0:0:
181,221,72306,1,8,0:0:0:0:
172,180,72385,1,8,0:0:0:0:
177,138,72464,2,0,P|184:110|183:86,1,41.8000012756348,8|0,0:0|0:0,0:0:0:0:
85,101,72622,1,2,0:0:0:0:
269,175,72780,1,12,0:0:0:0:
99,200,72938,1,2,0:0:0:0:
293,171,73096,1,10,0:0:0:0:
6,162,73254,1,0,0:0:0:0:
6,162,73333,1,0,0:0:0:0:
6,162,73412,5,2,0:0:0:0:
164,40,73570,2,0,L|260:76,1,95,8|0,0:0|0:0,0:0:0:0:
388,120,73885,1,2,0:0:0:0:
264,0,74043,1,8,0:0:0:0:
293,171,74201,2,0,B|307:243|307:243|264:308,1,142.5,0|0,0:0|0:0,0:0:0:0:
216,364,74517,1,6,0:0:0:0:
385,228,74675,5,2,0:0:0:0:
198,222,74833,2,0,P|144:216|104:200,1,95,8|0,0:0|0:0,0:0:0:0:
273,80,75149,1,2,0:0:0:0:
283,126,75228,1,2,0:0:0:0:
293,171,75306,2,0,L|315:283,1,95,8|2,0:0|0:0,0:0:0:0:
388,120,75622,1,12,0:0:0:0:
158,40,75780,1,2,0:0:0:0:
168,86,75859,1,2,0:0:0:0:
178,132,75938,6,0,L|202:239,1,95,6|0,0:0|0:0,0:0:0:0:
224,352,76254,1,2,0:0:0:0:
385,228,76412,2,0,P|328:224|284:232,1,95,8|0,0:0|0:0,0:0:0:0:
110,265,76727,1,2,0:0:0:0:
336,328,76885,1,8,0:0:0:0:
277,102,77043,1,2,0:0:0:0:
202,366,77201,5,6,0:0:0:0:
368,202,77359,1,2,0:0:0:0:
144,140,77517,1,6,0:0:0:0:
336,328,77675,2,0,P|392:332|472:280,1,142.5,8|0,0:0|0:0,0:0:0:0:
496,216,77991,1,2,0:0:0:0:
242,237,78149,2,0,B|196:240|196:240|148:228|148:228|96:232,1,142.5,12|0,0:0|0:0,0:0:0:0:
20,240,78464,5,8,0:0:0:0:
204,144,78622,2,0,L|224:88,1,47.5,0|2,0:0|0:0,0:0:0:0:
136,328,78780,1,8,0:0:0:0:
128,352,78859,1,0,0:0:0:0:
120,376,78938,2,0,L|100:320,1,47.5,10|0,0:0|0:0,0:0:0:0:
54,166,79096,6,0,L|34:110,1,47.5
242,237,79254,1,8,0:0:0:0:
279,209,79332,1,8,0:0:0:0:
301,167,79411,1,10,0:0:0:0:
300,120,79490,1,8,0:0:0:0:
279,78,79569,1,8,0:0:0:0:
241,50,79648,1,8,0:0:0:0:
194,43,79727,5,14,0:0:0:0:
142,223,79885,1,0,0:0:0:0:
300,120,80043,1,0,0:0:0:0:
54,166,80201,6,0,B|36:224|36:224|56:284,1,118.75,12|0,0:0|0:0,0:0:0:0:
204,144,80517,1,2,0:0:0:0:
32,168,80675,5,12,0:0:0:0:
252,278,80833,1,0,0:0:0:0:
231,48,80991,1,2,0:0:0:0:
142,223,81149,6,0,L|90:330,1,118.75,8|0,0:0|0:0,0:0:0:0:
135,73,81464,1,2,0:0:0:0:
252,278,81622,6,0,B|285:325|285:325|344:360,1,118.75,12|0,0:0|0:0,0:0:0:0:
412,101,81938,2,0,B|378:53|378:53|320:19,1,118.75,8|2,0:0|0:0,0:0:0:0:
362,242,82254,5,12,0:0:0:0:
512,88,82412,1,2,0:0:0:0:
300,120,82570,1,2,0:0:0:0:
448,319,82727,6,0,P|472:276|464:192,1,118.75,12|0,0:0|0:0,0:0:0:0:
326,22,83043,1,2,0:0:0:0:
226,235,83201,5,12,0:0:0:0:
412,101,83359,1,2,0:0:0:0:
188,139,83517,1,2,0:0:0:0:
264,331,83675,5,12,0:0:0:0:
400,120,83833,1,0,0:0:0:0:
124,220,83991,1,2,0:0:0:0:
448,320,84149,5,12,0:0:0:0:
475,255,84464,2,0,P|467:290|448:320,1,71.25
475,255,84780,6,0,B|472:320|408:360|356:360|356:360|296:344|296:344|252:376|176:364,1,332.5,2|0,0:0|0:0,0:0:0:0:
108,380,85412,6,0,B|100:312|160:264|216:272|216:272|200:244|144:232,1,237.5,0|0,0:0|0:0,0:0:0:0:
72,232,85885,2,0,P|52:252|36:280,1,47.5,2|2,0:0|0:0,0:0:0:0:
362,242,86043,5,8,0:0:0:0:
124,152,86201,1,10,0:0:0:0:
204,367,86359,1,0,0:0:0:0:
267,72,86517,1,10,0:0:0:0:
20,312,86675,1,10,0:0:0:0:
362,242,86833,1,6,0:0:0:0:
362,242,87306,6,0,L|436:228,1,71.2500027179719
374,260,87780,2,0,L|448:246,1,71.2500027179719
386,278,88096,1,0,0:0:0:0:
267,148,88254,1,0,0:0:0:0:
255,146,88306,1,0,0:0:0:0:
243,146,88359,1,0,0:0:0:0:
231,149,88412,2,0,P|206:158|183:183,1,47.5000018119813
183,188,88570,6,0,P|281:164|263:69,1,213.750008153916
