osu file format v14

[General]
AudioFilename: audio.mp3
AudioLeadIn: 0
PreviewTime: 56312
Countdown: 0
SampleSet: None
StackLeniency: 0.7
Mode: 0
LetterboxInBreaks: 0
WidescreenStoryboard: 1

[Editor]
DistanceSpacing: 1
BeatDivisor: 4
GridSize: 4
TimelineZoom: 2

[Metadata]
Title:My Days
TitleUnicode:My Days
Artist:Suzuki Konomi
ArtistUnicode:鈴木このみ
Creator:Awaken
Version:Rebirth
Source:永遠的7日之都
Tags:
BeatmapID:1656923
BeatmapSetID:789547

[Difficulty]
HPDrainRate:5
CircleSize:4
OverallDifficulty:9
ApproachRate:9.2
SliderMultiplier:2
SliderTickRate:2

[Events]
//Background and Video events
0,0,"timg (1).jpg",0,0
//Break Periods
2,56587,85067
//Storyboard Layer 0 (Background)
//Storyboard Layer 1 (Fail)
//Storyboard Layer 2 (Pass)
//Storyboard Layer 3 (Foreground)
//Storyboard Sound Samples

[TimingPoints]
437,300,4,2,1,10,1,0
22337,-200,4,2,1,10,0,0
23537,-100,4,2,1,10,0,0
32387,-133.333333333333,4,2,1,10,0,0
32837,-100,4,2,1,10,0,0
37187,-200,4,2,1,10,0,0
37637,-100,4,2,1,10,0,0
42437,-200,4,2,1,10,0,0
47237,-100,4,2,1,10,0,0
56837,-100,4,2,1,10,0,1
84287,-100,4,2,1,10,0,0

[HitObjects]
256,192,437,12,0,2387,0:0:0:0:
132,109,2537,5,0,0:0:0:0:
132,133,2612,1,0,0:0:0:0:
130,157,2687,1,0,0:0:0:0:
126,181,2762,1,0,0:0:0:0:
102,219,2837,6,0,B|162:211|201:266|201:266|220:227,1,150
333,219,3137,2,0,P|319:271|319:318,1,100
438,137,3437,1,0,0:0:0:0:
254,69,3587,2,0,P|310:68|363:45,1,100
216,180,3887,6,0,P|174:143|65:170,1,150
85,151,4187,1,0,0:0:0:0:
167,335,4337,1,0,0:0:0:0:
41,257,4487,1,0,0:0:0:0:
41,257,4562,1,0,0:0:0:0:
41,257,4637,1,0,0:0:0:0:
301,262,4787,1,0,0:0:0:0:
41,257,4937,2,0,L|34:151,1,100
242,15,5237,6,0,B|258:62|229:98|229:98|235:169,1,150
373,267,5537,2,0,L|390:164,1,100
260,336,5837,2,0,P|203:347|150:334,1,100
76,221,6137,1,0,0:0:0:0:
197,51,6287,6,0,B|203:109|203:109|192:140|192:140|199:210,1,150
197,198,6587,1,0,0:0:0:0:
328,112,6737,1,0,0:0:0:0:
108,111,6887,1,0,0:0:0:0:
108,111,6962,1,0,0:0:0:0:
108,111,7037,1,0,0:0:0:0:
128,305,7187,1,0,0:0:0:0:
108,111,7337,2,0,L|97:222,1,100
337,326,7637,6,0,P|312:277|206:258,1,150
364,89,7937,2,0,P|348:134|367:189,1,100
451,326,8237,2,0,L|473:219,1,100
267,160,8537,1,0,0:0:0:0:
492,125,8687,6,0,B|450:100|450:100|403:127|334:100,1,150
351,106,8987,1,0,0:0:0:0:
310,286,9137,1,0,0:0:0:0:
163,182,9287,1,0,0:0:0:0:
163,182,9362,1,0,0:0:0:0:
163,182,9437,1,0,0:0:0:0:
378,221,9587,1,0,0:0:0:0:
195,340,9737,1,0,0:0:0:0:
269,64,9887,1,0,0:0:0:0:
293,348,10037,6,0,P|239:353|181:333,1,100
177,109,10337,2,0,P|199:153|199:206,1,100
418,246,10637,1,0,0:0:0:0:
188,235,10787,1,0,0:0:0:0:
227,227,10862,1,0,0:0:0:0:
266,219,10937,1,0,0:0:0:0:
446,257,11087,6,0,L|451:311,1,50
293,348,11237,1,0,0:0:0:0:
345,128,11387,2,0,L|350:182,1,50
293,348,11537,1,0,0:0:0:0:
465,54,11687,1,0,0:0:0:0:
256,192,11762,12,0,13337,0:0:0:0:
138,122,13487,5,0,0:0:0:0:
138,122,13562,1,0,0:0:0:0:
138,122,13637,2,0,P|188:120|243:117,1,100
416,229,13937,2,0,P|367:227|316:233,1,100
382,117,14237,1,0,0:0:0:0:
219,311,14387,2,0,P|212:253|214:207,1,100
305,23,14687,6,0,P|327:84|274:158,1,150
253,159,14987,1,0,0:0:0:0:
350,262,15137,2,0,P|302:235|254:272,1,100
265,252,15362,1,0,0:0:0:0:
265,252,15437,1,0,0:0:0:0:
435,338,15587,1,0,0:0:0:0:
154,367,15737,1,0,0:0:0:0:
342,350,15887,1,0,0:0:0:0:
342,350,15962,1,0,0:0:0:0:
342,350,16037,6,0,P|291:356|231:355,1,100
120,216,16337,2,0,P|171:210|231:211,1,100
406,133,16637,1,0,0:0:0:0:
274,22,16787,2,0,L|288:149,1,100
419,280,17087,6,0,B|374:258|374:258|341:288|271:272,1,150
252,253,17387,1,0,0:0:0:0:
90,164,17537,2,0,P|146:155|177:199,1,100
173,183,17762,1,0,0:0:0:0:
173,183,17837,1,0,0:0:0:0:
116,360,17987,1,0,0:0:0:0:
334,292,18137,1,0,0:0:0:0:
166,271,18287,5,0,0:0:0:0:
166,271,18362,1,0,0:0:0:0:
166,271,18437,2,0,P|161:322|166:372,1,100
289,198,18737,2,0,P|294:147|289:97,1,100
142,29,19037,1,0,0:0:0:0:
43,168,19187,2,0,P|96:186|137:104,1,150
170,73,19487,2,0,P|165:124|172:182,1,100
249,273,19787,1,0,0:0:0:0:
377,147,19937,2,0,L|364:250,1,100
364,246,20162,5,0,0:0:0:0:
364,246,20237,1,0,0:0:0:0:
248,158,20387,1,0,0:0:0:0:
332,342,20537,1,0,0:0:0:0:
157,333,20687,1,0,0:0:0:0:
425,317,20837,6,0,P|431:264|423:209,1,100
232,120,21137,2,0,P|255:164|269:213,1,100
185,359,21437,1,0,0:0:0:0:
371,134,21587,2,0,P|382:79|404:33,1,100
353,253,21887,6,0,P|305:269|215:201,1,150
135,155,22187,2,0,L|199:140,1,50
297,70,22337,6,0,L|204:63,1,75
91,30,22637,1,0,0:0:0:0:
91,30,22787,1,0,0:0:0:0:
54,275,22937,5,0,0:0:0:0:
103,271,23012,1,0,0:0:0:0:
152,267,23087,1,0,0:0:0:0:
201,263,23162,1,0,0:0:0:0:
250,259,23237,2,0,B|268:245|273:221|273:221|296:252,1,75
295,258,23537,6,0,P|285:312|282:366,1,100
425,262,23837,1,0,0:0:0:0:
318,131,23987,1,0,0:0:0:0:
318,131,24062,1,0,0:0:0:0:
318,131,24137,1,0,0:0:0:0:
468,40,24287,2,0,L|454:144,1,100
286,48,24587,1,0,0:0:0:0:
338,251,24737,6,0,P|276:212|239:208,1,100
250,208,24962,1,0,0:0:0:0:
250,208,25037,1,0,0:0:0:0:
355,345,25187,1,0,0:0:0:0:
125,362,25337,1,0,0:0:0:0:
82,154,25487,1,0,0:0:0:0:
82,154,25562,1,0,0:0:0:0:
82,154,25637,2,0,P|71:104|74:44,1,100
231,165,25937,2,0,P|221:222|201:265,1,100
284,44,26237,5,0,0:0:0:0:
410,165,26387,1,0,0:0:0:0:
310,274,26537,1,0,0:0:0:0:
325,131,26687,1,0,0:0:0:0:
377,326,26837,2,0,P|335:353|275:349,1,100
121,225,27137,2,0,P|108:169|123:123,1,100
323,35,27437,2,0,P|336:91|321:137,1,100
325,131,27662,1,0,0:0:0:0:
324,130,27737,1,0,0:0:0:0:
428,262,27887,1,0,0:0:0:0:
141,271,28037,6,0,L|302:243,1,150
331,234,28337,1,0,0:0:0:0:
237,97,28487,1,0,0:0:0:0:
294,355,28637,2,0,P|239:368|187:364,1,100
281,73,28937,1,0,0:0:0:0:
421,246,29087,2,0,L|439:142,1,100
250,19,29387,1,0,0:0:0:0:
170,255,29537,6,0,L|180:368,1,100
178,354,29762,1,0,0:0:0:0:
178,354,29837,1,0,0:0:0:0:
279,225,29987,1,0,0:0:0:0:
96,144,30137,1,0,0:0:0:0:
279,225,30287,1,0,0:0:0:0:
236,32,30437,6,0,P|218:84|229:133,1,100
405,227,30737,1,0,0:0:0:0:
199,262,30887,1,0,0:0:0:0:
199,262,30962,1,0,0:0:0:0:
199,262,31037,1,0,0:0:0:0:
317,113,31187,2,0,L|469:100,1,150
483,201,31487,2,0,P|461:141|392:186,1,150
361,235,31787,2,0,L|373:306,1,50
251,247,31937,6,0,L|258:94,1,150
369,284,32237,2,0,L|381:355,1,50
174,211,32387,6,0,L|181:58,1,150
165,20,32762,1,0,0:0:0:0:
165,20,32837,6,0,B|225:80|312:37|312:37|363:63,1,200
396,215,33287,1,0,0:0:0:0:
253,312,33437,2,0,B|193:252|106:295|106:295|55:269,1,200
48,118,33887,1,0,0:0:0:0:
368,167,34037,5,0,0:0:0:0:
106,348,34187,1,0,0:0:0:0:
207,26,34337,1,0,0:0:0:0:
312,352,34487,1,0,0:0:0:0:
55,164,34637,2,0,B|39:126|59:95|59:95|66:179|112:231,1,200
216,304,35087,1,0,0:0:0:0:
387,97,35237,6,0,B|393:59|373:28|373:28|366:112|320:164,1,200
131,182,35687,1,0,0:0:0:0:
366,295,35837,1,0,0:0:0:0:
102,363,35987,1,0,0:0:0:0:
454,359,36137,5,0,0:0:0:0:
454,359,36287,1,0,0:0:0:0:
454,359,36587,6,0,L|462:302,1,50
361,31,36887,6,0,L|367:80,1,50
378,280,37187,6,0,P|385:223|407:166,1,100
422,153,37562,5,0,0:0:0:0:
422,153,37637,2,0,B|350:186|270:148|270:148|310:100,1,200
100,184,38087,1,0,0:0:0:0:
198,345,38237,2,0,B|270:312|350:350|350:350|310:398,1,200
494,261,38687,1,0,0:0:0:0:
227,11,38837,5,0,0:0:0:0:
226,356,38987,1,0,0:0:0:0:
416,77,39137,1,0,0:0:0:0:
100,184,39287,1,0,0:0:0:0:
417,287,39437,6,0,B|460:311|497:284|497:284|468:162,1,200
280,17,39887,1,0,0:0:0:0:
88,95,40037,2,0,P|72:140|83:199,1,100
238,144,40337,1,0,0:0:0:0:
150,301,40487,2,0,L|252:291,1,100
406,142,40787,1,0,0:0:0:0:
383,357,40937,2,0,P|377:293|386:243,1,100
377,23,41237,6,0,P|383:75|254:119,1,200
252,372,41687,1,0,0:0:0:0:
252,372,41762,1,0,0:0:0:0:
252,372,41837,1,0,0:0:0:0:
196,268,41987,1,0,0:0:0:0:
315,183,42137,1,0,0:0:0:0:
169,72,42287,1,0,0:0:0:0:
383,8,42437,5,0,0:0:0:0:
461,207,43337,1,0,0:0:0:0:
461,207,43487,2,0,L|457:275,1,50
127,200,44537,2,0,L|132:249,1,50
192,309,44837,1,0,0:0:0:0:
192,309,45137,1,0,0:0:0:0:
310,155,45737,2,0,P|313:129|324:98,1,50
310,0,46037,6,0,B|342:40|333:89|333:89|309:111|311:170,1,166.666666666667
398,185,46637,2,0,L|412:137,2,33.3333333333333
414,279,46937,1,0,0:0:0:0:
376,348,47037,1,0,0:0:0:0:
306,384,47137,1,0,0:0:0:0:
222,383,47237,6,0,P|159:295|50:303,1,200
314,229,47687,1,0,0:0:0:0:
287,0,47837,2,0,P|350:88|459:80,1,200
314,229,48287,1,0,0:0:0:0:
125,113,48437,5,0,0:0:0:0:
200,171,48587,1,0,0:0:0:0:
81,180,48737,1,0,0:0:0:0:
265,121,48887,1,0,0:0:0:0:
95,82,49037,1,0,0:0:0:0:
265,258,49187,1,0,0:0:0:0:
30,173,49337,1,0,0:0:0:0:
272,29,49487,1,0,0:0:0:0:
326,330,49637,6,0,P|269:352|179:256,1,200
418,230,50087,1,0,0:0:0:0:
261,34,50237,2,0,P|318:12|408:108,1,200
175,144,50687,1,0,0:0:0:0:
465,163,50837,5,0,0:0:0:0:
248,219,50987,1,0,0:0:0:0:
383,200,51137,1,0,0:0:0:0:
166,158,51287,1,0,0:0:0:0:
418,226,51437,5,0,0:0:0:0:
104,218,51587,1,0,0:0:0:0:
474,248,51737,1,0,0:0:0:0:
70,137,51887,1,0,0:0:0:0:
493,54,52037,5,0,0:0:0:0:
136,273,54137,5,0,0:0:0:0:
136,273,54212,1,0,0:0:0:0:
136,273,54287,1,0,0:0:0:0:
136,273,54362,1,0,0:0:0:0:
136,273,54437,2,0,B|193:269|193:269|235:283|235:283|290:277,1,150
372,286,54737,2,0,L|425:279,1,50
117,179,54887,6,0,B|173:170|173:170|216:180|216:180|270:169,1,150
379,128,55187,2,0,L|441:115,1,50
101,48,55337,1,0,0:0:0:0:
289,238,55487,6,0,B|232:229|232:229|189:239|189:239|135:228,1,150
141,229,55787,1,0,0:0:0:0:
359,27,55937,1,0,0:0:0:0:
410,350,56087,1,0,0:0:0:0:
50,183,56237,1,0,0:0:0:0:
489,187,56387,1,0,0:0:0:0:
410,165,85637,6,0,B|350:173|311:118|311:118|292:157,1,150
179,165,85937,2,0,P|193:113|193:66,1,100
74,247,86237,1,0,0:0:0:0:
258,315,86387,2,0,P|202:316|149:339,1,100
296,204,86687,6,0,P|338:241|447:214,1,150
427,233,86987,1,0,0:0:0:0:
345,49,87137,1,0,0:0:0:0:
471,127,87287,1,0,0:0:0:0:
471,127,87362,1,0,0:0:0:0:
471,127,87437,1,0,0:0:0:0:
211,122,87587,1,0,0:0:0:0:
471,127,87737,2,0,L|478:233,1,100
270,369,88037,6,0,B|254:322|283:286|283:286|277:215,1,150
139,117,88337,2,0,L|122:220,1,100
252,48,88637,2,0,P|309:37|362:50,1,100
436,163,88937,1,0,0:0:0:0:
315,333,89087,6,0,B|309:275|309:275|320:244|320:244|313:174,1,150
315,186,89387,1,0,0:0:0:0:
184,272,89537,1,0,0:0:0:0:
404,273,89687,1,0,0:0:0:0:
404,273,89762,1,0,0:0:0:0:
404,273,89837,1,0,0:0:0:0:
384,79,89987,1,0,0:0:0:0:
404,273,90137,2,0,L|415:162,1,100
175,58,90437,6,0,P|200:107|306:126,1,150
148,295,90737,2,0,P|164:250|145:195,1,100
61,58,91037,2,0,L|39:165,1,100
245,224,91337,1,0,0:0:0:0:
20,259,91487,6,0,B|62:284|62:284|109:257|178:284,1,150
161,278,91787,1,0,0:0:0:0:
202,98,91937,1,0,0:0:0:0:
349,202,92087,1,0,0:0:0:0:
349,202,92162,1,0,0:0:0:0:
349,202,92237,1,0,0:0:0:0:
134,163,92387,1,0,0:0:0:0:
317,44,92537,1,0,0:0:0:0:
243,320,92687,1,0,0:0:0:0:
219,36,92837,6,0,P|273:31|331:51,1,100
376,320,93137,2,0,P|322:325|264:305,1,100
101,138,93437,1,0,0:0:0:0:
408,23,93587,1,0,0:0:0:0:
408,23,93662,1,0,0:0:0:0:
408,23,93737,1,0,0:0:0:0:
410,372,93887,1,0,0:0:0:0:
256,192,93962,12,0,95237,0:0:0:0:
