osu file format v11

[General]
AudioFilename: DAYS of DASH.mp3
AudioLeadIn: 2000
PreviewTime: 57069
Countdown: 0
SampleSet: Soft
StackLeniency: 0.3
Mode: 0
LetterboxInBreaks: 0

[Editor]
DistanceSpacing: 1.4
BeatDivisor: 4
GridSize: 4

[Metadata]
Title:DAYS of DASH (TV Size)
TitleUnicode:DAYS of DASH (TV Size)
Artist:Suzuki Konomi
ArtistUnicode:鈴木このみ
Creator:kanpakyin
Version:Insane
Source:Sakurasou no Pet na Kanojo
Tags:mintong89 Curisu JauiPlaY yangzd88 Kanda Sorata Shiina Mashiro Aoyama Nanami Kamiigusa Misaki Mitaka Jin Akasaka Ryuunosuke Hata Aki Shirato Yuusuke opening
BeatmapID:197956
BeatmapSetID:68388

[Difficulty]
HPDrainRate:7
CircleSize:4
OverallDifficulty:7
ApproachRate:8
SliderMultiplier:1.5
SliderTickRate:2

[Events]
//Background and Video events
Video,0,"Video.avi"
0,0,"BG.jpg"
//Break Periods
//Storyboard Layer 0 (Background)
//Storyboard Layer 1 (Fail)
//Storyboard Layer 2 (Pass)
//Storyboard Layer 3 (Foreground)
//Storyboard Sound Samples
//Background Colour Transformations
3,100,163,162,255

[TimingPoints]
822,375,4,2,1,30,1,0
822,-133.333333333333,4,2,0,30,0,0
1572,-133.333333333333,4,2,1,30,0,0
1947,-133.333333333333,4,2,0,30,0,0
1970,-133.333333333333,4,2,1,30,0,0
2322,-133.333333333333,4,2,0,30,0,0
2415,-133.333333333333,4,2,1,30,0,0
3540,-133.333333333333,4,2,0,30,0,0
3634,-133.333333333333,4,2,1,30,0,0
3822,-133.333333333333,4,2,0,30,0,0
5322,-133.333333333333,4,2,1,40,0,0
5603,-133.333333333333,4,2,1,50,0,0
6822,-100,4,1,1,35,0,0
6915,-100,4,1,1,45,0,0
7103,-100,4,2,1,50,0,0
7384,-100,4,2,0,50,0,0
7478,-100,4,2,1,50,0,0
8509,-100,4,1,1,45,0,0
8697,-100,4,2,1,50,0,0
8884,-133.333333333333,4,2,0,50,0,0
8978,-133.333333333333,4,2,1,50,0,0
9447,-100,4,2,1,50,0,0
9634,-100,4,2,0,50,0,0
9728,-100,4,2,1,50,0,0
9822,-100,4,1,1,45,0,0
10103,-100,4,2,1,50,0,0
11134,-133.333333333333,4,2,1,50,0,0
11509,-133.333333333333,4,2,0,50,0,0
11603,-133.333333333333,4,2,1,50,0,0
18634,-133.333333333333,4,2,1,40,0,0
18822,-133.333333333333,4,2,1,50,0,0
20884,-133.333333333333,4,2,0,40,0,0
20978,-133.333333333333,4,2,1,50,0,0
21634,-133.333333333333,4,1,1,45,0,0
21915,-133.333333333333,4,2,1,50,0,0
22759,-133.333333333333,4,2,1,30,0,0
22947,-133.333333333333,4,2,1,50,0,0
23322,-133.333333333333,4,2,1,35,0,0
23603,-133.333333333333,4,2,0,50,0,0
23978,-133.333333333333,4,2,1,50,0,0
24447,-100,4,2,1,50,0,0
24822,-100,4,2,2,50,0,0
25103,-100,4,2,1,50,0,0
30165,-100,4,1,1,40,0,0
30822,-100,4,2,1,50,0,0
36634,-100,4,1,1,40,0,0
36822,-100,4,2,1,30,0,0
37009,-100,4,2,1,50,0,0
38790,-100,4,2,1,20,0,0
38884,-100,4,2,1,50,0,0
41134,-100,4,2,2,50,0,0
41228,-100,4,2,1,50,0,0
42072,-133.333333333333,4,2,1,50,0,0
42822,-166.666666666667,4,2,1,50,0,0
47134,-166.666666666667,4,2,0,50,0,0
47322,-166.666666666667,4,2,1,50,0,0
48072,-166.666666666667,4,2,0,50,0,0
48165,-166.666666666667,4,2,1,50,0,0
48447,-166.666666666667,4,2,0,50,0,0
48540,-166.666666666667,4,1,1,40,0,0
48915,-166.666666666667,4,2,1,50,0,0
51728,-166.666666666667,4,2,1,40,0,0
52009,-166.666666666667,4,2,1,50,0,0
54822,-166.666666666667,4,2,0,50,0,0
55197,-100,4,1,1,35,0,0
56322,-100,4,1,1,40,0,0
56697,-100,4,1,1,45,0,0
57072,-133.333333333333,4,2,2,50,0,0
57447,-111.111111111111,4,2,2,50,0,0
57822,-90.9090909090909,4,2,1,50,0,1
58384,-90.9090909090909,4,2,0,50,0,1
58572,-90.9090909090909,4,1,1,45,0,1
58665,-90.9090909090909,4,2,1,50,0,1
59134,-90.9090909090909,4,2,0,50,0,1
59322,-90.9090909090909,4,1,1,45,0,1
59415,-90.9090909090909,4,2,1,50,0,1
59790,-90.9090909090909,4,2,0,50,0,1
60072,-90.9090909090909,4,1,1,45,0,1
60165,-90.9090909090909,4,2,1,50,0,1
60822,-90.9090909090909,4,2,2,45,0,1
60915,-90.9090909090909,4,2,1,50,0,1
61572,-90.9090909090909,4,1,1,45,0,1
61665,-90.9090909090909,4,2,1,50,0,1
62322,-90.9090909090909,4,1,1,45,0,1
62415,-90.9090909090909,4,2,0,50,0,1
62603,-90.9090909090909,4,2,1,50,0,1
63072,-90.9090909090909,4,1,1,45,0,1
63165,-90.9090909090909,4,2,1,50,0,1
63634,-90.9090909090909,4,2,0,50,0,1
63728,-90.9090909090909,4,1,1,45,0,1
63915,-90.9090909090909,4,2,1,50,0,1
64478,-90.9090909090909,4,1,1,45,0,1
64665,-90.9090909090909,4,2,1,50,0,1
65322,-90.9090909090909,4,2,2,50,0,1
65415,-90.9090909090909,4,2,1,50,0,1
65884,-90.9090909090909,4,2,0,50,0,1
65978,-90.9090909090909,4,2,1,50,0,1
66259,-90.9090909090909,4,2,0,50,0,1
66353,-90.9090909090909,4,2,1,50,0,1
66634,-90.9090909090909,4,2,0,50,0,1
66728,-90.9090909090909,4,1,1,45,0,1
66915,-90.9090909090909,4,2,1,50,0,1
67478,-90.9090909090909,4,1,1,45,0,1
67665,-90.9090909090909,4,2,1,50,0,1
68228,-90.9090909090909,4,2,2,35,0,1
68415,-90.9090909090909,4,2,0,50,0,1
68603,-90.9090909090909,4,2,1,50,0,1
68884,-90.9090909090909,4,2,0,50,0,1
68978,-90.9090909090909,4,2,1,50,0,1
69822,-90.9090909090909,4,1,1,45,0,1
69915,-90.9090909090909,4,2,1,50,0,1
70384,-90.9090909090909,4,2,0,50,0,1
70478,-90.9090909090909,4,1,1,45,0,1
70665,-90.9090909090909,4,2,0,50,0,1
70853,-90.9090909090909,4,2,1,50,0,1
71228,-90.9090909090909,4,2,0,50,0,1
71509,-111.111111111111,4,2,1,50,0,1
71978,-111.111111111111,4,2,0,50,0,1
72165,-111.111111111111,4,2,1,50,0,1
72822,-90.9090909090909,4,2,0,50,0,1
72915,-90.9090909090909,4,2,1,50,0,1
73572,-90.9090909090909,4,1,1,45,0,1
73665,-90.9090909090909,4,2,0,50,0,1
73853,-90.9090909090909,4,2,1,50,0,1
74322,-90.9090909090909,4,1,1,45,0,1
74415,-90.9090909090909,4,2,1,50,0,1
74790,-90.9090909090909,4,1,1,45,0,1
75165,-90.9090909090909,4,2,1,50,0,1
75728,-90.9090909090909,4,2,1,25,0,1
75915,-90.9090909090909,4,2,1,50,0,1
76384,-100,4,1,1,45,0,1
76478,-100,4,2,1,50,0,1
76759,-100,4,2,0,50,0,1
76947,-100,4,2,1,50,0,1
77040,-100,4,1,1,30,0,1
77228,-100,4,2,1,50,0,1
78822,-100,4,2,1,30,0,1
78915,-100,4,2,1,50,0,1
79290,-100,4,1,1,45,0,1
79478,-100,4,2,1,50,0,1
80040,-100,4,1,1,45,0,1
80509,-100,4,2,0,50,0,1
80884,-100,4,1,1,45,0,1
81634,-200,4,2,2,40,0,0
81822,-200,4,2,1,10,0,0
82759,-200,4,2,0,5,0,0

[Colours]
Combo1 : 67,87,57
Combo2 : 111,102,102
Combo3 : 113,82,116
Combo4 : 81,94,151
SliderBorder : 255,255,255

[HitObjects]
109,146,822,1,2,0:0:0
92,228,1009,1,0,0:0:0
95,241,1384,5,2,0:0:0
128,361,1572,2,0,P|158:300,1,56.2500021457673,0|0,0:0|0:0,0:0:0
30,172,1947,2,0,P|16:108,2,56.2500021457673,2|0|2,0:0|0:0|0:0,0:0:0
188,203,2509,2,0,P|218:205|262:202,1,56.2500021457673,0|0,0:0|0:0,0:0:0
400,324,3447,6,0,P|415:353,3,28.1250010728836,0|2|0|0,0:0|0:0|0:0|0:0,0:0:0
400,324,3822,2,0,P|408:247,1,56.2500021457673,2|0,0:0|0:0,0:0:0
476,81,4384,5,2,0:0:0
377,21,4572,1,0,0:0:0
470,108,4759,1,0,0:0:0
347,108,4947,1,2,0:0:0
477,128,5134,1,2,0:0:0
381,190,5322,1,2,0:0:0
264,133,5509,6,0,P|214:96|141:122|141:122,1,112.500004291535,12|2,0:0|0:0,0:0:0
137,135,5978,2,0,P|93:120,3,28.1250010728836,2|0|0|2,0:0|0:0|0:0|0:0,0:0:0
196,29,6447,1,8,0:0:0
264,133,6634,1,2,0:0:0
118,55,6822,5,4,0:0:0
279,53,7009,1,0,0:0:0
199,189,7197,1,8,0:0:0
255,321,7384,6,0,P|309:301|355:320|355:320|379:305|364:267,1,150,2|2,0:0|0:0,0:0:0
406,205,7947,1,8,0:0:0
369,131,8134,1,0,0:0:0
449,278,8322,6,0,P|488:286|521:275,1,75,4|0,3:0|0:0,0:0:0
369,131,8697,1,8,0:0:0
485,204,8884,2,0,B|520:192|527:121|494:94,1,112.500004291535,2|2,0:0|0:0,0:0:0
390,214,9447,5,8,0:0:0
380,225,9540,1,0,0:0:0
369,236,9634,1,2,0:0:0
358,247,9728,1,0,0:0:0
348,258,9822,2,0,B|312:278|271:261,1,75
205,306,10197,1,8,0:0:0
139,256,10384,2,0,B|114:176,1,75,2|2,0:0|3:0,0:0:0
279,349,10759,5,2,0:0:0
211,219,10947,1,8,0:0:0
130,336,11134,2,0,B|64:364|16:312,1,112.500004291535,6|2,0:0|0:0,0:0:0
256,192,11603,12,8,12447,0:0:0
137,354,12822,5,2,0:0:0
93,288,13009,1,0,0:0:0
122,214,13197,2,0,P|143:188|147:149,1,56.2500021457673,2|0,0:0|0:0,0:0:0
45,225,13572,1,0,0:0:0
70,150,13759,1,0,0:0:0
174,284,13947,5,2,0:0:0
45,225,14134,1,0,0:0:0
207,210,14322,1,2,0:0:0
93,288,14509,2,0,P|68:304|26:294,1,56.2500021457673,0|2,0:0|0:0,0:0:0
123,215,14884,5,0,0:0:0
174,284,15072,1,2,0:0:0
295,210,15259,1,0,0:0:0
258,288,15447,5,2,0:0:0
273,303,15540,1,0,0:0:0
294,311,15634,1,0,0:0:0
316,313,15728,1,0,0:0:0
337,307,15822,2,0,P|379:267,1,56.2500021457673,2|0,0:0|0:0,0:0:0
207,210,16197,1,2,0:0:0
377,268,16384,6,0,B|410:217|377:159,1,112.500004291535
319,108,16947,1,2,0:0:0
259,57,17134,2,0,P|296:0,2,56.2500021457673,0|2|0,0:0|0:0|0:0,0:0:0
192,100,17697,2,0,P|136:117|78:98,1,112.500004291535,2|0,0:0|0:0,0:0:0
187,23,18259,1,2,0:0:0
23,158,18447,2,0,P|10:212,1,56.2500021457673,2|0,0:0|1:0,0:0:0
9,254,18728,1,0,1:0:0
30,288,18822,1,2,0:0:0
103,324,19009,5,0,0:0:0
181,320,19197,1,2,0:0:0
249,280,19384,2,0,P|270:231|260:175,1,112.500004291535
321,32,19947,2,0,P|310:89|336:141,1,112.500004291535,2|2,0:0|0:0,0:0:0
385,78,20509,5,0,0:0:0
321,32,20697,2,0,P|276:31|256:45,1,56.2500021457673,2|2,0:0|0:0,0:0:0
458,36,21072,1,2,0:0:0
385,78,21259,1,0,0:0:0
438,190,21447,2,0,P|450:165|443:122,1,56.2500021457673,2|0,0:0|0:0,0:0:0
452,142,21728,1,0,0:0:0
452,142,21822,2,0,P|440:205|464:261,1,112.500004291535
357,364,22384,6,0,P|373:317|358:254,1,112.500004291535,2|4,0:0|0:0,0:0:0
306,198,22947,1,2,0:0:0
447,326,23134,2,0,P|482:334|512:322,1,56.2500021457673,0|4,0:0|0:0,0:0:0
273,274,23697,5,0,0:0:0
273,274,23884,2,0,P|219:255|153:266,1,112.500004291535,0|2,0:0|0:0,0:0:0
170,273,24353,1,2,0:0:0
175,285,24447,2,0,P|194:198,1,75,8|0,0:0|0:0,0:0:0
81,276,24822,6,0,P|63:349,1,75,4|0,0:0|0:0,0:0:0
26,182,25197,2,0,P|109:200,1,75,8|0,0:0|0:0,0:0:0
222,380,25572,2,0,P|131:366,1,75,2|2,0:0|0:0,0:0:0
300,337,25947,2,0,P|347:311|358:233|302:193,1,150,8|2,0:0|0:0,0:0:0
258,264,26509,1,2,0:0:0
395,181,26697,1,8,0:0:0
403,333,26884,1,2,0:0:0
134,170,27259,5,2,0:0:0
169,93,27447,2,0,P|197:22,1,75,8|0,0:0|0:0,0:0:0
169,93,27822,2,0,B|232:150|314:104,1,150,2|8,0:0|0:0,0:0:0
380,235,28384,2,0,P|400:72,1,150,2|2,0:0|0:0,0:0:0
485,50,28947,1,8,0:0:0
295,201,29134,6,0,P|281:294,1,75,0|2,0:0|0:0,0:0:0
474,140,29509,1,2,0:0:0
309,106,29697,1,8,0:0:0
448,346,29884,6,0,P|464:228,1,112.5,2|0,0:0|0:0,0:0:0
463,234,30259,1,0,0:0:0
370,167,30447,1,0,0:0:0
370,167,30540,1,0,0:0:0
370,167,30634,1,0,0:0:0
318,267,30822,6,0,P|280:278|246:268,1,75,2|0,0:0|0:0,0:0:0
169,315,31197,1,8,0:0:0
84,283,31384,2,0,P|64:120,1,150,2|2,0:0|0:0,0:0:0
133,73,31947,1,8,0:0:0
271,135,32134,2,0,P|232:144|185:122,1,75,0|2,0:0|0:0,0:0:0
439,191,32509,1,2,0:0:0
373,95,32697,1,8,0:0:0
302,281,32884,6,0,P|269:126,1,150,2|2,0:0|0:0,0:0:0
439,191,33447,1,8,0:0:0
443,197,33822,6,0,P|456:106,1,75,2|0,0:0|0:0,0:0:0
384,267,34197,1,8,0:0:0
330,337,34384,2,0,P|278:347|255:309|255:309|295:288|319:323,1,150,2|2,0:0|0:0,0:0:0
422,354,34947,1,8,0:0:0
210,374,35134,6,0,P|165:348|165:263|222:242,1,150,0|2,0:0|0:0,0:0:0
265,311,35697,1,8,0:0:0
130,199,35884,2,0,P|181:170|180:85|117:57,1,150,2|2,0:0|0:0,0:0:0
12,155,36447,6,0,P|87:129,2,75,8|0|4,0:0|0:0|0:0,0:0:0
21,244,37009,1,0,0:0:0
97,292,37197,1,8,0:0:0
184,273,37384,2,0,P|212:327|212:327|201:366|154:368,1,112.5,2|0,0:0|0:0,0:0:0
108,375,37759,2,0,P|31:368,1,75,2|8,0:0|0:0,0:0:0
234,195,38134,2,0,P|201:120,1,75,0|2,0:0|0:0,0:0:0
371,239,38509,6,0,P|330:274|271:268,1,112.5,2|0,0:0|0:0,0:0:0
274,269,38884,2,0,P|356:273|393:350,1,150,2|2,0:0|0:0,0:0:0
471,365,39447,1,8,0:0:0
315,343,39634,6,0,P|318:172,1,150,2|0,0:0|0:0,0:0:0
416,116,40197,1,8,0:0:0
488,231,40384,6,8,P|513:152,1,75,2|0,0:0|0:0,0:0:0
407,275,40759,2,0,P|398:180,1,75,2|8,0:0|0:0,0:0:0
484,321,41134,2,0,P|472:373|392:389|352:342,1,150,4|2,0:0|0:0,0:0:0
323,271,41697,5,8,0:0:0
360,350,41884,1,0,0:0:0
372,204,42072,2,0,P|346:191|312:189,1,56.2500021457673,2|2,0:0|0:0,0:0:0
360,350,42447,1,8,0:0:0
236,278,42634,1,2,0:0:0
113,377,42822,6,0,P|97:268,1,89.9999972534181,4|8,0:0|0:0,0:0:0
165,232,43384,1,0,0:0:0
236,279,43572,2,0,P|281:289|332:274,1,89.9999972534181,2|8,0:0|0:0,0:0:0
373,209,44134,1,0,0:0:0
236,279,44322,6,0,P|249:336,1,44.999998626709,2|2,0:0|0:0,0:0:0
165,232,44697,2,0,P|153:289,1,44.999998626709,8|0,0:0|0:0,0:0:0
145,151,45072,2,0,P|107:178,1,44.999998626709,0|2,0:0|0:0,0:0:0
192,83,45447,2,0,P|149:63,1,44.999998626709,8|2,0:0|0:0,0:0:0
226,161,45822,2,0,P|270:170|327:158,1,89.9999972534181,2|8,0:0|0:0,0:0:0
378,114,46384,5,0,0:0:0
378,114,46572,2,0,P|369:54,1,44.999998626709,2|2,0:0|0:0,0:0:0
312,244,46947,2,0,P|321:305,1,44.999998626709,8|2,0:0|0:0,0:0:0
472,260,47322,6,0,P|428:266|385:239,1,89.9999972534181,2|8,0:0|0:0,0:0:0
451,142,47884,2,0,P|442:197,1,44.999998626709,2|2,0:0|0:0,0:0:0
311,244,48259,1,2,0:0:0
361,173,48447,1,2,0:2:0
348,321,48634,5,0,0:0:0
348,321,48728,1,0,0:0:0
348,321,48822,2,0,P|299:327|248:303,1,89.9999972534181,4|8,0:3|0:0,0:0:0
420,361,49384,1,0,0:0:0
483,302,49572,2,0,P|486:247,1,44.999998626709,2|2,0:0|0:0,0:0:0
311,244,49947,6,0,P|332:225|332:178|307:151,1,89.9999972534181,8|2,0:0|0:0,0:0:0
250,106,50509,1,2,0:0:0
326,77,50697,2,0,P|343:27,2,44.999998626709,8|2|0,0:0|0:0|0:0,0:0:0
245,198,51259,1,2,0:0:0
183,71,51447,1,8,0:0:0
69,332,51822,5,4,0:0:0
229,355,52197,1,8,0:0:0
137,277,52572,5,2,0:0:0
69,332,52759,1,2,0:0:0
53,252,52947,2,0,P|37:146,1,89.9999972534181,8|2,0:0|0:0,0:0:0
142,37,53697,5,8,0:0:0
39,163,54072,2,0,P|15:181,2,22.4999993133545,2|8|8,0:0|0:0|0:0,0:0:0
115,190,54447,5,2,0:0:0
142,37,54634,1,2,0:0:0
278,127,54822,2,0,P|280:100|277:67,1,44.999998626709,0|0,1:0|0:0,0:0:0
467,48,55197,5,0,0:0:0
441,125,55384,1,0,0:0:0
358,143,55572,1,0,0:0:0
414,204,55759,5,0,0:0:0
298,206,55947,1,0,0:0:0
388,278,56134,5,0,0:0:0
216,234,56322,1,0,0:0:0
132,224,56509,6,0,P|119:181,3,37.5
114,166,56884,1,0,0:0:0
106,144,56978,1,0,0:0:0
99,122,57072,2,0,P|64:100|20:99,1,84.3750032186509,6|0,0:0|0:0,0:0:0
180,139,57447,6,0,P|197:24,1,101.249996910095,2|0,0:0|0:0,0:0:0
211,213,57822,6,0,P|264:239|345:225,1,123.75000377655,4|0,0:0|0:0,0:0:0
348,221,58197,2,0,P|364:133,1,82.5000025177003,8|2,0:0|0:0,0:0:0
186,300,58572,6,0,P|133:274|52:288,1,123.75000377655,2|0,0:2|0:0,0:0:0
49,292,58947,2,0,P|33:380,2,82.5000025177003,8|2|2,0:0|0:0|0:2,0:0:0
14,208,59509,1,0,0:0:0
85,152,59697,1,8,0:0:0
161,199,59884,1,2,0:0:0
141,287,60072,6,0,P|184:290|227:263,1,82.5000025177003,2|0,0:2|0:0,0:0:0
398,338,60447,2,0,P|374:286|407:213,1,123.75000377655,8|0,0:0|0:0,0:0:0
415,206,60822,2,0,P|504:237,1,82.5000025177003,4|0,0:0|0:0,0:0:0
318,377,61197,1,8,0:0:0
221,270,61384,5,0,0:0:0
159,203,61572,1,2,0:2:0
98,135,61759,2,0,P|55:126|18:140,1,82.5000025177003,0|8,0:0|0:0,0:0:0
62,221,62134,5,0,0:0:0
128,56,62322,1,2,0:2:0
247,184,62509,2,0,P|319:185|319:185|342:196|342:196|418:196,1,165.000005035401,2|0,0:0|0:0,0:0:0
372,112,63072,2,0,P|458:112,1,82.5000025177003,2|0,0:2|0:0,0:0:0
280,266,63447,2,0,P|194:266,1,82.5000025177003,8|2,0:0|0:0,0:0:0
121,84,63822,6,0,B|76:152|140:212,1,123.75000377655,2|0,0:2|0:0,0:0:0
136,208,64197,2,0,P|97:189|40:203,1,82.5000025177003,8|0,0:0|0:0,0:0:0
195,290,64572,2,0,P|235:233|201:143,1,165.000005035401,2|8,0:2|0:0,0:0:0
94,286,65134,1,0,0:0:0
129,369,65322,1,4,0:0:0
219,371,65509,2,0,P|304:371,1,82.5000025177003,0|8,0:0|0:0,0:0:0
439,324,65884,6,0,P|464:286|464:286|442:251|460:196,1,123.75000377655,2|0,0:0|0:0,0:0:0
455,210,66259,1,2,0:0:0
365,291,66447,2,0,P|273:291,1,82.5000025177003,8|2,0:0|0:0,0:0:0
237,211,66822,5,2,0:2:0
192,289,67009,1,0,0:0:0
137,361,67197,1,8,0:0:0
67,303,67384,1,0,0:0:0
200,285,67572,5,2,0:2:0
145,357,67759,1,2,0:0:0
75,299,67947,1,8,0:0:0
128,226,68134,1,2,0:0:0
236,367,68322,6,0,P|322:356,1,82.5000025177003,6|2,0:0|0:0,0:0:0
434,379,68697,1,2,0:0:0
479,277,68884,2,0,P|496:222|476:146,1,123.75000377655,2|0,0:0|0:0,0:0:0
470,179,69259,2,0,P|436:115,1,41.2500012588501
431,159,69447,2,0,P|399:125,1,41.2500012588501,8|0,0:0|0:0,0:0:0
397,157,69634,2,0,P|354:141,1,41.2500012588501,8|0,0:0|1:0,0:0:0
359,167,69822,6,0,P|319:152|270:161,1,82.5000025177003,6|0,0:2|0:0,0:0:0
205,208,70197,2,0,P|163:216|118:197,1,82.5000025177003,8|2,0:0|0:0,0:0:0
70,112,70572,1,0,0:2:0
157,41,70759,2,0,P|325:68,1,165.000005035401,2|0,0:0|0:0,0:0:0
360,193,71322,5,2,0:2:0
484,158,71509,2,0,P|503:96|484:28,1,134.999995880127
360,193,72072,1,2,0:0:0
245,363,72259,2,0,P|217:311|235:240,1,134.999995880127
305,296,72822,2,0,P|138:324,1,165.000005035401,2|8,0:0|0:0,0:0:0
334,380,73384,5,0,0:0:0
395,312,73572,1,2,0:2:0
454,244,73759,2,0,P|504:170,1,82.5000025177003,2|8,0:0|0:0,0:0:0
244,364,74134,5,0,0:0:0
395,312,74322,1,2,0:2:0
276,224,74509,1,2,0:0:0
334,380,74697,1,8,0:0:0
484,310,74884,1,2,0:2:0
484,310,74978,1,2,0:2:0
484,310,75072,1,2,0:2:0
362,212,75259,2,0,P|386:175|370:127|370:127|333:151|278:125,1,165.000005035401,2|12,0:0|0:3,0:0:0
174,58,75822,5,4,0:0:0
93,74,76009,1,0,0:0:0
109,155,76197,1,8,0:0:0
190,139,76384,2,0,P|208:198|179:259,1,112.5,8|0,0:3|0:0,0:0:0
212,235,76759,2,0,B|174:213|130:237,1,75,2|8,0:0|0:0,0:0:0
296,301,77134,6,0,P|352:315|413:299,1,112.5,12|0,0:3|0:0,0:0:0
424,314,77509,2,0,P|404:231,1,75,0|8,0:0|0:0,0:0:0
437,164,77884,1,0,0:0:0
405,87,78072,1,8,0:0:0
327,115,78259,1,2,0:0:0
322,100,78353,1,0,0:0:0
317,85,78447,1,8,0:0:0
219,205,78634,5,2,0:0:0
219,205,78728,1,0,0:0:0
219,205,78822,2,0,P|240:154|218:94,1,112.5,4|0,0:0|0:0,0:0:0
224,102,79197,2,0,P|142:115,1,75,8|8,0:0|0:3,0:0:0
390,173,79572,5,0,0:0:0
257,287,79759,1,2,0:0:0
116,182,79947,2,0,P|76:180|34:205,1,75,8|12,0:0|0:3,0:0:0
39,201,80509,5,2,0:0:0
84,41,80697,2,0,P|124:41|159:17,1,75,2|0,0:0|0:0,0:0:0
162,35,80978,1,0,0:0:0
171,46,81072,2,0,P|250:52,1,75,0|4,0:0|0:3,0:0:0
256,192,81447,1,4,0:3:0
382,108,81634,6,2,P|418:129|475:97|475:97|451:147|472:167|472:167|483:201|458:230,1,225,4|2,0:0|0:0,0:0:0
