osu file format v11

[General]
AudioFilename: DAYS of DASH.mp3
AudioLeadIn: 2000
PreviewTime: 57069
Countdown: 0
SampleSet: Soft
StackLeniency: 0.3
Mode: 0
LetterboxInBreaks: 0

[Editor]
DistanceSpacing: 1.2
BeatDivisor: 4
GridSize: 4

[Metadata]
Title:DAYS of DASH (TV Size)
TitleUnicode:DAYS of DASH (TV Size)
Artist:Suzuki Konomi
ArtistUnicode:鈴木このみ
Creator:kanpakyin
Version:Hard
Source:Sakurasou no Pet na Kanojo
Tags:mintong89 Curisu JauiPlaY yangzd88 Kanda Sorata Shiina Mashiro Aoyama Nanami Kamiigusa Misaki Mitaka Jin Akasaka Ryuunosuke Hata Aki Shirato Yuusuke opening
BeatmapID:204582
BeatmapSetID:68388

[Difficulty]
HPDrainRate:5
CircleSize:4
OverallDifficulty:5
ApproachRate:8
SliderMultiplier:1.4
SliderTickRate:2

[Events]
//Background and Video events
0,0,"BG.jpg"
Video,0,"Video.avi"
//Break Periods
//Storyboard Layer 0 (Background)
//Storyboard Layer 1 (Fail)
//Storyboard Layer 2 (Pass)
//Storyboard Layer 3 (Foreground)
//Storyboard Sound Samples
//Background Colour Transformations
3,100,163,162,255

[TimingPoints]
822,375,4,2,1,30,1,0
822,-133.333333333333,4,2,0,30,0,0
1572,-133.333333333333,4,2,1,30,0,0
2322,-133.333333333333,4,2,0,30,0,0
2345,-133.333333333333,4,2,1,30,0,0
3822,-133.333333333333,4,2,0,30,0,0
3845,-133.333333333333,4,2,1,30,0,0
4384,-133.333333333333,4,2,0,30,0,0
4970,-133.333333333333,4,2,1,30,0,0
5509,-200,4,1,1,40,0,0
5603,-200,4,2,1,50,0,0
6072,-100,4,2,1,50,0,0
6728,-100,4,1,1,45,0,0
6915,-100,4,2,1,50,0,0
7290,-100,4,2,0,50,0,0
7478,-100,4,2,1,50,0,0
7665,-100,4,1,1,45,0,0
7853,-100,4,2,1,50,0,0
8228,-100,4,1,1,45,0,0
8415,-100,4,2,1,50,0,0
8790,-100,4,2,0,50,0,0
8978,-100,4,2,1,50,0,0
9728,-100,4,1,1,45,0,0
9915,-100,4,2,1,50,0,0
10290,-100,4,2,0,50,0,0
10478,-100,4,1,1,45,0,0
10853,-100,4,2,1,50,0,0
11134,-133.333333333333,4,2,1,50,0,0
11509,-133.333333333333,4,2,0,50,0,0
12447,-133.333333333333,4,2,1,50,0,0
18634,-133.333333333333,4,1,1,30,0,0
18822,-133.333333333333,4,2,1,50,0,0
21634,-133.333333333333,4,1,1,45,0,0
21728,-133.333333333333,4,2,1,50,0,0
22665,-133.333333333333,4,2,1,30,0,0
22853,-133.333333333333,4,2,1,50,0,0
24259,-100,4,2,1,50,0,0
24822,-100,4,2,2,50,0,0
24915,-100,4,2,1,50,0,0
30540,-100,4,1,1,30,0,0
30728,-100,4,1,1,45,0,0
30915,-100,4,2,1,50,0,0
36540,-100,4,1,1,50,0,0
36728,-100,4,2,1,30,0,0
36915,-100,4,2,1,50,0,0
41040,-100,4,2,1,20,0,0
41228,-100,4,2,1,50,0,0
42634,-133.333333333333,4,2,1,50,0,0
47134,-133.333333333333,4,2,0,50,0,0
47228,-133.333333333333,4,2,1,50,0,0
47697,-133.333333333333,4,2,0,50,0,0
49009,-133.333333333333,4,2,1,50,0,0
56697,-133.333333333333,4,2,0,40,0,0
57072,-133.333333333333,4,2,2,50,0,0
57353,-133.333333333333,4,2,0,50,0,0
57822,-100,4,2,1,50,0,1
58478,-100,4,1,1,45,0,1
58665,-100,4,2,0,50,0,1
58853,-100,4,2,1,50,0,1
59228,-100,4,1,1,45,0,1
59415,-100,4,2,0,40,0,1
59603,-100,4,2,1,50,0,1
59978,-100,4,1,1,45,0,1
60165,-100,4,2,1,50,0,1
60634,-100,4,2,0,50,0,1
60728,-100,4,1,1,45,0,1
60915,-100,4,2,1,50,0,1
61478,-100,4,1,1,45,0,1
61665,-100,4,2,0,50,0,1
61853,-100,4,2,1,50,0,1
62228,-100,4,1,1,45,0,1
62415,-100,4,2,0,50,0,1
62603,-100,4,2,1,50,0,1
62884,-100,4,2,0,50,0,1
62978,-100,4,1,1,45,0,1
63165,-100,4,2,0,50,0,1
63353,-100,4,2,1,50,0,1
63634,-100,4,2,0,50,0,1
63822,-100,4,2,2,50,0,1
64103,-100,4,2,1,50,0,1
64478,-100,4,1,1,45,0,1
64665,-100,4,2,1,50,0,1
65322,-100,4,2,0,50,0,1
65415,-100,4,2,1,50,0,1
65978,-100,4,1,1,45,0,1
66165,-100,4,2,1,50,0,1
66822,-100,4,1,1,45,0,1
66915,-100,4,2,1,50,0,1
67572,-100,4,1,1,45,0,1
67665,-100,4,2,1,50,0,1
68322,-100,4,2,1,40,0,1
68509,-100,4,2,1,50,0,1
68884,-100,4,2,0,50,0,1
69072,-100,4,2,1,50,0,1
69353,-100,4,1,1,40,0,1
69915,-100,4,2,1,50,0,1
70478,-100,4,1,1,45,0,1
70665,-100,4,2,1,50,0,1
71322,-100,4,2,0,50,0,1
71415,-100,4,2,1,50,0,1
72072,-100,4,2,0,50,0,1
72165,-100,4,2,1,50,0,1
72634,-100,4,2,0,50,0,1
72822,-100,4,2,2,50,0,1
72915,-100,4,2,1,50,0,1
73478,-100,4,1,1,45,0,1
73665,-100,4,2,1,50,0,1
74228,-100,4,1,1,40,0,1
74603,-100,4,2,1,50,0,1
74790,-100,4,1,1,40,0,1
75165,-100,4,2,1,50,0,1
75728,-100,4,2,1,40,0,1
75915,-100,4,2,1,50,0,1
76384,-100,4,1,1,45,0,1
76572,-100,4,2,1,50,0,1
77040,-100,4,1,1,45,0,1
77228,-100,4,2,1,50,0,1
78822,-100,4,1,1,40,0,1
79103,-100,4,2,1,50,0,1
79290,-100,4,1,1,45,0,1
79478,-100,4,2,1,50,0,1
80040,-100,4,1,1,45,0,1
80228,-100,4,2,1,50,0,1
80697,-100,4,2,0,50,0,1
80884,-100,4,1,1,45,0,1
81634,-200,4,2,2,30,0,0
81728,-200,4,2,1,5,0,0
82759,-200,4,2,0,5,0,0

[Colours]
Combo1 : 67,87,57
Combo2 : 111,102,102
Combo3 : 113,82,116
Combo4 : 81,94,151
SliderBorder : 255,255,255

[HitObjects]
105,302,822,5,2,0:0:0
105,302,1009,1,0,0:0:0
256,229,1384,5,2,0:0:0
256,144,1572,2,0,P|256:81,2,52.5000020027161
329,184,2134,1,0,0:0:0
329,184,2322,2,0,P|382:193|437:183,1,105.000004005432,2|0,0:0|0:0,0:0:0
125,319,3447,6,0,P|111:362,3,26.2500010013581
125,319,3822,2,0,P|115:263,1,52.5000020027161,2|0,0:0|0:0,0:0:0
88,101,4384,5,2,0:0:0
167,130,4572,1,0,0:0:0
246,156,4759,1,0,0:0:0
235,73,4947,2,0,P|304:61,1,52.5000020027161,2|0,0:0|0:0,0:0:0
159,46,5322,1,2,0:0:0
175,216,5509,6,0,P|185:327,1,105,4|2,0:2|0:0,0:0:0
267,333,6259,1,2,0:0:0
350,347,6447,1,8,0:0:0
427,187,6822,5,6,0:2:0
468,259,7009,1,0,0:0:0
427,187,7197,1,8,0:0:0
464,112,7384,2,0,P|494:42,2,70,2|0|2,0:0|0:0|0:2,0:0:0
343,195,7947,2,0,P|281:195|281:195|268:204|268:204|181:204,1,140,8|2,0:0|0:2,0:0:0
229,123,8509,2,0,P|150:123,1,70,0|8,0:0|0:0,0:0:0
76,137,8884,2,0,P|49:77|88:0,1,140,2|2,0:0|0:0,0:0:0
129,199,9447,5,8,0:0:0
129,199,9822,2,0,P|96:217|45:205,1,70
201,239,10197,2,0,P|212:204|200:159,2,70,8|2|0,0:0|0:0|0:0,0:0:0
128,281,10759,1,2,0:2:0
128,281,10947,1,8,0:0:0
284,260,11134,2,0,P|272:313|293:367,1,105.000004005432,6|2,0:0|0:0,0:0:0
256,192,11603,12,8,12447,0:0:0
364,143,12822,6,0,P|427:160,2,52.5000020027161,2|0|2,0:0|0:0|0:0,0:0:0
291,185,13384,2,0,P|237:173,1,52.5000020027161,0|2,0:0|0:0,0:0:0
362,227,13759,2,0,P|371:280|339:333,1,105.000004005432
288,265,14322,5,2,0:0:0
435,193,14509,1,0,0:0:0
348,324,14697,1,2,0:0:0
216,224,14884,2,0,P|159:224|159:224|130:207|127:171,1,105.000004005432
54,224,15447,6,0,P|49:260,2,26.2500010013581,2|0|0,0:0|0:0|0:0,0:0:0
64,140,15822,1,2,0:0:0
64,140,16009,1,0,0:0:0
140,104,16197,1,2,0:0:0
210,148,16384,2,0,P|243:135|243:135|274:155|326:136,1,105.000004005432,0|0,0:0|0:0,0:0:0
348,65,16947,1,2,0:0:0
427,88,17134,2,0,P|444:29,2,52.5000020027161,0|2|0,0:0|0:0|0:0,0:0:0
435,171,17697,2,0,P|417:233|448:266|448:266|431:296|388:274,1,157.500006008148,2|0,0:0|0:0,0:0:0
510,211,18447,1,2,0:0:0
404,353,18634,5,0,0:0:0
389,359,18728,1,0,0:0:0
374,366,18822,2,0,P|309:353,1,52.5000020027161,2|0,0:0|0:0,0:0:0
242,330,19197,1,2,0:0:0
160,349,19384,1,0,0:0:0
83,314,19572,1,2,0:0:0
10,272,19759,2,0,P|-2:149,1,105.000004005432
82,184,20322,5,2,0:0:0
0,167,20509,1,0,0:0:0
164,198,20697,2,0,P|184:152|162:91,1,105.000004005432,2|2,0:0|0:0,0:0:0
251,79,21259,5,0,0:0:0
333,62,21447,1,2,0:0:0
414,44,21634,1,0,0:0:0
414,44,21822,2,0,P|428:105,1,52.5000020027161,2|0,0:0|0:0,0:0:0
251,79,22197,5,2,0:0:0
331,102,22384,1,0,0:0:0
410,130,22572,2,0,P|398:59,1,52.5000020027161,2|4,0:0|0:0,0:0:0
251,79,22947,5,2,0:0:0
318,129,23134,1,0,0:0:0
383,181,23322,2,0,P|403:74,1,105.000004005432,6|0,0:0|0:0,0:0:0
478,42,23884,1,0,0:0:0
316,314,24259,6,0,P|339:357,2,35,2|0|8,0:0|0:0|0:0,0:0:0
237,344,24634,1,2,0:0:0
237,344,24822,1,4,0:0:0
237,344,25009,1,0,0:0:0
156,318,25197,2,0,P|123:310|81:321,1,70,8|0,0:0|0:0,0:0:0
13,356,25572,2,0,P|-8:279,2,70,2|2|8,0:0|0:0|0:0,0:0:0
65,196,26322,5,2,0:0:0
203,178,26509,1,2,0:0:0
183,38,26697,1,8,0:0:0
45,61,26884,1,2,0:0:0
142,240,27259,5,2,0:0:0
175,317,27447,2,0,P|204:357|283:355|308:302,1,140,8|2,0:0|0:0,0:0:0
236,256,28009,1,0,0:0:0
371,363,28197,2,0,P|383:239,1,105,8|0,0:0|0:0,0:0:0
375,245,28572,1,2,0:0:0
459,287,28759,2,0,P|466:213,1,70,2|8,0:0|0:0,0:0:0
374,75,29322,6,0,P|345:56|304:58,1,70,2|2,0:0|0:0,0:0:0
321,139,29697,1,8,0:0:0
402,156,29884,2,0,P|453:154|484:86|447:36,1,140,2|2,0:0|0:0,0:0:0
321,139,30447,1,8,0:0:0
314,151,30540,1,0,0:0:0
309,164,30634,2,0,P|315:257,1,70,0|4,0:0|0:0,0:0:0
353,308,31009,5,0,0:0:0
233,206,31197,1,8,0:0:0
233,206,31384,2,0,P|223:59,1,140,0|2,0:0|0:0,0:0:0
140,47,31947,1,8,0:0:0
101,210,32322,6,0,P|93:123,1,70,2|2,0:0|0:0,0:0:0
140,47,32697,1,8,0:0:0
15,169,32884,2,0,P|3:13,1,140,2|2,0:0|0:0,0:0:0
140,47,33447,1,8,0:0:0
297,106,33822,5,2,0:0:0
356,165,34009,1,0,0:0:0
378,83,34197,1,8,0:0:0
275,185,34384,2,0,P|310:237|387:242,1,140,0|2,0:0|0:0,0:0:0
297,106,34947,1,8,0:0:0
297,106,35322,5,2,0:0:0
436,147,35509,1,2,0:0:0
397,7,35697,1,8,0:0:0
356,165,35884,1,2,0:0:0
356,165,36259,5,2,0:0:0
471,224,36447,1,8,0:0:0
502,96,36634,1,0,0:0:0
379,84,36822,2,0,P|320:88|283:62|283:62|263:83|242:91,1,140,4|8,0:0|0:0,0:0:0
221,164,37384,1,0,0:0:0
221,164,37759,5,2,0:0:0
143,132,37947,2,0,P|126:87|148:23,1,105,8|0,0:0|0:0,0:0:0
157,45,38322,2,0,P|73:58,1,70,2|2,0:0|0:0,0:0:0
255,88,38697,2,0,P|336:77,1,70,8|2,0:0|0:0,0:0:0
389,233,39259,5,2,0:0:0
468,261,39447,1,8,0:0:0
403,314,39634,2,0,P|360:330|360:330|314:305|254:325,1,140,2|0,0:0|0:0,0:0:0
195,362,40197,1,8,0:0:0
193,278,40384,2,0,P|216:230|191:167|130:159,1,140,2|2,0:0|0:0,0:0:0
63,179,40947,1,8,0:0:0
123,237,41134,2,0,P|175:243|230:202|224:139,1,140,4|2,0:0|0:0,0:0:0
63,179,41697,6,0,P|37:102,1,70,8|0,0:0|0:0,0:0:0
11,33,42072,1,2,0:0:0
94,42,42259,1,2,0:0:0
128,118,42447,1,8,0:0:0
43,304,42822,5,4,0:0:0
196,337,43197,1,8,0:0:0
43,304,43572,1,2,0:0:0
59,227,43759,1,2,0:0:0
77,150,43947,2,0,P|89:96|89:96|88:61|55:44,1,105.000004005432,8|0,0:0|0:0,0:0:0
142,204,44509,5,0,0:0:0
9,108,44697,2,0,P|-6:166,1,52.5000020027161,8|0,0:0|0:0,0:0:0
160,129,45072,2,0,P|171:66,2,52.5000020027161,0|2|8,0:0|0:0|0:0,0:0:0
255,260,45822,5,2,0:0:0
327,290,46009,1,0,0:0:0
393,246,46197,2,0,P|378:136,1,105.000004005432,8|2,0:0|0:0,0:0:0
449,106,46759,2,0,P|459:168,1,52.5000020027161,2|8,0:0|0:0,0:0:0
382,66,47134,5,2,0:0:0
382,66,47509,1,0,0:0:0
209,99,47697,2,0,P|258:115|316:98,1,105.000004005432,2|2,0:0|0:0,0:0:0
374,148,48259,5,0,0:0:0
308,102,48447,2,0,P|262:87|204:103,1,105.000004005432,2|4,0:0|0:0,0:0:0
84,281,49197,6,0,P|95:175,1,105.000004005432,8|2,0:0|0:0,0:0:0
36,122,49759,1,2,0:0:0
94,176,49947,2,0,P|155:171,1,52.5000020027161,8|0,0:0|0:0,0:0:0
20,202,50322,1,2,0:0:0
112,97,50509,2,0,P|176:91,1,52.5000020027161,2|8,0:0|0:0,0:0:0
82,254,50884,1,2,0:0:0
224,145,51072,2,0,P|235:184|222:204|222:204|237:230|213:260,1,105.000004005432,0|8,0:0|0:0,0:0:0
436,288,51822,5,4,0:0:0
405,133,52197,1,8,0:0:0
452,24,52572,1,0,0:0:0
477,96,52759,1,2,0:0:0
405,133,52947,2,0,P|354:118|295:131,1,105.000004005432,8|0,0:0|0:0,0:0:0
195,192,53697,2,0,P|209:283,1,78.7500030040742,8|0,0:0|0:0,0:0:0
217,277,54072,1,8,0:0:0
228,283,54165,1,8,0:0:0
239,289,54259,2,0,P|254:358,2,52.5000020027161,0|2|2,0:0|0:0|0:0,0:0:0
256,192,54822,12,4,56697,0:0:0
256,192,57072,5,4,0:0:0
74,129,57447,1,2,0:0:0
256,192,57822,1,4,0:0:0
105,337,58197,6,0,P|77:289|109:194,1,140,8|2,0:0|0:2,0:0:0
158,155,58759,1,2,0:0:0
222,283,58947,2,0,P|185:285|153:265,1,70,8|0,0:0|0:0,0:0:0
80,133,59322,5,2,0:2:0
189,254,59509,2,0,P|258:270|333:248,1,140,2|0,0:0|0:0,0:0:0
388,199,60072,5,2,0:2:0
423,123,60259,1,0,0:0:0
416,39,60447,2,0,P|341:38,1,70,8|2,0:0|0:0,0:0:0
493,79,60822,2,2,P|510:10,1,70,2|0,0:2|0:0,0:0:0
423,122,61197,6,0,P|440:194,1,70,8|0,0:0|0:0,0:0:0
468,353,61572,1,2,0:2:0
512,284,61759,2,0,P|486:252|402:265|396:314,1,140,2|0,0:0|0:0,0:0:0
468,353,62322,1,2,0:2:0
313,286,62509,2,0,P|331:375,2,70,2|8|2,0:0|0:0|0:0,0:0:0
296,203,63072,1,2,0:2:0
110,281,63259,6,0,P|184:295|233:258,1,140,2|2,0:0|0:0,0:0:0
248,136,63822,1,4,0:0:0
248,136,64197,6,0,P|230:45,1,70,8|0,0:0|0:0,0:0:0
339,164,64572,2,0,P|322:84,1,70,2|0,0:2|0:0,0:0:0
422,189,64947,2,0,P|458:333,1,140,8|2,0:0|0:0,0:0:0
370,315,65509,2,0,P|359:357|279:373|239:329,1,140
171,307,66072,2,0,P|86:332,1,70,2|0,0:2|0:0,0:0:0
100,234,66447,2,0,P|23:257,2,70,8|0|2,0:0|0:0|0:2,0:0:0
257,305,67197,1,8,0:0:0
99,234,67572,1,2,0:2:0
39,147,67759,21,2,0:0:0
99,234,67947,1,8,0:0:0
104,107,68134,1,2,0:0:0
30,270,68322,1,4,0:0:0
30,270,68697,5,0,0:0:0
169,278,68884,2,0,P|197:226|170:150,1,140,2|0,0:0|0:0,0:0:0
104,107,69447,5,0,0:0:0
118,97,69540,1,0,0:0:0
132,87,69634,1,0,0:0:0
146,77,69728,1,0,0:0:0
160,67,69822,2,0,P|231:65|223:96|299:98,1,140,4|8,0:2|0:0,0:0:0
375,71,70384,5,0,0:0:0
363,154,70572,1,2,0:2:0
295,97,70759,2,0,P|272:25,1,70,0|8,0:0|0:0,0:0:0
363,154,71134,5,0,0:0:0
295,97,71322,1,2,0:0:0
375,71,71509,2,0,P|447:90,1,70,0|8,0:0|0:0,0:0:0
295,97,71884,5,0,0:0:0
375,71,72072,1,2,0:0:0
363,154,72259,2,0,P|338:294,1,140,0|2,0:0|0:0,0:0:0
193,343,72822,6,0,P|221:198,1,140,4|8,0:0|0:0,0:0:0
236,123,73384,5,0,0:0:0
159,157,73572,1,2,0:2:0
81,188,73759,2,0,P|11:220,1,70,0|8,0:0|0:0,0:0:0
149,246,74134,5,0,0:0:0
159,157,74322,1,2,0:2:0
168,73,74509,2,0,P|175:-2,1,70,2|8,0:2|0:0,0:0:0
315,90,74884,5,2,0:2:0
315,90,74978,1,2,0:2:0
315,90,75072,2,0,P|306:240,1,140,2|12,0:2|3:0,0:0:0
173,334,75822,6,0,P|189:299|173:218,1,105,4|0,0:0|0:0,0:0:0
147,210,76197,2,0,P|69:231,1,70,8|8,0:0|0:3,0:0:0
79,228,76759,5,0,0:0:0
173,334,76947,1,8,0:0:0
216,170,77134,2,0,P|198:121|226:57,1,105,12|0,0:3|0:0,0:0:0
247,47,77509,6,0,P|341:46,1,70,0|8,0:0|0:0,0:0:0
386,182,77884,1,0,0:0:0
382,7,78072,1,8,0:0:0
320,126,78259,5,0,0:0:0
320,126,78353,1,0,0:0:0
320,126,78447,2,0,P|296:191|338:250,1,140,8|2,0:0|0:2,0:0:0
413,264,79009,5,0,0:0:0
467,200,79197,1,8,0:0:0
331,246,79384,2,0,P|280:210|196:224,1,140,8|2,0:3|0:0,0:0:0
140,316,79947,1,8,0:0:0
206,218,80134,2,0,P|230:373,1,140,12|0,0:3|0:0,0:0:0
140,316,80697,6,0,P|128:233,1,70,2|0,0:0|0:0,0:0:0
118,238,80978,1,0,0:0:0
106,229,81072,2,0,P|90:142,1,70
195,81,81447,1,0,0:0:0
206,219,81634,6,0,P|254:210|290:236|290:236|340:209|378:223|378:223|354:250,1,210,0|2,0:0|0:0,0:0:0
