osu file format v11

[General]
AudioFilename: DAYS of DASH.mp3
AudioLeadIn: 2000
PreviewTime: 57069
Countdown: 0
SampleSet: Soft
StackLeniency: 0.3
Mode: 0
LetterboxInBreaks: 0

[Editor]
DistanceSpacing: 1
BeatDivisor: 4
GridSize: 4

[Metadata]
Title:DAYS of DASH (TV Size)
TitleUnicode:DAYS of DASH (TV Size)
Artist:Suzuki Konomi
ArtistUnicode:鈴木このみ
Creator:kanpakyin
Version:Easy
Source:Sakurasou no Pet na Kanojo
Tags:mintong89 Curisu JauiPlaY yangzd88 Kanda Sorata Shiina Mashiro Aoyama Nanami Kamiigusa Misaki Mitaka Jin Akasaka Ryuunosuke Hata Aki Shirato Yuusuke opening
BeatmapID:202234
BeatmapSetID:68388

[Difficulty]
HPDrainRate:2
CircleSize:4
OverallDifficulty:2
ApproachRate:3
SliderMultiplier:0.8
SliderTickRate:2

[Events]
//Background and Video events
Video,0,"Video.avi"
0,0,"BG.jpg"
//Break Periods
//Storyboard Layer 0 (Background)
//Storyboard Layer 1 (Fail)
//Storyboard Layer 2 (Pass)
//Storyboard Layer 3 (Foreground)
//Storyboard Sound Samples
//Background Colour Transformations
3,100,163,162,255

[TimingPoints]
822,375,4,2,0,30,1,0
915,-100,4,2,1,30,0,0
1947,-100,4,2,0,30,0,0
2228,-100,4,2,1,30,0,0
3822,-100,4,2,0,30,0,0
3845,-100,4,2,1,30,0,0
4759,-100,4,2,0,30,0,0
5134,-100,4,2,1,50,0,0
9072,-100,4,2,0,50,0,0
9165,-100,4,2,1,50,0,0
11509,-100,4,2,0,50,0,0
12447,-100,4,1,1,50,0,0
12540,-100,4,2,1,50,0,0
20134,-100,4,2,0,50,0,0
20228,-100,4,2,1,50,0,0
23322,-100,4,2,1,40,0,0
23697,-100,4,2,0,50,0,0
23978,-100,4,2,1,50,0,0
24728,-100,4,2,2,45,0,0
24915,-100,4,2,1,50,0,0
25384,-100,4,2,0,50,0,0
25478,-100,4,2,1,50,0,0
26884,-100,4,2,0,50,0,0
26978,-100,4,2,1,50,0,0
28384,-100,4,2,0,50,0,0
28478,-100,4,2,1,50,0,0
30447,-100,4,1,1,40,0,0
30728,-100,4,1,1,30,0,0
30915,-100,4,2,1,50,0,0
34384,-100,4,2,0,40,0,0
34478,-100,4,2,1,50,0,0
36728,-100,4,2,1,25,0,0
36915,-100,4,2,1,50,0,0
42634,-100,4,2,1,25,0,0
42915,-100,4,2,1,50,0,0
47697,-100,4,2,2,50,0,0
48915,-100,4,2,1,50,0,0
54822,-100,4,2,1,30,0,0
54915,-100,4,2,1,50,0,0
57072,-100,4,2,0,50,0,0
57822,-100,4,2,1,50,0,1
58572,-100,4,1,1,40,0,1
58665,-100,4,2,1,50,0,1
59322,-100,4,1,1,40,0,1
59509,-100,4,2,1,50,0,1
60072,-100,4,1,1,40,0,1
60165,-100,4,2,1,50,0,1
60822,-100,4,1,1,40,0,1
60915,-100,4,2,1,50,0,1
61478,-100,4,1,1,40,0,1
61665,-100,4,2,1,50,0,1
62884,-100,4,2,0,50,0,1
63728,-100,4,2,1,50,0,1
64384,-100,4,1,1,40,0,1
64665,-100,4,2,1,50,0,1
65509,-100,4,2,0,50,0,1
66072,-100,4,2,1,50,0,1
66447,-100,4,2,0,50,0,1
67009,-100,4,2,1,50,0,1
68134,-100,4,2,1,30,0,1
68415,-100,4,2,1,50,0,1
70478,-100,4,1,1,40,0,1
70759,-100,4,2,1,50,0,1
72728,-100,4,2,0,50,0,1
72915,-100,4,2,1,50,0,1
74228,-100,4,2,0,40,0,1
74415,-100,4,2,1,50,0,1
75634,-100,4,2,1,25,0,1
75915,-100,4,2,1,50,0,1
77040,-100,4,1,1,45,0,1
77228,-100,4,2,1,50,0,1
78634,-100,4,2,1,25,0,1
78915,-100,4,2,1,50,0,1
79290,-100,4,1,1,45,0,1
79478,-100,4,2,1,50,0,1
80509,-100,4,2,0,40,0,1
80790,-100,4,2,1,50,0,1
81634,-100,4,2,2,35,0,0
81822,-100,4,2,2,5,0,0

[Colours]
Combo1 : 67,87,57
Combo2 : 111,102,102
Combo3 : 113,82,116
Combo4 : 81,94,151
SliderBorder : 255,255,255

[HitObjects]
96,324,822,2,0,P|72:280|92:244|92:244|46:243|27:195,1,160,2|0,0:0|0:0,0:0:0
100,164,1947,1,2,0:0:0
169,125,2322,2,0,P|179:84|162:35,1,80,0|0,0:0|0:0,0:0:0
358,190,3822,6,0,P|396:162|391:130|391:130|336:132|314:82,1,160,2|0,0:0|0:0,0:0:0
387,49,4947,1,2,0:0:0
464,69,5322,2,0,P|465:234,1,160,2|2,0:0|0:0,0:0:0
493,304,6447,5,8,0:0:0
435,360,6822,1,6,0:0:0
357,334,7197,2,0,P|283:333|283:333|273:327|273:327|196:327,1,160,8|8,0:0|0:0,0:0:0
219,249,8322,2,0,P|125:249,1,80,2|8,0:0|0:0,0:0:0
147,169,9072,6,0,P|94:152|94:58|147:39,1,160,2|2,0:0|0:0,0:0:0
193,103,10197,2,0,P|28:94,1,160,8|8,0:0|0:0,0:0:0
63,210,11509,5,2,0:0:0
257,163,12447,1,0,0:0:0
333,185,12822,6,0,P|350:131|321:60,2,120,2|0|2,0:0|0:0|0:0,0:0:0
274,240,14322,2,0,P|186:235,2,80,2|2|2,0:0|0:0|0:0,0:0:0
347,271,15447,6,0,P|331:332|355:388,2,120,2|0|2,0:0|0:0|0:0,0:0:0
419,304,16947,1,2,0:0:0
415,224,17322,1,2,0:0:0
342,189,17697,1,2,0:0:0
299,77,18259,6,0,P|346:93|387:67|387:67|428:84,2,120,2|2|0,0:0|0:0|0:0,0:0:0
222,99,19759,2,0,P|233:17,1,80,0|2,0:0|0:0,0:0:0
137,87,20697,2,0,P|114:255,1,160,2|2,0:0|0:0,0:0:0
192,275,21822,5,2,0:0:0
130,325,22197,1,2,0:0:0
203,356,22572,2,0,P|373:356,1,160,2|4,0:0|0:0,0:0:0
435,319,23697,6,0,P|443:272,1,40,0|2,0:0|0:0,0:0:0
361,275,24259,2,0,P|349:227,1,40,2|8,0:0|0:0,0:0:0
279,271,24822,6,0,P|222:251|160:268,2,120,4|2|8,0:0|0:0|0:0,0:0:0
361,275,26322,2,0,P|380:217|359:162,2,120,0|2|8,0:0|0:0|0:0,0:0:0
302,214,27822,2,0,P|281:161|309:94,2,120,2|2|8,0:0|0:0|0:0,0:0:0
373,249,29322,2,0,P|459:248,2,80,2|8|2,0:0|0:0|0:0,0:0:0
394,326,30447,1,0,0:0:0
315,309,30822,6,0,P|232:308|243:348|151:346,1,160,4|2,0:2|0:0,0:0:0
166,266,31947,2,0,P|81:266,1,80,8|2,0:0|0:0,0:0:0
20,220,32697,2,0,P|8:179|26:129,1,80,8|0,0:0|0:0,0:0:0
88,179,33447,1,8,0:0:0
167,182,33822,6,0,P|205:205|205:205|239:182|232:133,2,120,2|2|8,0:0|0:0|0:0,0:0:0
163,101,35322,2,0,P|82:101,2,80,2|8|0,0:0|0:0|0:0,0:0:0
234,64,36447,1,8,0:0:0
298,110,36822,6,0,P|343:112|374:76|374:76|389:121|356:160,1,160,4|2,0:0|0:0,0:0:0
354,225,37947,1,8,0:0:0
341,303,38322,2,0,P|404:325|460:294,2,120,2|2|8,0:0|0:0|0:0,0:0:0
263,323,39822,2,0,P|177:339,1,80,2|8,0:0|0:0,0:0:0
175,257,40572,2,0,P|91:273,1,80,0|8,0:0|0:0,0:0:0
48,119,41697,6,0,P|47:70,2,40,0|0|0,1:0|0:0|0:0,0:0:0
122,148,42447,1,8,0:0:0
196,177,42822,6,0,P|223:119|166:81|201:11,2,160,4|2|2,0:0|0:0|0:0,0:0:0
255,325,45072,1,2,0:0:0
381,226,45822,2,0,P|417:208|466:210,1,80,2|8,0:0|0:0,0:0:0
446,287,46572,2,0,P|463:119,1,160,2|2,0:0|0:0,0:0:0
379,131,47697,2,0,P|391:42,2,80,2|2|2,0:0|0:0|0:0,0:0:0
317,182,48822,6,0,P|283:200|240:197,1,80,6|8,0:0|0:0,0:0:0
263,120,49572,2,0,P|223:104|203:62,1,80,2|8,0:0|0:0,0:0:0
275,36,50322,2,0,P|104:36,1,160,2|0,0:0|0:0,0:0:0
58,92,51447,1,8,0:0:0
102,158,51822,6,0,P|149:183|147:269|83:295,1,160,4|0,0:0|0:0,0:0:0
143,352,52947,2,0,P|112:372|69:368,2,80,8|0|8,0:0|0:0|0:0,0:0:0
220,330,54072,5,2,0:0:0
293,360,54447,2,0,P|348:360,2,40,2|2|4,0:0|0:0|0:0,0:0:0
256,192,55009,12,2,57072,0:0:0
116,325,57822,6,0,P|116:255|116:255|110:235|110:235|111:161,1,160,4|2,0:0|0:2,0:0:0
189,184,58947,2,0,P|189:101,1,80,8|2,0:0|0:2,0:0:0
268,102,59697,2,0,B|289:63|334:58,1,80,8|2,0:0|0:2,0:0:0
341,138,60447,2,0,B|390:139|410:182,1,80,8|2,0:0|0:2,0:0:0
341,222,61197,6,0,B|319:262|270:259,1,80,8|2,0:0|0:2,0:0:0
271,179,61947,2,0,P|180:142|150:212|66:160,1,200,8|2,0:0|0:0,0:0:0
32,233,63259,5,2,0:0:0
83,293,63634,2,0,P|142:308|142:308|207:293,1,120,2|8,0:0|0:0,0:0:0
277,327,64572,1,2,0:2:0
348,290,64947,2,0,P|407:277|407:277|469:292,1,120,8|2,0:0|0:0,0:0:0
487,214,65884,2,0,P|403:193,2,80,2|2|2,0:0|0:0|0:0,0:0:0
462,96,67197,5,8,0:0:0
353,45,67759,2,0,P|314:24,1,40,2|8,0:0|0:0,0:0:0
287,100,68322,2,0,P|231:83|168:103,2,120,4|8|8,0:0|0:0|0:0,0:0:0
309,176,69822,6,0,P|327:268,1,80,4|8,0:0|0:0,0:0:0
244,252,70572,1,2,0:2:0
279,323,70947,2,0,P|223:348|180:299|180:299|154:319|164:354,1,160,8|8,0:0|0:0,0:0:0
67,227,72447,6,0,P|61:139,2,80,8|2|8,0:0|0:0|0:0,0:0:0
213,268,73947,2,0,P|219:359,2,80,8|2|8,0:0|0:0|0:0,0:0:0
329,158,75447,2,0,P|323:71,2,80,8|4|8,0:0|0:0|0:0,0:0:0
391,305,76947,6,0,P|364:352,1,40,0|12,0:0|0:3,0:0:0
309,286,77509,2,0,P|335:240,1,40,0|0,0:0|1:0,0:0:0
250,233,78072,2,0,P|228:261|174:271,1,80,0|0,1:0|1:0,0:0:0
179,194,78822,6,0,P|199:151|176:109|176:109|204:72,2,120,4|8|0,0:0|0:3|1:0,0:0:0
215,308,80509,2,0,P|158:308,2,40,2|0|0,0:0|0:0|1:0,0:0:0
297,308,81259,2,0,P|354:308,2,40,0|0|4,1:0|1:0|0:0,0:0:0
256,192,81822,12,0,82759,0:0:0
