osu file format v12

[General]
AudioFilename: dod.mp3
AudioLeadIn: 0
PreviewTime: 57072
Countdown: 0
SampleSet: Soft
StackLeniency: 0.7
Mode: 3
LetterboxInBreaks: 0
SpecialStyle: 0
WidescreenStoryboard: 1

[Editor]
Bookmarks: 6822,8322
DistanceSpacing: 1.4
BeatDivisor: 4
GridSize: 4
TimelineZoom: 1

[Metadata]
Title:DAYS of DASH (TV Size)
TitleUnicode:DAYS of DASH (TV Size)
Artist:Suzuki Konomi
ArtistUnicode:鈴木このみ
Creator:YunoFanatic
Version:Insane
Source:Sakurasou no Pet na Kanojo
Tags:ending
BeatmapID:393809
BeatmapSetID:161328

[Difficulty]
HPDrainRate:9
CircleSize:4
OverallDifficulty:8
ApproachRate:5
SliderMultiplier:1.4
SliderTickRate:1

[Events]
//Background and Video events
0,0,"bg.png",0,0
//Break Periods
//Storyboard Layer 0 (Background)
//Storyboard Layer 1 (Fail)
//Storyboard Layer 2 (Pass)
//Storyboard Layer 3 (Foreground)
//Storyboard Sound Samples
//Background Colour Transformations
3,100,163,162,255

[TimingPoints]
822,375,4,2,1,40,1,0
57822,-100,4,2,1,40,0,1
68322,-100,4,2,1,40,0,0
69822,-100,4,2,1,40,0,1
81634,-100,4,2,1,40,0,0

[HitObjects]
64,192,822,5,0,0:0:0:0:
448,192,822,1,0,0:0:0:0:
192,192,822,128,0,2322:0:0:0:0:
64,192,1009,1,0,0:0:0:0:
320,192,1384,1,0,0:0:0:0:
320,192,1572,1,0,0:0:0:0:
64,192,1759,1,0,0:0:0:0:
64,192,1947,1,0,0:0:0:0:
448,192,2134,1,0,0:0:0:0:
448,192,2322,1,0,0:0:0:0:
320,192,2509,1,0,0:0:0:0:
64,192,2697,1,0,0:0:0:0:
448,192,2697,128,0,3259:0:0:0:0:
192,192,2884,1,0,0:0:0:0:
320,192,3072,1,0,0:0:0:0:
192,192,3259,1,0,0:0:0:0:
320,192,3540,1,0,0:0:0:0:
192,192,3634,1,0,0:0:0:0:
64,192,3728,1,0,0:0:0:0:
192,192,3822,1,0,0:0:0:0:
320,192,3915,1,0,0:0:0:0:
448,192,4009,1,0,0:0:0:0:
64,192,4197,1,0,0:0:0:0:
448,192,4384,1,0,0:0:0:0:
64,192,4572,1,0,0:0:0:0:
320,192,4759,1,0,0:0:0:0:
448,192,4947,1,0,0:0:0:0:
64,192,5134,1,0,0:0:0:0:
320,192,5322,1,0,0:0:0:0:
448,192,5322,1,4,0:0:0:0:
64,192,5509,1,0,0:0:0:60:clap.wav
192,192,5509,1,0,0:0:0:0:
448,192,5509,128,0,6072:0:0:0:0:
320,192,5697,1,0,0:0:0:0:
64,192,5884,1,0,0:0:0:0:
192,192,5978,1,0,0:0:0:0:
320,192,6072,1,0,0:0:0:0:
64,192,6072,128,0,6447:0:0:0:0:
192,192,6259,1,0,0:0:0:0:
320,192,6447,128,0,6822:0:0:0:0:
448,192,6447,1,0,0:0:0:0:
64,192,6822,128,0,8322:0:0:0:60:bass.wav
192,192,6822,1,0,0:0:0:0:
448,192,6822,1,0,0:0:0:0:
448,192,7197,1,0,0:0:0:0:
192,192,7197,1,0,0:0:0:60:clap.wav
320,192,7384,1,0,0:0:0:60:bass.wav
192,192,7572,1,0,0:0:0:0:
448,192,7759,1,0,0:0:0:60:bass.wav
320,192,7759,1,0,0:0:0:0:
320,192,7947,1,0,0:0:0:60:clap.wav
192,192,7947,1,0,0:0:0:0:
448,192,8322,128,0,9822:0:0:0:60:bass.wav
192,192,8322,1,0,0:0:0:0:
320,192,8509,1,0,0:0:0:60:bass.wav
192,192,8509,1,0,0:0:0:0:
192,192,8697,1,0,0:0:0:60:clap.wav
64,192,8697,1,0,0:0:0:0:
64,192,8884,1,0,0:0:0:60:bass.wav
192,192,9072,1,0,0:0:0:60:bass.wav
64,192,9259,1,0,0:0:0:0:
320,192,9447,1,0,0:0:0:0:
192,192,9447,1,0,0:0:0:60:clap.wav
64,192,9634,1,0,0:0:0:50:hithat.wav
192,192,9728,1,0,0:0:0:50:hithat.wav
320,192,9822,128,0,10947:0:0:0:60:bass.wav
64,192,9822,1,0,0:0:0:0:
192,192,10009,1,0,0:0:0:60:bass.wav
448,192,10197,1,0,0:0:0:60:clap.wav
64,192,10197,1,0,0:0:0:0:
192,192,10384,1,0,0:0:0:60:bass.wav
448,192,10572,1,0,0:0:0:60:bass.wav
64,192,10572,1,0,0:0:0:0:
192,192,10759,1,0,0:0:0:60:bass.wav
448,192,10759,1,0,0:0:0:0:
448,192,10947,1,0,0:0:0:60:clap.wav
192,192,10947,1,0,0:0:0:0:
320,192,11134,1,4,0:0:0:0:
192,192,11134,1,0,0:0:0:0:
64,192,11322,1,0,0:0:0:0:
192,192,11415,1,0,0:0:0:0:
448,192,11509,1,0,0:0:0:0:
320,192,11603,1,0,0:0:0:0:
64,192,11697,1,0,0:0:0:0:
192,192,11790,1,0,0:0:0:0:
320,192,11884,1,0,0:0:0:0:
448,192,11978,1,0,0:0:0:0:
64,192,12072,1,0,0:0:0:0:
192,192,12259,1,0,0:0:0:60:bass.wav
448,192,12259,1,0,0:0:0:0:
192,192,12447,1,0,0:0:0:40:clap.wav
448,192,12447,1,0,0:0:0:0:
448,192,12822,1,0,0:0:0:60:bass.wav
192,192,12822,128,0,13197:0:0:0:0:
320,192,12822,1,0,0:0:0:0:
64,192,13009,1,0,0:0:0:60:bass.wav
448,192,13197,1,0,0:0:0:60:bass.wav
64,192,13197,1,0,0:0:0:0:
320,192,13384,1,0,0:0:0:60:bass.wav
64,192,13572,1,0,0:0:0:60:bass.wav
448,192,13572,1,0,0:0:0:0:
192,192,13759,1,0,0:0:0:60:bass.wav
64,192,13947,1,0,0:0:0:60:bass.wav
320,192,13947,128,0,14322:0:0:0:0:
192,192,14134,1,0,0:0:0:60:bass.wav
64,192,14322,128,0,15447:0:0:0:60:bass.wav
448,192,14322,1,0,0:0:0:0:
192,192,14509,1,0,0:0:0:60:bass.wav
320,192,14603,1,0,0:0:0:0:
448,192,14697,1,0,0:0:0:60:bass.wav
192,192,14884,1,0,0:0:0:60:bass.wav
320,192,14978,1,0,0:0:0:0:
448,192,15072,1,0,0:0:0:60:bass.wav
320,192,15165,1,0,0:0:0:0:
192,192,15259,1,0,0:0:0:60:bass.wav
320,192,15353,1,0,0:0:0:0:
448,192,15447,1,0,0:0:0:40:hithat.wav
320,192,15540,1,0,0:0:0:40:hithat.wav
192,192,15634,1,0,0:0:0:40:hithat.wav
64,192,15728,1,0,0:0:0:40:hithat.wav
192,192,15822,1,0,0:0:0:60:bass.wav
448,192,15822,1,0,0:0:0:0:
64,192,16009,1,0,0:0:0:60:bass.wav
320,192,16197,1,0,0:0:0:60:bass.wav
448,192,16197,1,0,0:0:0:0:
192,192,16384,1,0,0:0:0:60:bass.wav
448,192,16572,1,0,0:0:0:60:bass.wav
64,192,16572,1,0,0:0:0:0:
192,192,16759,1,0,0:0:0:60:bass.wav
320,192,16947,1,0,0:0:0:60:bass.wav
448,192,16947,1,0,0:0:0:0:
64,192,17134,1,0,0:0:0:60:bass.wav
448,192,17322,1,0,0:0:0:60:bass.wav
64,192,17509,1,0,0:0:0:60:bass.wav
448,192,17697,1,0,0:0:0:60:bass.wav
192,192,17697,128,0,18447:0:0:0:0:
64,192,17884,1,0,0:0:0:60:bass.wav
320,192,17978,1,0,0:0:0:0:
448,192,18072,1,0,0:0:0:60:bass.wav
320,192,18165,1,0,0:0:0:0:
448,192,18259,1,0,0:0:0:0:
64,192,18259,1,0,0:0:0:60:bass.wav
320,192,18447,1,0,0:0:0:50:hithat.wav
64,192,18447,1,0,0:0:0:60:bass.wav
448,192,18634,1,0,0:0:0:0:
192,192,18728,1,0,0:0:0:0:
64,192,18822,1,0,0:0:0:60:bass.wav
320,192,18822,1,0,0:0:0:0:
448,192,19009,1,0,0:0:0:60:bass.wav
192,192,19197,1,0,0:0:0:60:bass.wav
64,192,19197,1,0,0:0:0:0:
320,192,19384,1,0,0:0:0:60:bass.wav
64,192,19572,1,0,0:0:0:60:bass.wav
448,192,19572,1,0,0:0:0:0:
320,192,19759,1,0,0:0:0:60:bass.wav
192,192,19947,1,0,0:0:0:60:bass.wav
64,192,19947,1,0,0:0:0:0:
320,192,20134,1,0,0:0:0:60:bass.wav
448,192,20322,128,0,21447:0:0:0:0:
64,192,20322,1,0,0:0:0:60:bass.wav
320,192,20322,1,0,0:0:0:0:
192,192,20509,1,0,0:0:0:60:bass.wav
64,192,20697,1,0,0:0:0:60:bass.wav
192,192,20697,1,0,0:0:0:0:
320,192,20884,1,0,0:0:0:60:bass.wav
64,192,21072,1,0,0:0:0:60:bass.wav
192,192,21072,1,0,0:0:0:0:
192,192,21259,1,0,0:0:0:60:bass.wav
192,192,21447,1,0,0:0:0:60:bass.wav
64,192,21447,1,0,0:0:0:0:
320,192,21540,1,0,0:0:0:40:hithat.wav
192,192,21634,1,0,0:0:0:40:hithat.wav
64,192,21728,1,0,0:0:0:40:hithat.wav
192,192,21822,1,0,0:0:0:40:hithat.wav
448,192,21822,1,0,0:0:0:0:
64,192,22009,1,0,0:0:0:60:bass.wav
320,192,22197,1,0,0:0:0:60:bass.wav
448,192,22197,1,0,0:0:0:0:
192,192,22384,1,0,0:0:0:60:bass.wav
448,192,22572,1,0,0:0:0:60:bass.wav
64,192,22572,1,0,0:0:0:0:
320,192,22759,128,4,23322:0:0:0:0:
64,192,22759,1,0,0:0:0:60:bass.wav
448,192,22947,1,0,0:0:0:0:
64,192,23134,1,0,0:0:0:0:
448,192,23322,1,4,0:0:0:60:bass.wav
192,192,23322,128,4,24072:0:0:0:0:
64,192,23509,1,0,0:0:0:60:bass.wav
448,192,23697,1,0,0:0:0:0:
320,192,23790,1,0,0:0:0:0:
64,192,23884,1,0,0:0:0:60:bass.wav
320,192,24259,1,0,0:0:0:60:bass.wav
64,192,24259,1,4,0:0:0:0:
192,192,24353,1,0,0:0:0:0:
448,192,24447,1,0,0:0:0:0:
320,192,24447,1,0,0:0:0:60:clap.wav
192,192,24822,128,0,26322:0:0:0:60:bass.wav
448,192,24822,1,0,0:0:0:0:
64,192,24822,1,0,0:0:0:0:
320,192,25009,1,0,0:0:0:60:bass.wav
64,192,25197,1,0,0:0:0:60:clap.wav
448,192,25197,1,0,0:0:0:0:
320,192,25384,1,0,0:0:0:60:bass.wav
64,192,25572,1,0,0:0:0:60:bass.wav
448,192,25572,1,0,0:0:0:0:
448,192,25759,1,0,0:0:0:0:
320,192,25759,1,0,0:0:0:60:bass.wav
64,192,25947,1,0,0:0:0:60:clap.wav
448,192,25947,1,0,0:0:0:0:
448,192,26322,1,0,0:0:0:60:bass.wav
64,192,26322,128,0,27822:0:0:0:0:
320,192,26509,1,0,0:0:0:60:bass.wav
192,192,26509,1,0,0:0:0:0:
192,192,26697,1,0,0:0:0:60:clap.wav
448,192,26697,1,0,0:0:0:60:
320,192,26884,1,0,0:0:0:60:bass.wav
192,192,26884,1,0,0:0:0:0:
448,192,27072,1,0,0:0:0:0:
192,192,27259,1,0,0:0:0:60:bass.wav
320,192,27447,1,0,0:0:0:60:clap.wav
448,192,27447,1,0,0:0:0:0:
320,192,27822,128,0,29322:0:0:0:60:bass.wav
448,192,27822,1,0,0:0:0:0:
192,192,27822,1,0,0:0:0:0:
64,192,28009,1,0,0:0:0:60:bass.wav
192,192,28197,1,0,0:0:0:60:clap.wav
448,192,28197,1,0,0:0:0:0:
64,192,28384,1,0,0:0:0:60:bass.wav
192,192,28572,1,0,0:0:0:60:bass.wav
448,192,28572,1,0,0:0:0:0:
448,192,28759,1,0,0:0:0:0:
64,192,28759,1,0,0:0:0:60:bass.wav
448,192,28947,1,0,0:0:0:60:clap.wav
192,192,28947,1,0,0:0:0:0:
448,192,29322,1,0,0:0:0:0:
64,192,29322,1,0,0:0:0:60:bass.wav
320,192,29509,1,0,0:0:0:0:
64,192,29509,1,0,0:0:0:60:bass.wav
448,192,29697,1,0,0:0:0:0:
192,192,29697,1,0,0:0:0:60:clap.wav
448,192,29884,1,0,0:0:0:0:
192,192,29884,1,0,0:0:0:60:bass.wav
320,192,30165,1,0,0:0:0:40:clap.wav
192,192,30259,1,0,0:0:0:40:clap.wav
64,192,30447,1,0,0:0:0:50:hithat.wav
448,192,30447,1,0,0:0:0:0:
192,192,30540,1,0,0:0:0:50:hithat.wav
320,192,30634,1,0,0:0:0:50:hithat.wav
448,192,30822,1,4,0:0:0:60:bass.wav
64,192,30822,1,4,0:0:0:0:
192,192,30822,1,0,0:0:0:0:
320,192,31009,1,0,0:0:0:60:bass.wav
192,192,31197,1,0,0:0:0:60:clap.wav
448,192,31197,1,0,0:0:0:0:
64,192,31384,1,0,0:0:0:60:bass.wav
320,192,31572,1,0,0:0:0:60:bass.wav
64,192,31572,1,0,0:0:0:0:
448,192,31759,1,0,0:0:0:60:bass.wav
320,192,31947,1,0,0:0:0:60:clap.wav
64,192,31947,1,0,0:0:0:0:
192,192,32134,1,0,0:0:0:60:bass.wav
320,192,32322,1,0,0:0:0:60:bass.wav
448,192,32322,128,0,32697:0:0:0:0:
64,192,32509,1,0,0:0:0:60:bass.wav
192,192,32697,1,0,0:0:0:60:clap.wav
320,192,32697,1,0,0:0:0:0:
64,192,32884,1,0,0:0:0:60:bass.wav
448,192,33072,1,0,0:0:0:0:
64,192,33259,1,0,0:0:0:60:bass.wav
192,192,33447,1,0,0:0:0:60:clap.wav
448,192,33447,1,0,0:0:0:0:
320,192,33634,1,0,0:0:0:60:bass.wav
64,192,33822,1,0,0:0:0:60:bass.wav
448,192,33822,1,0,0:0:0:0:
320,192,34009,1,0,0:0:0:60:bass.wav
192,192,34197,1,0,0:0:0:60:clap.wav
64,192,34197,1,0,0:0:0:0:
448,192,34384,1,0,0:0:0:60:bass.wav
192,192,34572,1,0,0:0:0:60:bass.wav
320,192,34572,1,0,0:0:0:0:
64,192,34759,1,0,0:0:0:60:bass.wav
448,192,34759,1,0,0:0:0:0:
320,192,34947,1,0,0:0:0:60:clap.wav
192,192,34947,1,0,0:0:0:0:
64,192,35134,1,0,0:0:0:60:bass.wav
192,192,35322,1,0,0:0:0:60:bass.wav
320,192,35322,1,0,0:0:0:0:
448,192,35509,1,0,0:0:0:60:bass.wav
64,192,35509,128,0,36447:0:0:0:0:
320,192,35697,1,0,0:0:0:60:clap.wav
448,192,35697,1,0,0:0:0:0:
192,192,35884,1,0,0:0:0:60:bass.wav
448,192,36072,1,0,0:0:0:0:
320,192,36259,1,0,0:0:0:60:bass.wav
448,192,36353,1,0,0:0:0:0:
192,192,36447,1,0,0:0:0:60:clap.wav
320,192,36447,1,0,0:0:0:0:
448,192,36634,1,0,0:0:0:60:clap.wav
192,192,36634,1,0,0:0:0:0:
64,192,36822,1,4,0:0:0:60:bass.wav
320,192,36822,128,0,37572:0:0:0:0:
448,192,36822,1,0,0:0:0:0:
192,192,37009,1,0,0:0:0:60:bass.wav
448,192,37197,1,0,0:0:0:60:clap.wav
64,192,37197,1,0,0:0:0:0:
192,192,37384,1,0,0:0:0:60:bass.wav
64,192,37572,1,0,0:0:0:60:bass.wav
448,192,37572,1,0,0:0:0:0:
448,192,37759,1,0,0:0:0:60:bass.wav
192,192,37759,1,0,0:0:0:0:
320,192,37947,1,0,0:0:0:60:clap.wav
64,192,37947,1,0,0:0:0:0:
448,192,38134,1,0,0:0:0:60:bass.wav
320,192,38322,1,0,0:0:0:0:
64,192,38322,1,0,0:0:0:60:bass.wav
448,192,38509,1,0,0:0:0:60:bass.wav
192,192,38509,1,0,0:0:0:0:
320,192,38697,1,0,0:0:0:60:clap.wav
64,192,38697,1,0,0:0:0:0:
448,192,38884,1,0,0:0:0:60:bass.wav
64,192,39072,1,0,0:0:0:60:bass.wav
448,192,39259,1,0,0:0:0:60:bass.wav
320,192,39447,1,0,0:0:0:60:clap.wav
64,192,39447,1,0,0:0:0:0:
192,192,39634,1,0,0:0:0:60:bass.wav
320,192,39822,1,0,0:0:0:60:bass.wav
64,192,39822,128,0,40384:0:0:0:0:
192,192,40009,1,0,0:0:0:0:
448,192,40197,1,0,0:0:0:60:clap.wav
320,192,40384,128,0,41134:0:0:0:60:bass.wav
192,192,40384,1,0,0:0:0:0:
448,192,40572,1,0,0:0:0:0:
64,192,40759,1,0,0:0:0:60:bass.wav
192,192,40947,1,0,0:0:0:60:clap.wav
448,192,41134,128,4,42447:0:0:0:60:bass.wav
64,192,41134,128,4,42447:0:0:0:0:
192,192,41322,1,0,0:0:0:0:
320,192,41509,1,0,0:0:0:60:bass.wav
192,192,41697,1,0,0:0:0:60:clap.wav
320,192,41697,1,0,0:0:0:0:
320,192,41884,1,0,0:0:0:0:
192,192,42072,1,0,0:0:0:60:bass.wav
320,192,42165,1,0,0:0:0:0:
192,192,42259,1,0,0:0:0:0:
192,192,42447,1,0,0:0:0:60:bass.wav
320,192,42447,1,0,0:0:0:0:
192,192,42634,1,0,0:0:0:0:
64,192,42822,1,4,0:0:0:60:bass.wav
448,192,42822,1,4,0:0:0:0:
192,192,42822,1,0,0:0:0:0:
64,192,43197,1,0,0:0:0:60:clap.wav
448,192,43197,1,0,0:0:0:0:
320,192,43197,1,0,0:0:0:0:
64,192,43572,1,0,0:0:0:60:bass.wav
448,192,43572,1,0,0:0:0:0:
192,192,43572,1,0,0:0:0:0:
192,192,43759,1,0,0:0:0:60:bass.wav
320,192,43759,1,0,0:0:0:0:
64,192,43947,1,0,0:0:0:60:clap.wav
448,192,43947,1,0,0:0:0:0:
320,192,43947,1,0,0:0:0:0:
64,192,44322,1,0,0:0:0:60:bass.wav
320,192,44322,1,0,0:0:0:0:
448,192,44322,1,0,0:0:0:0:
192,192,44697,1,0,0:0:0:60:clap.wav
448,192,44697,1,0,0:0:0:0:
64,192,44697,1,0,0:0:0:0:
64,192,45072,1,0,0:0:0:60:bass.wav
448,192,45072,1,0,0:0:0:0:
320,192,45072,1,0,0:0:0:0:
192,192,45259,1,0,0:0:0:60:bass.wav
320,192,45259,1,0,0:0:0:0:
448,192,45447,1,0,0:0:0:0:
192,192,45447,1,0,0:0:0:0:
64,192,45447,1,0,0:0:0:60:clap.wav
192,192,45822,1,0,0:0:0:60:bass.wav
320,192,45822,1,0,0:0:0:0:
448,192,45822,1,0,0:0:0:0:
320,192,46197,1,0,0:0:0:0:
448,192,46197,1,0,0:0:0:0:
64,192,46197,1,0,0:0:0:60:clap.wav
320,192,46572,1,0,0:0:0:60:bass.wav
448,192,46572,1,0,0:0:0:0:
64,192,46572,1,0,0:0:0:0:
320,192,46759,1,0,0:0:0:60:bass.wav
448,192,46759,1,0,0:0:0:0:
64,192,46759,1,0,0:0:0:0:
192,192,46947,1,0,0:0:0:60:clap.wav
64,192,47134,1,0,0:0:0:60:bass.wav
448,192,47134,128,0,48822:0:0:0:0:
320,192,47134,1,0,0:0:0:0:
320,192,47322,1,0,0:0:0:60:bass.wav
192,192,47509,1,0,0:0:0:60:bass.wav
64,192,47509,1,0,0:0:0:0:
320,192,47697,1,0,0:0:0:60:clap.wav
192,192,47884,1,0,0:0:0:60:bass.wav
320,192,48072,1,0,0:0:0:60:clap.wav
64,192,48259,1,0,0:0:0:0:
192,192,48447,1,0,0:0:0:60:clap.wav
320,192,48540,1,0,0:0:0:0:
192,192,48634,1,0,0:0:0:30:bass.wav
64,192,48728,1,0,0:0:0:30:bass.wav
192,192,48822,1,0,0:0:0:60:bass.wav
320,192,48822,1,0,0:0:0:0:
64,192,49197,1,0,0:0:0:60:clap.wav
448,192,49197,1,0,0:0:0:0:
192,192,49197,1,0,0:0:0:0:
64,192,49572,1,0,0:0:0:60:bass.wav
448,192,49572,1,0,0:0:0:0:
320,192,49572,1,0,0:0:0:0:
192,192,49759,1,0,0:0:0:60:bass.wav
320,192,49759,1,0,0:0:0:0:
64,192,49947,1,0,0:0:0:60:clap.wav
192,192,49947,1,0,0:0:0:60:
320,192,49947,1,0,0:0:0:0:
320,192,50322,1,0,0:0:0:60:bass.wav
448,192,50322,1,0,0:0:0:0:
64,192,50322,1,0,0:0:0:0:
192,192,50697,1,0,0:0:0:60:clap.wav
64,192,50697,1,0,0:0:0:0:
448,192,50697,1,0,0:0:0:0:
320,192,51072,1,0,0:0:0:60:bass.wav
448,192,51072,1,0,0:0:0:0:
64,192,51072,1,0,0:0:0:0:
192,192,51259,1,0,0:0:0:60:bass.wav
448,192,51447,1,0,0:0:0:0:
64,192,51447,1,0,3:0:0:0:
320,192,51447,1,0,0:0:0:60:clap.wav
64,192,51822,1,4,0:0:0:60:bass.wav
448,192,51822,1,4,0:0:0:0:
192,192,51822,128,0,53322:0:0:0:0:
320,192,52197,1,0,0:0:0:30:clap.wav
64,192,52197,1,0,0:0:0:0:
448,192,52759,1,0,0:0:0:60:bass.wav
64,192,52947,1,0,0:0:0:30:clap.wav
320,192,52947,1,0,0:0:0:0:
448,192,53134,1,0,0:0:0:60:bass.wav
320,192,53322,128,0,54822:0:0:0:0:
64,192,53509,1,0,0:0:0:60:bass.wav
448,192,53697,1,0,0:0:0:30:clap.wav
192,192,53697,1,0,0:0:0:0:
192,192,53978,1,0,0:0:0:0:
64,192,54072,1,0,0:0:0:50:hithat.wav
192,192,54165,1,0,0:0:0:50:hithat.wav
448,192,54259,1,0,0:0:0:60:clap.wav
192,192,54447,1,0,0:0:0:0:
64,192,54447,1,0,0:0:0:60:bass.wav
448,192,54634,1,0,0:0:0:60:bass.wav
448,192,54822,1,0,0:0:0:20:clap.wav
64,192,54822,128,0,55197:0:0:0:60:bass.wav
192,192,54822,1,0,0:0:0:0:
320,192,55009,1,0,0:0:0:20:clap.wav
192,192,55197,128,0,55572:0:0:0:20:clap.wav
448,192,55197,1,0,0:0:0:60:bass.wav
320,192,55384,1,0,0:0:0:20:clap.wav
320,192,55572,128,0,55947:0:0:0:30:clap.wav
448,192,55572,1,0,0:0:0:60:bass.wav
192,192,55759,1,0,0:0:0:30:clap.wav
448,192,55947,128,0,56322:0:0:0:30:clap.wav
64,192,55947,1,0,0:0:0:60:bass.wav
192,192,56134,1,0,0:0:0:30:clap.wav
64,192,56322,128,0,56697:0:0:0:40:clap.wav
320,192,56322,1,0,0:0:0:60:bass.wav
192,192,56509,1,0,0:0:0:40:clap.wav
192,192,56697,128,0,57072:0:0:0:50:clap.wav
320,192,56697,1,0,0:0:0:60:bass.wav
320,192,57072,128,0,57822:0:0:0:60:bass.wav
448,192,57072,1,4,0:0:0:0:
64,192,57072,1,4,0:0:0:0:
64,192,57447,1,0,0:0:0:25:clap.wav
448,192,57447,1,4,0:0:0:0:
192,192,57447,1,4,0:0:0:0:
64,192,57822,1,4,0:0:0:60:bass.wav
448,192,57822,1,4,0:0:0:0:
192,192,57822,1,4,0:0:0:0:
320,192,58009,1,0,0:0:0:60:bass.wav
448,192,58197,1,0,0:0:0:60:clap.wav
192,192,58197,1,0,0:0:0:0:
64,192,58384,1,0,0:0:0:60:bass.wav
192,192,58572,1,0,0:0:0:60:bass.wav
448,192,58572,1,0,0:0:0:0:
64,192,58759,1,0,0:0:0:60:bass.wav
192,192,58947,1,0,0:0:0:60:clap.wav
448,192,58947,1,0,0:0:0:0:
320,192,59134,1,0,0:0:0:60:bass.wav
64,192,59322,1,0,0:0:0:60:bass.wav
448,192,59322,128,0,60072:0:0:0:0:
192,192,59509,1,0,0:0:0:60:bass.wav
64,192,59697,1,0,0:0:0:60:clap.wav
320,192,59697,1,0,0:0:0:0:
192,192,59884,1,0,0:0:0:60:bass.wav
64,192,60072,1,0,0:0:0:60:bass.wav
320,192,60072,1,0,0:0:0:0:
192,192,60259,1,0,0:0:0:60:bass.wav
320,192,60447,1,0,0:0:0:60:clap.wav
448,192,60447,1,0,0:0:0:0:
192,192,60634,1,0,0:0:0:60:bass.wav
320,192,60822,128,0,61572:0:0:0:0:
448,192,60822,1,0,0:0:0:60:bass.wav
64,192,60822,1,0,0:0:0:0:
192,192,61009,1,0,0:0:0:60:bass.wav
448,192,61197,1,0,0:0:0:60:clap.wav
192,192,61197,1,0,0:0:0:0:
64,192,61384,1,0,0:0:0:60:bass.wav
64,192,61572,1,0,0:0:0:60:bass.wav
192,192,61759,1,0,0:0:0:60:bass.wav
448,192,61947,1,0,0:0:0:60:clap.wav
192,192,61947,1,0,0:0:0:0:
64,192,62134,1,0,0:0:0:60:bass.wav
320,192,62322,1,0,0:0:0:60:bass.wav
448,192,62322,1,0,0:0:0:0:
64,192,62322,128,0,63072:0:0:0:0:
192,192,62509,1,0,0:0:0:60:bass.wav
320,192,62697,1,0,0:0:0:60:clap.wav
448,192,62697,1,0,0:0:0:0:
192,192,62884,1,0,0:0:0:60:bass.wav
192,192,63072,1,0,0:0:0:60:bass.wav
448,192,63072,1,0,0:0:0:0:
320,192,63259,1,0,0:0:0:60:bass.wav
192,192,63447,1,0,0:0:0:60:clap.wav
64,192,63447,1,0,0:0:0:0:
192,192,63634,1,0,0:0:0:60:bass.wav
320,192,63728,1,0,0:0:0:60:bass.wav
192,192,63822,128,0,64572:0:0:0:0:
448,192,63822,1,0,0:0:0:60:bass.wav
64,192,63822,1,0,0:0:0:0:
320,192,64009,1,0,0:0:0:60:bass.wav
64,192,64197,1,0,0:0:0:60:clap.wav
448,192,64197,1,0,0:0:0:0:
320,192,64384,1,0,0:0:0:60:bass.wav
64,192,64572,1,0,0:0:0:60:bass.wav
448,192,64572,1,0,0:0:0:0:
192,192,64759,1,0,0:0:0:60:bass.wav
64,192,64947,1,0,0:0:0:60:clap.wav
448,192,64947,1,0,0:0:0:0:
320,192,65134,1,0,0:0:0:60:bass.wav
64,192,65322,1,0,0:0:0:0:
320,192,65322,128,0,66072:0:0:0:0:
192,192,65509,1,0,0:0:0:60:bass.wav
448,192,65697,1,0,0:0:0:60:clap.wav
64,192,65697,1,0,0:0:0:0:
448,192,65884,1,0,0:0:0:60:bass.wav
192,192,66072,1,0,0:0:0:60:bass.wav
64,192,66072,1,0,0:0:0:0:
448,192,66259,1,0,0:0:0:60:bass.wav
320,192,66447,1,0,0:0:0:60:clap.wav
448,192,66634,128,0,67572:0:0:0:0:
192,192,66634,1,0,0:0:0:60:bass.wav
64,192,66822,1,0,0:0:0:60:bass.wav
320,192,66822,1,0,0:0:0:0:
192,192,67009,1,0,0:0:0:60:bass.wav
64,192,67197,1,0,0:0:0:60:clap.wav
320,192,67197,1,0,0:0:0:0:
192,192,67384,1,0,0:0:0:60:bass.wav
64,192,67572,1,0,0:0:0:60:bass.wav
320,192,67572,1,0,0:0:0:0:
192,192,67759,1,0,0:0:0:60:bass.wav
320,192,67759,1,0,0:0:0:0:
64,192,67947,1,0,0:0:0:0:
320,192,67947,1,0,0:0:0:0:
448,192,68134,1,0,0:0:0:60:bass.wav
320,192,68134,1,0,0:0:0:0:
64,192,68322,128,4,68697:0:0:0:60:clap.wav
320,192,68322,128,0,68697:0:0:0:0:
192,192,68322,1,4,0:0:0:0:
448,192,68322,1,4,0:0:0:0:
64,192,68884,128,4,69072:0:0:0:0:
320,192,68884,128,4,69072:0:0:0:0:
448,192,68884,1,0,0:0:0:0:
64,192,69259,128,4,69822:0:0:0:60:bass.wav
320,192,69259,128,4,69822:0:0:0:0:
448,192,69259,1,4,0:0:0:0:
192,192,69447,1,0,0:0:0:60:clap.wav
448,192,69447,1,0,0:0:0:0:
192,192,69634,1,0,0:0:0:60:clap.wav
448,192,69728,1,0,0:0:0:60:clap.wav
192,192,69822,1,0,0:0:0:60:bass.wav
448,192,70009,1,0,0:0:0:60:bass.wav
320,192,70197,1,0,0:0:0:60:clap.wav
64,192,70197,1,0,0:0:0:0:
192,192,70384,1,0,0:0:0:60:bass.wav
448,192,70572,1,0,0:0:0:60:bass.wav
64,192,70572,1,0,0:0:0:0:
320,192,70759,1,0,0:0:0:60:bass.wav
64,192,70947,1,0,0:0:0:60:clap.wav
448,192,70947,1,0,0:0:0:0:
192,192,71134,1,0,0:0:0:60:bass.wav
320,192,71322,1,0,0:0:0:60:bass.wav
64,192,71322,1,0,0:0:0:0:
448,192,71322,1,0,0:0:0:0:
192,192,71509,1,0,0:0:0:60:bass.wav
448,192,71697,1,0,0:0:0:60:clap.wav
64,192,71697,1,0,0:0:0:0:
192,192,71884,1,0,0:0:0:60:bass.wav
64,192,72072,1,0,0:0:0:60:bass.wav
320,192,72072,1,0,0:0:0:0:
448,192,72072,1,0,0:0:0:0:
448,192,72259,1,0,0:0:0:60:bass.wav
320,192,72447,1,0,0:0:0:60:clap.wav
64,192,72447,1,0,0:0:0:0:
192,192,72634,1,0,0:0:0:60:bass.wav
320,192,72822,1,0,0:0:0:60:bass.wav
448,192,72822,1,0,0:0:0:0:
64,192,72822,1,0,0:0:0:0:
192,192,73009,1,0,0:0:0:60:bass.wav
64,192,73197,1,0,0:0:0:60:clap.wav
320,192,73197,1,0,0:0:0:0:
448,192,73384,1,0,0:0:0:60:bass.wav
64,192,73572,1,0,0:0:0:60:bass.wav
192,192,73572,1,0,0:0:0:0:
320,192,73759,1,0,0:0:0:60:bass.wav
64,192,73947,1,0,0:0:0:60:clap.wav
448,192,73947,1,0,0:0:0:0:
320,192,74134,1,0,0:0:0:60:bass.wav
64,192,74322,1,0,0:0:0:60:bass.wav
448,192,74322,1,0,0:0:0:0:
192,192,74322,1,0,0:0:0:0:
320,192,74509,1,0,0:0:0:60:bass.wav
192,192,74509,1,0,0:0:0:0:
192,192,74697,1,0,0:0:0:0:
64,192,74697,1,0,0:0:0:60:clap.wav
448,192,74884,1,0,0:0:0:30:bass.wav
320,192,74884,128,0,75259:0:0:0:0:
64,192,75072,1,0,0:0:0:60:bass.wav
192,192,75259,128,0,75634:0:0:0:60:bass.wav
64,192,75447,1,0,0:0:0:60:clap.wav
448,192,75447,1,0,0:0:0:0:
320,192,75540,1,0,0:0:0:0:
64,192,75634,1,0,0:0:0:0:
192,192,75822,1,0,0:0:0:60:bass.wav
448,192,75822,1,4,0:0:0:0:
64,192,75822,128,0,76197:0:0:0:0:
320,192,75822,128,0,76197:0:0:0:0:
448,192,76197,1,0,0:0:0:60:clap.wav
192,192,76384,128,0,76947:0:0:0:0:
448,192,76384,128,4,76947:0:0:0:0:
64,192,76947,1,0,0:0:0:60:clap.wav
64,192,77134,128,0,78822:0:0:0:60:bass.wav
320,192,77134,128,4,78822:0:0:0:0:
192,192,77509,1,0,0:0:0:60:bass.wav
448,192,77697,1,0,0:0:0:60:clap.wav
192,192,77884,1,0,0:0:0:60:bass.wav
448,192,78072,1,0,0:0:0:60:clap.wav
192,192,78259,1,0,0:0:0:40:hithat.wav
448,192,78447,1,0,0:0:0:40:hithat.wav
192,192,78634,1,0,0:0:0:40:hithat.wav
448,192,78728,1,0,0:0:0:40:hithat.wav
448,192,78822,1,0,0:0:0:60:bass.wav
192,192,78822,128,4,79384:0:0:0:0:
320,192,79197,128,0,79384:0:0:0:60:clap.wav
448,192,79197,1,0,0:0:0:0:
64,192,79384,128,0,79947:0:0:0:60:bass.wav
448,192,79384,128,4,79759:0:0:0:0:
320,192,79759,128,0,79947:0:0:0:60:bass.wav
192,192,79759,1,0,0:0:0:0:
192,192,79947,128,0,80134:0:0:0:60:clap.wav
448,192,79947,128,0,80134:0:0:0:0:
320,192,80134,128,4,81634:0:0:0:0:
64,192,80134,128,0,81634:0:0:0:0:
192,192,80884,1,0,0:0:0:40:clap.wav
448,192,80978,1,0,0:0:0:40:clap.wav
192,192,81072,1,0,0:0:0:40:clap.wav
448,192,81165,1,0,0:0:0:0:
192,192,81259,1,0,0:0:0:60:bass.wav
448,192,81447,1,0,0:0:0:60:bass.wav
448,192,81634,128,0,82947:0:0:0:40:clap.wav
192,192,81634,128,0,82947:0:0:0:0:
