osu file format v14

[General]
AudioFilename: Suzuki Konomi - Days of Dash.mp3
AudioLeadIn: 1500
PreviewTime: 57100
Countdown: 0
SampleSet: Normal
StackLeniency: 0.7
Mode: 1
LetterboxInBreaks: 0
WidescreenStoryboard: 0

[Editor]
Bookmarks: 3475,9100,14725,20350,26350,31975,37600,43225,48850,54850
DistanceSpacing: 0.5
BeatDivisor: 4
GridSize: 32
TimelineZoom: 1

[Metadata]
Title:DAYS of DASH (TV Size)
TitleUnicode:DAYS of DASH (TV Size)
Artist:Suzuki Konomi
ArtistUnicode:鈴木このみ
Creator:Kirino Kousaka
Version:Muzukashii
Source:さくら荘のペットな彼女
Tags:DakeDekaane Lolicakes ending Shiina Mashiro Aoyama Nanami Sakurasou no Pet na Kanojo momo yuki_momoiro722 anime japanese
BeatmapID:254488
BeatmapSetID:94580

[Difficulty]
HPDrainRate:5
CircleSize:4
OverallDifficulty:5
ApproachRate:5
SliderMultiplier:1.4
SliderTickRate:1

[Events]
//Background and Video events
0,0,"BG2.jpg",0,30
//Break Periods
//Storyboard Layer 0 (Background)
//Storyboard Layer 1 (Fail)
//Storyboard Layer 2 (Pass)
//Storyboard Layer 3 (Foreground)
//Storyboard Layer 4 (Overlay)
//Storyboard Sound Samples

[TimingPoints]
850,375,4,1,0,85,1,0
57850,-100,4,1,0,85,0,1
81850,-100,4,1,0,85,0,0

[Colours]
Combo1 : 0,0,255
Combo2 : 255,0,0

[HitObjects]
256,192,850,5,0,0:0:0:0:
256,192,1037,1,0,0:0:0:0:
256,192,1412,5,8,0:0:0:0:
256,192,1600,1,8,0:0:0:0:
256,192,1787,1,8,0:0:0:0:
256,192,1975,5,0,0:0:0:0:
256,192,2162,5,8,0:0:0:0:
256,192,2350,1,8,0:0:0:0:
256,192,3475,1,0,0:0:0:0:
256,192,3568,1,0,0:0:0:0:
256,192,3662,1,0,0:0:0:0:
256,192,3850,5,8,0:0:0:0:
256,192,4037,1,8,0:0:0:0:
256,192,4412,1,8,0:0:0:0:
256,192,4600,1,8,0:0:0:0:
256,192,4787,5,0,0:0:0:0:
256,192,4975,1,0,0:0:0:0:
256,192,5162,5,8,0:0:0:0:
256,192,5350,5,0,0:0:0:0:
256,192,5537,5,12,0:0:0:0:
256,192,6100,1,0,0:0:0:0:
256,192,6287,5,8,0:0:0:0:
256,192,6475,1,0,0:0:0:0:
256,192,6850,1,4,0:0:0:0:
256,192,7037,1,0,0:0:0:0:
256,192,7225,5,8,0:0:0:0:
256,192,7412,5,0,0:0:0:0:
256,192,7787,1,0,0:0:0:0:
256,192,7975,5,8,0:0:0:0:
256,192,8162,1,0,0:0:0:0:
256,192,8256,1,0,0:0:0:0:
256,192,8350,1,0,0:0:0:0:
256,192,8537,1,0,0:0:0:0:
256,192,8725,5,8,0:0:0:0:
256,192,8912,5,0,0:0:0:0:
256,192,9287,1,0,0:0:0:0:
256,192,9475,5,8,0:0:0:0:
256,192,9850,1,0,0:0:0:0:
256,192,10037,1,0,0:0:0:0:
256,192,10225,5,8,0:0:0:0:
256,192,10412,5,0,0:0:0:0:
256,192,10787,5,0,0:0:0:0:
256,192,11162,1,8,0:0:0:0:
256,192,11537,1,8,0:0:0:0:
256,192,12287,1,0,0:0:0:0:
256,192,12475,1,8,0:0:0:0:
256,192,12850,5,4,0:0:0:0:
256,192,13037,1,0,0:0:0:0:
256,192,13225,5,8,0:0:0:0:
256,192,13412,5,0,0:0:0:0:
256,192,13787,5,0,0:0:0:0:
256,192,13975,5,8,0:0:0:0:
256,192,14350,5,0,0:0:0:0:
256,192,14537,1,0,0:0:0:0:
256,192,14725,5,8,0:0:0:0:
256,192,14912,5,0,0:0:0:0:
256,192,15475,5,8,0:0:0:0:
256,192,15850,1,0,0:0:0:0:
256,192,16037,1,0,0:0:0:0:
256,192,16225,5,8,0:0:0:0:
256,192,16412,5,0,0:0:0:0:
256,192,16787,1,0,0:0:0:0:
256,192,16975,5,8,0:0:0:0:
256,192,17350,5,0,0:0:0:0:
256,192,17537,5,8,0:0:0:0:
256,192,17724,1,8,0:0:0:0:
256,192,17912,5,0,0:0:0:0:
256,192,18099,1,0,0:0:0:0:
256,192,18287,5,8,0:0:0:0:
256,192,18474,1,8,0:0:0:0:
256,192,18850,5,0,0:0:0:0:
256,192,19037,1,0,0:0:0:0:
256,192,19225,5,8,0:0:0:0:
256,192,19412,5,0,0:0:0:0:
256,192,19975,5,8,0:0:0:0:
256,192,20350,5,0,0:0:0:0:
256,192,20537,1,0,0:0:0:0:
256,192,20725,5,8,0:0:0:0:
256,192,20912,5,0,0:0:0:0:
256,192,21287,1,0,0:0:0:0:
256,192,21475,5,8,0:0:0:0:
256,192,21662,1,0,0:0:0:0:
256,192,21850,1,0,0:0:0:0:
256,192,22225,5,8,0:0:0:0:
256,192,22787,1,4,0:0:0:0:
256,192,22975,5,8,0:0:0:0:
256,192,23162,5,0,0:0:0:0:
256,192,23350,1,4,0:0:0:0:
256,192,23725,5,8,0:0:0:0:
256,192,23912,5,0,0:0:0:0:
256,192,24287,1,0,0:0:0:0:
256,192,24475,5,8,0:0:0:0:
256,192,24662,5,0,0:0:0:0:
256,192,24756,1,0,0:0:0:0:
256,192,24850,1,0,0:0:0:0:
256,192,25037,1,0,0:0:0:0:
256,192,25225,5,8,0:0:0:0:
256,192,25412,5,0,0:0:0:0:
256,192,25787,1,0,0:0:0:0:
256,192,25975,5,8,0:0:0:0:
256,192,26162,5,0,0:0:0:0:
256,192,26256,1,0,0:0:0:0:
256,192,26350,1,0,0:0:0:0:
256,192,26537,1,0,0:0:0:0:
256,192,26725,5,8,0:0:0:0:
256,192,26912,5,0,0:0:0:0:
256,192,27287,1,0,0:0:0:0:
256,192,27475,5,8,0:0:0:0:
256,192,27662,5,0,0:0:0:0:
256,192,27756,1,0,0:0:0:0:
256,192,27850,1,0,0:0:0:0:
256,192,28037,1,0,0:0:0:0:
256,192,28225,5,8,0:0:0:0:
256,192,28412,5,0,0:0:0:0:
256,192,28787,1,0,0:0:0:0:
256,192,28975,5,8,0:0:0:0:
256,192,29162,5,0,0:0:0:0:
256,192,29256,1,0,0:0:0:0:
256,192,29350,1,0,0:0:0:0:
256,192,29537,1,0,0:0:0:0:
256,192,29725,5,8,0:0:0:0:
256,192,29912,5,0,0:0:0:0:
256,192,30100,1,8,0:0:0:0:
256,192,30287,5,0,0:0:0:0:
256,192,30475,5,8,0:0:0:0:
256,192,30568,1,8,0:0:0:0:
256,192,30662,1,8,0:0:0:0:
256,192,30850,5,4,0:0:0:0:
256,192,31225,5,8,0:0:0:0:
256,192,31787,1,0,0:0:0:0:
256,192,31975,5,8,0:0:0:0:
256,192,32162,5,0,0:0:0:0:
256,192,32350,1,0,0:0:0:0:
256,192,32537,1,0,0:0:0:0:
256,192,32725,5,8,0:0:0:0:
256,192,32912,5,0,0:0:0:0:
256,192,33475,5,8,0:0:0:0:
256,192,33850,1,0,0:0:0:0:
256,192,34037,1,0,0:0:0:0:
256,192,34225,5,8,0:0:0:0:
256,192,34412,5,0,0:0:0:0:
256,192,34787,1,0,0:0:0:0:
256,192,34975,5,8,0:0:0:0:
256,192,35162,5,0,0:0:0:0:
256,192,35256,1,0,0:0:0:0:
256,192,35350,1,0,0:0:0:0:
256,192,35537,1,0,0:0:0:0:
256,192,35725,5,8,0:0:0:0:
256,192,35912,1,0,0:0:0:0:
256,192,36287,1,0,0:0:0:0:
256,192,36475,1,8,0:0:0:0:
256,192,36662,1,8,0:0:0:0:
256,192,36850,5,4,0:0:0:0:
256,192,37225,5,8,0:0:0:0:
256,192,37412,5,0,0:0:0:0:
256,192,37787,1,0,0:0:0:0:
256,192,37975,5,8,0:0:0:0:
256,192,38162,5,0,0:0:0:0:
256,192,38256,1,0,0:0:0:0:
256,192,38350,1,0,0:0:0:0:
256,192,38537,1,0,0:0:0:0:
256,192,38725,5,8,0:0:0:0:
256,192,38912,5,0,0:0:0:0:
256,192,39475,5,8,0:0:0:0:
256,192,39850,1,0,0:0:0:0:
256,192,40037,1,0,0:0:0:0:
256,192,40225,1,8,0:0:0:0:
256,192,40412,5,0,0:0:0:0:
256,192,40787,1,8,0:0:0:0:
256,192,41162,1,12,0:0:0:0:
256,192,41537,5,8,0:0:0:0:
256,192,41725,5,8,0:0:0:0:
256,192,41912,1,0,0:0:0:0:
256,192,42100,5,0,0:0:0:0:
256,192,42193,1,0,0:0:0:0:
256,192,42287,5,0,0:0:0:0:
256,192,42475,1,8,0:0:0:0:
256,192,42662,5,0,0:0:0:0:
256,192,42850,1,4,0:0:0:0:
256,192,43225,5,8,0:0:0:0:
256,192,43600,5,8,0:0:0:0:
256,192,43787,1,0,0:0:0:0:
256,192,43975,5,8,0:0:0:0:
256,192,44350,5,8,0:0:0:0:
256,192,44725,5,8,0:0:0:0:
256,192,45100,5,8,0:0:0:0:
256,192,45287,1,0,0:0:0:0:
256,192,45475,5,8,0:0:0:0:
256,192,45850,5,8,0:0:0:0:
256,192,46037,1,8,0:0:0:0:
256,192,46225,5,0,0:0:0:0:
256,192,46600,1,8,0:0:0:0:
256,192,46975,5,8,0:0:0:0:
256,192,47162,5,0,0:0:0:0:
256,192,47350,1,8,0:0:0:0:
256,192,47537,1,0,0:0:0:0:
256,192,47725,5,8,0:0:0:0:
256,192,48287,1,0,0:0:0:0:
256,192,48381,1,0,0:0:0:0:
256,192,48475,1,8,0:0:0:0:
256,192,48662,5,8,0:0:0:0:
256,192,48850,1,4,0:0:0:0:
256,192,49225,5,8,0:0:0:0:
256,192,49600,5,8,0:0:0:0:
256,192,49787,1,0,0:0:0:0:
256,192,49975,5,8,0:0:0:0:
256,192,50350,5,8,0:0:0:0:
256,192,50725,5,0,0:0:0:0:
256,192,51100,1,8,0:0:0:0:
256,192,51475,5,8,0:0:0:0:
256,192,51850,1,4,0:0:0:0:
256,192,52600,5,8,0:0:0:0:
256,192,53350,5,0,0:0:0:0:
256,192,54100,1,0,0:0:0:0:
256,192,54193,1,0,0:0:0:0:
256,192,54287,1,0,0:0:0:0:
256,192,54475,1,0,0:0:0:0:
256,192,54662,1,0,0:0:0:0:
256,192,54850,1,8,0:0:0:0:
256,192,55037,1,8,0:0:0:0:
256,192,55225,1,8,0:0:0:0:
256,192,55412,1,8,0:0:0:0:
256,192,55600,1,8,0:0:0:0:
256,192,55787,1,8,0:0:0:0:
256,192,55975,1,8,0:0:0:0:
256,192,56162,1,8,0:0:0:0:
256,192,56350,5,0,0:0:0:0:
256,192,56443,1,0,0:0:0:0:
256,192,56537,1,0,0:0:0:0:
256,192,56725,5,8,0:0:0:0:
256,192,57100,1,8,0:0:0:0:
256,192,57475,5,0,0:0:0:0:
256,192,57850,5,12,0:0:0:0:
256,192,58225,1,8,0:0:0:0:
256,192,58600,5,0,0:0:0:0:
256,192,58787,1,0,0:0:0:0:
256,192,58975,5,8,0:0:0:0:
256,192,59350,5,0,0:0:0:0:
256,192,59537,1,0,0:0:0:0:
256,192,59725,5,8,0:0:0:0:
256,192,59912,5,0,0:0:0:0:
256,192,60287,1,0,0:0:0:0:
256,192,60475,5,8,0:0:0:0:
256,192,60662,5,0,0:0:0:0:
256,192,60756,1,0,0:0:0:0:
256,192,60849,1,0,0:0:0:0:
256,192,61037,1,0,0:0:0:0:
256,192,61225,5,8,0:0:0:0:
256,192,61412,1,0,0:0:0:0:
256,192,61600,5,0,0:0:0:0:
256,192,61975,5,8,0:0:0:0:
256,192,62162,1,0,0:0:0:0:
256,192,62256,1,0,0:0:0:0:
256,192,62350,5,0,0:0:0:0:
256,192,62537,1,0,0:0:0:0:
256,192,62725,5,8,0:0:0:0:
256,192,62912,5,0,0:0:0:0:
256,192,63287,1,0,0:0:0:0:
256,192,63475,1,8,0:0:0:0:
256,192,63662,5,0,0:0:0:0:
256,192,63756,1,0,0:0:0:0:
256,192,63849,1,0,0:0:0:0:
256,192,64037,1,0,0:0:0:0:
256,192,64225,5,8,0:0:0:0:
256,192,64412,5,0,0:0:0:0:
256,192,64600,1,0,0:0:0:0:
256,192,64693,1,0,0:0:0:0:
256,192,64787,1,0,0:0:0:0:
256,192,64975,5,8,0:0:0:0:
256,192,65350,5,0,0:0:0:0:
256,192,65537,1,0,0:0:0:0:
256,192,65725,5,8,0:0:0:0:
256,192,65912,5,0,0:0:0:0:
256,192,66100,1,0,0:0:0:0:
256,192,66193,1,0,0:0:0:0:
256,192,66287,1,0,0:0:0:0:
256,192,66475,5,8,0:0:0:0:
256,192,66850,5,0,0:0:0:0:
256,192,67037,1,0,0:0:0:0:
256,192,67225,5,8,0:0:0:0:
256,192,67412,5,0,0:0:0:0:
256,192,67600,1,0,0:0:0:0:
256,192,67693,1,0,0:0:0:0:
256,192,67787,1,0,0:0:0:0:
256,192,67975,5,8,0:0:0:0:
256,192,68162,1,0,0:0:0:0:
256,192,68350,5,12,0:0:0:0:
256,192,68725,1,0,0:0:0:0:
256,192,68912,1,12,0:0:0:0:
256,192,69287,1,0,0:0:0:0:
256,192,69475,1,8,0:0:0:0:
256,192,69662,1,8,0:0:0:0:
256,192,69850,5,4,0:0:0:0:
256,192,70225,5,8,0:0:0:0:
256,192,70413,5,0,0:0:0:0:
256,192,70787,1,0,0:0:0:0:
256,192,70975,5,8,0:0:0:0:
256,192,71162,5,0,0:0:0:0:
256,192,71256,1,0,0:0:0:0:
256,192,71350,1,0,0:0:0:0:
256,192,71537,1,0,0:0:0:0:
256,192,71725,5,8,0:0:0:0:
256,192,71912,5,0,0:0:0:0:
256,192,72287,1,0,0:0:0:0:
256,192,72475,5,8,0:0:0:0:
256,192,72662,5,0,0:0:0:0:
256,192,72756,1,0,0:0:0:0:
256,192,72850,1,0,0:0:0:0:
256,192,73037,1,0,0:0:0:0:
256,192,73225,5,8,0:0:0:0:
256,192,73412,5,0,0:0:0:0:
256,192,73600,1,0,0:0:0:0:
256,192,73975,5,8,0:0:0:0:
256,192,74162,5,0,0:0:0:0:
256,192,74256,1,0,0:0:0:0:
256,192,74350,1,0,0:0:0:0:
256,192,74537,1,0,0:0:0:0:
256,192,74725,5,8,0:0:0:0:
256,192,74912,5,0,0:0:0:0:
256,192,75287,1,0,0:0:0:0:
256,192,75475,5,8,0:0:0:0:
256,192,75850,5,4,0:0:0:0:
256,192,76037,1,0,0:0:0:0:
256,192,76225,5,8,0:0:0:0:
256,192,76412,5,4,0:0:0:0:
256,192,76787,1,0,0:0:0:0:
256,192,76975,5,8,0:0:0:0:
256,192,77162,5,4,0:0:0:0:
256,192,77537,1,0,0:0:0:0:
256,192,77725,5,8,0:0:0:0:
256,192,77913,5,0,0:0:0:0:
256,192,78100,1,8,0:0:0:0:
256,192,78475,5,8,0:0:0:0:
256,192,78850,5,4,0:0:0:0:
256,192,79037,1,0,0:0:0:0:
256,192,79225,5,8,0:0:0:0:
256,192,79412,5,4,0:0:0:0:
256,192,79787,1,0,0:0:0:0:
256,192,79975,5,8,0:0:0:0:
256,192,80162,5,4,0:0:0:0:
256,192,80537,1,0,0:0:0:0:
256,192,80725,5,8,0:0:0:0:
256,192,80912,5,0,0:0:0:0:
256,192,81287,1,0,0:0:0:0:
256,192,81475,5,8,0:0:0:0:
256,192,81662,12,0,82975,0:0:0:0:
