osu file format v14

[General]
AudioFilename: Suzuki Konomi - Days of Dash.mp3
AudioLeadIn: 1500
PreviewTime: 57100
Countdown: 0
SampleSet: Normal
StackLeniency: 0.7
Mode: 1
LetterboxInBreaks: 0
WidescreenStoryboard: 0

[Editor]
DistanceSpacing: 0.1
BeatDivisor: 4
GridSize: 32
TimelineZoom: 1

[Metadata]
Title:DAYS of DASH (TV Size)
TitleUnicode:DAYS of DASH (TV Size)
Artist:Suzuki Konomi
ArtistUnicode:鈴木このみ
Creator:Kirino Kousaka
Version:Kantan
Source:さくら荘のペットな彼女
Tags:DakeDekaane Lolicakes ending Shiina Mashiro Aoyama Nanami Sakurasou no Pet na Kanojo momo yuki_momoiro722 anime japanese
BeatmapID:255678
BeatmapSetID:94580

[Difficulty]
HPDrainRate:4
CircleSize:4
OverallDifficulty:5
ApproachRate:5
SliderMultiplier:1.4
SliderTickRate:1

[Events]
//Background and Video events
0,0,"BG3.jpg",0,40
//Break Periods
//Storyboard Layer 0 (Background)
//Storyboard Layer 1 (Fail)
//Storyboard Layer 2 (Pass)
//Storyboard Layer 3 (Foreground)
//Storyboard Layer 4 (Overlay)
//Storyboard Sound Samples

[TimingPoints]
850,375,4,1,0,85,1,0
57850,-100,4,1,0,85,0,1
81850,-100,4,2,0,85,0,0

[Colours]
Combo1 : 0,0,255
Combo2 : 255,0,0

[HitObjects]
256,192,850,5,0,0:0:0:0:
256,192,2350,5,8,0:0:0:0:
256,192,3850,5,0,0:0:0:0:
256,192,4600,5,8,0:0:0:0:
256,192,5537,5,12,0:0:0:0:
256,192,6475,1,8,0:0:0:0:
256,192,6850,5,0,0:0:0:0:
256,192,7225,5,8,0:0:0:0:
256,192,7975,1,8,0:0:0:0:
256,192,8725,1,8,0:0:0:0:
256,192,9475,1,8,0:0:0:0:
256,192,9850,5,0,0:0:0:0:
256,192,10225,5,8,0:0:0:0:
256,192,10787,1,8,0:0:0:0:
256,192,11162,1,8,0:0:0:0:
256,192,11537,1,8,0:0:0:0:
256,192,12287,1,0,0:0:0:0:
256,192,12475,1,8,0:0:0:0:
256,192,12850,5,4,0:0:0:0:
256,192,13600,5,8,0:0:0:0:
256,192,14350,5,0,0:0:0:0:
256,192,15850,1,0,0:0:0:0:
256,192,16600,5,8,0:0:0:0:
256,192,17350,5,0,0:0:0:0:
256,192,18850,5,0,0:0:0:0:
256,192,19600,5,8,0:0:0:0:
256,192,20350,1,8,0:0:0:0:
256,192,21475,1,0,0:0:0:0:
256,192,22225,1,8,0:0:0:0:
256,192,22975,1,8,0:0:0:0:
256,192,23725,1,8,0:0:0:0:
256,192,24475,1,8,0:0:0:0:
256,192,24850,1,0,0:0:0:0:
256,192,25225,5,8,0:0:0:0:
256,192,25975,1,8,0:0:0:0:
256,192,26725,1,8,0:0:0:0:
256,192,27475,1,8,0:0:0:0:
256,192,27850,5,0,0:0:0:0:
256,192,28225,5,8,0:0:0:0:
256,192,28975,1,8,0:0:0:0:
256,192,29725,1,8,0:0:0:0:
256,192,30100,1,8,0:0:0:0:
256,192,30475,1,8,0:0:0:0:
256,192,30850,5,4,0:0:0:0:
256,192,31600,5,8,0:0:0:0:
256,192,32350,5,0,0:0:0:0:
256,192,33850,1,0,0:0:0:0:
256,192,34600,5,8,0:0:0:0:
256,192,35350,5,0,0:0:0:0:
256,192,36850,5,4,0:0:0:0:
256,192,37600,1,0,0:0:0:0:
256,192,38350,5,8,0:0:0:0:
256,192,39850,5,0,0:0:0:0:
256,192,40600,5,8,0:0:0:0:
256,192,41350,1,8,0:0:0:0:
256,192,41725,1,8,0:0:0:0:
256,192,42100,1,8,0:0:0:0:
256,192,42850,1,4,0:0:0:0:
256,192,43600,1,0,0:0:0:0:
256,192,44350,1,0,0:0:0:0:
256,192,44725,5,8,0:0:0:0:
256,192,45100,5,0,0:0:0:0:
256,192,45850,1,0,0:0:0:0:
256,192,46600,5,8,0:0:0:0:
256,192,47350,5,0,0:0:0:0:
256,192,48100,5,8,0:0:0:0:
256,192,48475,1,8,0:0:0:0:
256,192,48850,5,4,0:0:0:0:
256,192,49600,5,8,0:0:0:0:
256,192,50350,5,0,0:0:0:0:
256,192,51100,5,8,0:0:0:0:
256,192,51850,5,4,0:0:0:0:
256,192,52600,5,8,0:0:0:0:
256,192,53350,5,0,0:0:0:0:
256,192,54100,5,8,0:0:0:0:
256,192,54850,5,8,0:0:0:0:
256,192,55225,2,0,L|336:192,6,70
256,192,57100,5,8,0:0:0:0:
256,192,57475,5,0,0:0:0:0:
256,192,57850,5,12,0:0:0:0:
256,192,58225,1,8,0:0:0:0:
256,192,58975,1,8,0:0:0:0:
256,192,59725,1,8,0:0:0:0:
256,192,60475,5,8,0:0:0:0:
256,192,60850,5,0,0:0:0:0:
256,192,61225,5,8,0:0:0:0:
256,192,61975,1,8,0:0:0:0:
256,192,62725,1,8,0:0:0:0:
256,192,63475,1,8,0:0:0:0:
256,192,63850,5,0,0:0:0:0:
256,192,64225,5,8,0:0:0:0:
256,192,64975,1,8,0:0:0:0:
256,192,65725,1,8,0:0:0:0:
256,192,66475,1,8,0:0:0:0:
256,192,66850,6,0,L|352:192,4,70
256,192,68350,1,4,0:0:0:0:
256,192,68912,5,12,0:0:0:0:
256,192,69475,1,8,0:0:0:0:
256,192,69850,5,4,0:0:0:0:
256,192,70225,5,8,0:0:0:0:
256,192,70975,1,8,0:0:0:0:
256,192,71725,1,8,0:0:0:0:
256,192,72475,1,8,0:0:0:0:
256,192,72850,5,0,0:0:0:0:
256,192,73225,5,8,0:0:0:0:
256,192,73975,1,8,0:0:0:0:
256,192,74725,1,8,0:0:0:0:
256,192,75475,1,8,0:0:0:0:
256,192,75850,5,4,0:0:0:0:
256,192,76412,5,4,0:0:0:0:
256,192,77162,5,4,0:0:0:0:
256,192,78850,5,12,0:0:0:0:
256,192,79412,1,12,0:0:0:0:
256,192,80162,1,12,0:0:0:0:
256,192,80725,2,0,L|352:192,4,70
256,192,81850,12,0,82975,0:0:0:0:
