osu file format v11

[General]
AudioFilename: 01.DAYS of DASH.mp3
AudioLeadIn: 0
PreviewTime: 64499
Countdown: 0
SampleSet: Soft
StackLeniency: 0.7
Mode: 0
LetterboxInBreaks: 0

[Editor]
DistanceSpacing: 1.3
BeatDivisor: 4
GridSize: 4

[Metadata]
Title:DAYS of DASH
TitleUnicode:DAYS of DASH
Artist:Suzuki Konomi
ArtistUnicode:鈴木このみ
Creator:Rotte
Version:Normal
Source:Sakurasou no Pet na Kanojo
Tags:a3272509123 Flower Cuvelia ending
BeatmapID:203547
BeatmapSetID:66221

[Difficulty]
HPDrainRate:4
CircleSize:3
OverallDifficulty:4
ApproachRate:5
SliderMultiplier:1.2
SliderTickRate:1

[Events]
//Background and Video events
0,0,"BG.jpg"
//Break Periods
2,8637,19237
2,92637,94237
2,166136,170737
2,198940,209737
//Storyboard Layer 0 (Background)
//Storyboard Layer 1 (Fail)
//Storyboard Layer 2 (Pass)
//Storyboard Layer 3 (Foreground)
Sprite,Foreground,Centre,"SB\beatmap.png",320,240 M,0,17249,17437,225,302,230,302 F,0,17249,17437,0,1 M,0,17437,19687,230,302 M,0,20437,21937,230,302,-170,302
Sprite,Foreground,Centre,"SB\sakura.png",320,240 L,0,5 R,0,2437,9937,0,6.283185 F,0,2437,2812,0,1 M,0,2437,8437,70,160 S,0,8062,8249,1,0.1 S,0,8249,8437,0.1,1 M,0,18937,20437,70,160,-330,160
Sprite,Foreground,Centre,"SB\days of dash.png",320,240 M,0,14249,14437,225,162,230,162 F,0,14249,14437,0,1 M,0,14437,18937,230,162 M,0,18937,20437,230,162,-170,162
Sprite,Foreground,Centre,"SB\sakura.png",320,240 L,2440,5 R,0,2437,9937,0,6.283185 F,0,0,8437,0 F,0,8437,,1 M,0,8437,9937,70,160,70,195 M,0,19312,20812,70,195,-330,195
Sprite,Foreground,Centre,"SB\zuoci.png",320,240 M,0,14999,15187,225,197,230,197 F,0,14999,15187,0,1 M,0,15187,19312,230,197 M,0,19312,20812,230,197,-170,197
Sprite,Foreground,Centre,"SB\sakura.png",320,240 L,2440,5 R,0,2437,9937,0,6.283185 F,0,0,9937,0 F,0,9937,,1 M,0,9937,11437,70,195,70,230 M,0,19687,21187,70,230,-330,230
Sprite,Foreground,Centre,"SB\zuoqu.png",320,240 M,0,15749,15937,225,232,230,232 F,0,15749,15937,0,1 M,0,15937,19687,230,232 M,0,19687,21187,230,232,-170,232
Sprite,Foreground,Centre,"SB\sakura.png",320,240 L,2440,5 R,0,2437,9937,0,6.283185 F,0,0,11437,0 F,0,11437,,1 M,0,11437,12937,70,230,70,265 M,0,20062,21562,70,265,-330,265
Sprite,Foreground,Centre,"SB\ge.png",320,240 F,0,16499,16506,0 M,0,16499,16687,225,267,230,267 F,0,16506,16511,0 F,0,16511,16515,0 F,0,16515,16519,0 F,0,16519,16687,0,1 M,0,16687,19687,230,267 M,0,20062,21562,230,267,-170,267
Sprite,Foreground,Centre,"SB\sakura.png",320,240 L,2440,5 R,0,2437,9937,0,6.283185 F,0,0,12937,0 F,0,12937,,1 M,0,12937,14437,70,265,70,300 M,0,20437,21937,70,300,-330,300
Sprite,Foreground,Centre,"SB\white cover.png",320,240 M,0,0,374,139,73 M,0,374,2437,139,73 M,0,2437,8437,139,73 F,0,8437,9937,1,0
Sprite,Foreground,Centre,"Lyric\01.png",320,240 M,0,20249,20437,40,216,112,216 V,0,20249,20437,0.1,1,1,1 M,0,20437,23249,112,216,122,216 V,0,23062,23249,1,1,0.1,1
Sprite,Foreground,Centre,"Lyric\02.png",320,240 V,0,23249,23437,0.1,1,1,1 M,0,23249,26062,122,216,132,216 M,2,26343,26437,132,216,132,229 V,0,26343,26437,1,1,1,0.1 M,1,26437,26624,132,230,132,228 M,2,26624,26812,132,228,132,254
Sprite,Foreground,Centre,"Lyric\03.png",320,240 M,2,26249,26437,132,190,132,216 M,1,26437,26624,132,216,132,206 M,2,26624,26812,132,206,132,216 M,0,26812,28499,132,216 M,0,28499,28687,132,216,203,216 V,0,28499,28687,1,1,0.1,1
Sprite,Foreground,Centre,"Lyric\04.png",320,240 F,0,28687,,0 M,0,28687,28874,140,-20,140,160 M,0,28874,32062,140,160,140,170 F,0,29437,29624,1,0 S,0,29437,29624,1,2.54624
Sprite,Foreground,Centre,"Lyric\04.png",320,240 M,0,28687,28874,140,-20,140,160 M,0,28874,32062,140,160,140,170 M,1,32249,32437,140,170,140,160 F,0,32437,33187,1,0 M,0,32437,34687,140,160
Sprite,Foreground,Centre,"Lyric\05.png",320,240 M,0,29437,29624,-58,200,70,200 M,0,29624,32062,70,200,80,200 M,1,32249,32437,80,200,60,200 F,0,32437,33187,1,0 M,0,32437,34687,60,200
Sprite,Foreground,Centre,"Lyric\05.png",320,240 F,0,29437,,0 M,0,29437,29624,-58,200,70,200 M,0,29624,32062,70,200,80,200 F,0,30374,30562,1,0 S,0,30374,30562,1,1.89088
Sprite,Foreground,Centre,"Lyric\06.png",320,240 M,0,30187,30374,140,500,140,238 M,0,30374,32062,140,238,140,230 M,1,32249,32437,140,230,140,240 F,0,32437,33187,1,0 M,0,32437,34687,140,240
Sprite,Foreground,Centre,"Lyric\06.png",320,240 F,0,30187,,0 M,0,30187,30374,140,500,140,238 M,0,30374,32062,140,238,140,230 F,0,30937,31124,1,0 S,0,30937,31124,1,2.95584
Sprite,Foreground,Centre,"Lyric\07.png",320,240 M,0,31124,31312,660,200,212,200 M,0,31312,32062,212,200,205,200 M,1,32249,32437,205,200,225,200 F,0,32437,33187,1,0 M,0,32437,34687,225,200
Sprite,Foreground,Centre,"Lyric\07.png",320,240 F,0,31124,,0 M,0,31124,31312,660,200,212,200 M,0,31312,32062,212,200,205,200 F,0,31874,32062,1,0 S,0,31874,32062,1,1.89088
Sprite,Foreground,Centre,"Lyric\08.png",320,240 S,2,31874,32249,5,1 M,0,32062,32249,142,200 M,0,32249,34687,142,200 F,0,34499,34687,1,0
Sprite,Foreground,Centre,"Lyric\08.png",320,240 S,2,31874,32249,5,1 M,0,32062,32249,142,200 F,0,32249,32624,1,0 S,0,32249,32624,1,2.792
Sprite,Foreground,Centre,"Lyric\09.png",320,240 F,0,34874,35249,0,1 M,0,34874,38062,132,240,142,240 F,0,35249,37687,1 F,0,37687,38062,1,0
Sprite,Foreground,Centre,"Lyric\101.png",320,240 M,0,38249,38437,-58,309,111,308 M,0,38437,44419,111,308,121,308 M,0,44419,44812,111,308,-57,168 R,0,44419,44812,0,-7.843842
Sprite,Foreground,Centre,"Lyric\11.png",320,240 M,0,41249,41437,731,351,242,346 M,0,41437,44380,242,346,232,346 M,0,44380,44812,232,346,725,86 R,0,44380,44812,0,7.84384
Sprite,Foreground,Centre,"Lyric\12.png",320,240 M,0,44249,44437,167,497,167,319 M,0,44437,46687,167,319,167,309 F,0,46312,46687,1,0.4986666 S,0,46312,46687,1,2.202398
Sprite,Foreground,Centre,"Lyric\13.png",320,240 F,0,46499,46874,0,1 S,0,46499,46874,2.24928,1 M,0,46499,50062,167,279,167,269 F,0,46874,48749,1 F,0,48749,50062,1,0
Sprite,Foreground,Centre,"Lyric\14.png",320,240 M,0,50249,50437,-29,203,113,203 M,0,50437,53062,113,203 S,0,50999,51280,1.06144,1.364037 S,0,51280,51562,1.364037,1.139213 F,0,53062,53437,1,0
Sprite,Foreground,Centre,"Lyric\15.png",320,240 M,0,51749,51937,689,265,199,262 M,0,51937,53437,199,262 S,0,52499,52780,0.9488,1.1024 S,0,52780,53062,1.1024,0.9488 F,0,53062,53437,1,0
Sprite,Foreground,Centre,"Lyric\16.png",320,240 F,0,53812,,1 M,0,53812,56062,115,320,120,320 F,0,56062,,0
Sprite,Foreground,Centre,"Lyric\16 (1).png",320,240 F,0,53343,,1 S,0,53343,53437,4.82976,1 M,0,53343,53812,115,320 F,0,53812,,0 F,0,56062,,1 M,0,56062,56155,120,320,7,243
Sprite,Foreground,Centre,"Lyric\16 (2).png",320,240 F,0,53530,,1 S,0,53530,53624,4.82976,1 M,0,53530,53812,115,320 F,0,53812,,0 F,0,56062,,1 M,0,56062,56155,120,320,116,-9
Sprite,Foreground,Centre,"Lyric\16 (3).png",320,240 F,0,53718,,1 M,0,53718,53812,120,320 S,0,53718,53812,4.82976,1 F,0,53812,,0 F,0,56062,,1 M,0,56062,56155,120,320,366,-15
Sprite,Foreground,Centre,"Lyric\17.png",320,240 F,0,54749,,1 M,0,54749,56062,190,360,193,360 F,0,56062,,0
Sprite,Foreground,Centre,"Lyric\17 (1).png",320,240 F,0,54280,,1 S,0,54280,54374,4.82976,1 M,0,54280,54749,190,360 F,0,54749,,0 F,0,56062,,1 M,0,56062,56155,193,360,68,493
Sprite,Foreground,Centre,"Lyric\17 (2).png",320,240 F,0,54468,,1 S,0,54468,54562,4.82976,1 M,0,54468,54749,190,360 F,0,54749,,0 F,0,56062,,1 M,0,56062,56155,193,360,652,477
Sprite,Foreground,Centre,"Lyric\17 (3).png",320,240 F,0,54655,,1 M,0,54655,54749,190,360 S,0,54655,54749,4.82976,1 F,0,54749,,0 F,0,56062,,1 M,0,56062,56155,193,360,639,137
Sprite,Foreground,Centre,"Lyric\18.png",320,240 M,0,56437,57187,235,195,207,195 M,0,57187,57562,207,195,185,195 M,0,57562,58312,185,195,161,195 M,0,58312,58687,161,195,139,195 M,0,58687,59418,139,195,113,195 M,0,59418,59437,113,195,51,195 V,0,59418,59437,1,1,0.1,1 M,0,59718,59812,51,195,51,190 M,0,59812,59905,51,190,51,195 M,0,59905,60468,51,195 M,0,60468,60562,51,195,51,192 M,0,60562,60655,51,192,51,195 M,0,60655,60749,51,195,51,192 M,0,60749,60843,51,192,51,195 M,0,60843,60937,51,195 M,0,60937,61312,51,195 M,0,61312,61687,51,195 M,0,61687,62437,51,195 M,0,62437,62624,51,195 M,0,62624,62812,51,195,49,190 M,0,62812,62905,49,190,55,195 M,0,62905,62999,55,195,53,191 M,0,62999,63093,53,191,54,199 M,0,63093,63187,54,199,49,191 M,0,63187,63280,49,191,53,198 M,0,63280,63374,53,198,51,192 M,0,63374,63468,51,192,51,198 M,0,63468,63562,51,198,54,191 M,0,63562,63655,54,191,48,192 M,0,63655,63749,48,192,53,198 M,0,63749,63843,53,198,48,195 M,0,63843,63937,48,195,52,193 M,0,63937,64030,52,193,48,196 M,0,64030,64124,48,196,53,192 M,0,64124,64218,53,192,49,193 M,0,64218,64312,49,193,58,200 V,0,64312,64405,0.1,1,1,1 M,0,64312,64499,58,200,-63,149 R,0,64312,64499,0,-2.43712
Sprite,Foreground,Centre,"SB\white.png",320,240 M,0,56437,59437,235,195
Sprite,Foreground,Centre,"Lyric\19.png",320,240 M,0,59343,59437,694,195,115,195 M,0,59437,59718,115,195 M,0,59718,59812,115,195 M,0,59812,59905,115,195 M,0,59905,64312,115,195 M,0,64312,64499,115,195,707,104 R,0,64312,64499,0,5.89824
Sprite,Foreground,Centre,"Lyric\201.png",320,240 M,0,64499,64687,184,-17,184,210 M,0,64687,65362,184,210 M,0,65362,65812,184,210,693,139 R,0,65362,65812,0,-3.01056
Sprite,Foreground,Centre,"Lyric\21.png",320,240 M,0,64874,65062,184,495,184,248 M,0,65062,65379,184,248 M,0,65379,65812,184,248,668,314 R,0,65379,65812,0,2.06848
Sprite,Foreground,Centre,"Lyric\22.png",320,240 S,0,65249,,1 M,0,65249,65812,-89,223,717,223
Sprite,Foreground,Centre,"Lyric\23.png",320,240 M,1,65812,65999,-84,270,150,270 V,0,65812,66093,1,0.1,1,1 M,0,65999,66093,150,270,145,270 M,0,66093,68437,145,270,155,270 M,0,68437,68624,155,270 M,2,68624,68999,155,270,730,270
Sprite,Foreground,Centre,"Lyric\24.png",320,240 M,1,68812,68999,-84,300,180,300 V,0,68812,69093,1,0.1,1,1 M,0,68999,69093,180,300,175,300 M,0,69093,71437,175,300,185,300 M,0,71437,71530,185,300,180,300 M,0,71530,71624,180,300,185,300 M,2,71624,71999,185,300,730,300
Sprite,Foreground,Centre,"Lyric\25.png",320,240 M,0,71812,72562,120,300,120,326 F,0,71812,72562,0,1 M,0,74437,75187,120,326,120,300 F,0,74437,75187,1,0
Sprite,Foreground,Centre,"SB\white234.png",320,240 M,0,71812,75187,120,300
Sprite,Foreground,Centre,"Lyric\26 (1).png",320,240 M,0,75280,75374,110,170 S,0,75280,75374,2.21856,1 M,0,75374,77062,110,170 M,0,77062,77155,110,170,56,125
Sprite,Foreground,Centre,"Lyric\26 (2).png",320,240 M,0,75468,75562,110,170 S,0,75468,75562,2.21856,1 M,0,75562,77062,110,170 M,0,77062,77155,110,170,216,-14
Sprite,Foreground,Centre,"Lyric\26 (3).png",320,240 M,0,75655,75749,110,170 S,0,75655,75749,2.21856,1 M,0,75749,77062,110,170 M,0,77062,77155,110,170,425,-15
Sprite,Foreground,Centre,"Lyric\26 (4).png",320,240 R,0,75843,,0 M,0,75843,75937,142,193 S,0,75843,75937,2.21856,1 M,0,75937,77062,142,193 M,0,77062,77155,142,193,527,497
Sprite,Foreground,Centre,"Lyric\26 (5).png",320,240 R,0,76405,,0 M,0,76405,76499,137,208 S,0,76405,76499,2.21856,1 M,0,76499,77062,137,208 M,0,77062,77155,137,208,-82,388
Sprite,Foreground,Centre,"Lyric\27.png",320,240 S,0,77249,77343,2.024,1.11264 S,0,77343,77437,1.11264,0.5699203 S,0,77437,77530,0.5699203,1.34816 M,0,77437,77624,132,295 S,0,77530,77624,1.34816,1.14336 M,0,77624,80812,132,295,132,285 S,0,80530,80624,1.14336,0.7849597 S,0,80624,80718,0.7849597,1.14336 S,0,80718,80812,1.14336,2.5872
Sprite,Foreground,Centre,"Lyric\28.png",320,240 M,0,80812,80999,163,166,163,184 F,0,80812,80999,0,1 M,0,80999,84749,163,184,173,184 M,0,84749,84843,173,184,168,184 M,2,84843,84937,168,184,600,184
Sprite,Foreground,Centre,"Lyric\29.png",320,240 M,0,82312,82405,600,232,220,232 M,0,82405,84749,220,232,210,232 M,0,84749,84843,210,232,215,232 M,1,84843,84937,215,232,-20,232
Sprite,Foreground,Centre,"Lyric\301.png",320,240 F,0,84937,85687,0,1 M,0,84937,87937,131,287,141,287 F,0,87187,87937,1,0
Sprite,Foreground,Centre,"Lyric\31.png",320,240 M,0,87937,92437,128,332,138,332 F,0,92062,92437,1,0
Sprite,Foreground,Centre,"SB\white234.png",320,240 V,0,87937,88312,1,1,0,0 M,0,87937,92437,128,332,138,332 F,0,92062,92437,1,0
Sprite,Foreground,Centre,"Lyric\32.png",320,240 M,0,95249,95437,-65,190,85,190 M,0,95437,101062,85,190,81,190 M,0,101062,101249,81,190,85,-14
Sprite,Foreground,Centre,"Lyric\33.png",320,240 M,0,98249,98437,752,246,226,246 M,0,98437,101062,226,246,235,246 M,0,101062,101249,235,246,240,494
Sprite,Foreground,Centre,"Lyric\34.png",320,240 M,0,101249,101437,141,492,141,287 M,0,101437,103687,141,287,141,292 M,0,103687,103874,141,292,201,292 V,0,103687,103874,1,1,0.1,1
Sprite,Foreground,Centre,"Lyric\35.png",320,240 M,0,103687,103874,14,176,74,176 V,0,103687,103874,0.1,1,1,1 M,0,103874,108187,74,176,83,176 M,0,108187,108562,83,176,460,-20 R,0,108187,108562,0,3.072
Sprite,Foreground,Centre,"Lyric\36.png",320,240 M,0,105187,105374,193,221,145,221 V,0,105187,105374,0.1,1,1,1 M,0,105374,108374,145,221,134,221 M,0,108374,108749,134,221,553,-14 R,0,108374,108749,0,2.1504
Sprite,Foreground,Centre,"Lyric\37.png",320,240 M,0,106124,106312,154,266,227,266 V,0,106124,106312,0.1,1,1,1 M,0,106312,108562,227,266,234,266 M,0,108562,108937,234,266,714,29 R,0,108562,108937,0,1.024
Sprite,Foreground,Centre,"SB\sakura.png",320,240 M,0,108093,108187,-18,230,22,194 M,0,108187,108468,22,194,6,-18
Sprite,Foreground,Centre,"SB\sakura.png",320,240 M,0,108468,108562,-16,397,161,283 M,0,108562,108937,161,283,407,-17
Sprite,Foreground,Centre,"SB\sakura.png",320,240 M,0,108280,108374,-18,310,81,241 M,0,108374,108749,81,241,236,-18
Sprite,Foreground,Centre,"Lyric\38.png",320,240 M,0,108749,108937,116,276 S,0,108749,108937,0.1,1 R,0,108749,108937,-6.656,0 M,0,108937,111562,116,276,126,276 V,0,111562,111749,1,1,0,1
Sprite,Foreground,Centre,"Lyric\39.png",320,240 M,0,111749,111937,126,276 V,0,111749,111937,0,1,1,1 M,0,111937,114562,126,276,136,276 F,0,114187,114562,1,0
Sprite,Foreground,Centre,"Lyric\401.png",320,240 M,0,114562,,160,192 F,0,114562,114937,0,1 S,0,114562,114937,2.06496,1 F,0,114937,115687,1,0 S,0,114937,115687,1,2.296302
Sprite,Foreground,Centre,"Lyric\401.png",320,240 M,0,114937,117187,160,192 M,0,117187,117280,160,192,160,-13
Sprite,Foreground,Centre,"Lyric\41.png",320,240 F,0,117187,117937,0,1 M,0,117187,120562,154,288,154,262 F,0,119249,120562,1,0
Sprite,Foreground,Centre,"Lyric\42.png",320,240 M,0,120749,120937,-29,235,103,235 M,0,120937,123562,103,235 S,0,121499,121687,1,1.4 S,0,121687,121874,1.4,1 F,0,123562,123937,1,0
Sprite,Foreground,Centre,"Lyric\43.png",320,240 M,0,122249,122437,689,195,199,195 M,0,122437,123562,199,195 S,0,122999,123187,1,1.4 S,0,123187,123374,1.4,1 F,0,123562,123937,1,0
Sprite,Foreground,Centre,"Lyric\44.png",320,240 R,0,123749,,0 S,0,123749,123937,2,0.8 M,0,123843,123937,132,290 S,0,123937,124124,0.7,1 M,0,123937,125437,132,290 M,1,125437,126843,132,290,165,310 S,0,125437,126843,1,0 R,0,125437,126843,-0.3,0
Sprite,Foreground,Centre,"Lyric\45.png",320,240 R,0,124687,,0 S,0,124687,124780,2,0.8 M,0,124780,124874,200,315 S,0,124780,124968,0.7,1 M,0,124874,125437,200,315 M,1,125437,126843,200,315,165,310 S,0,125437,126843,1,0 R,0,125437,126843,0.4,0
Sprite,Foreground,Centre,"Lyric\46.png",320,240 M,0,126843,126937,165,310,165,250 S,0,126843,126937,0,1 M,0,126937,129562,165,250,165,252 V,0,129562,129749,1,1,0,1
Sprite,Foreground,Centre,"Lyric\47.png",320,240 V,0,129749,129937,0,1,1,1 M,0,129937,134812,165,252,165,254
Sprite,Foreground,Centre,"Lyric\47 (1).png",320,240 M,0,134812,134905,165,254,39,309
Sprite,Foreground,Centre,"Lyric\47 (2).png",320,240 M,0,134812,134905,165,254,22,477
Sprite,Foreground,Centre,"Lyric\47 (3).png",320,240 M,0,134812,134905,165,254,249,494
Sprite,Foreground,Centre,"Lyric\47 (4).png",320,240 M,0,134812,134905,165,254,414,494
Sprite,Foreground,Centre,"Lyric\47 (5).png",320,240 M,0,134812,134905,165,254,622,484
Sprite,Foreground,Centre,"Lyric\47 (6).png",320,240 M,0,134812,134905,165,254,600,291
Sprite,Foreground,Centre,"Lyric\48.png",320,240 M,0,135093,136312,85,185
Sprite,Foreground,Centre,"Lyric\49.png",320,240 M,0,135468,136312,182,185
Sprite,Foreground,Centre,"Lyric\48.png",320,240 M,0,135843,136312,279,185
Sprite,Foreground,Centre,"Lyric\501.png",320,240 M,0,136312,136499,123,312 S,0,136312,136499,0.1,1 R,0,136312,136499,-12.57472,-6.286721 M,0,136499,139030,123,312,133,312 M,0,139030,139124,133,312,128,312 M,2,139124,139499,128,312,800,312
Sprite,Foreground,Centre,"Lyric\51.png",320,240 M,0,139312,139499,653,445,201,367 S,0,139312,139499,0.1,1 M,0,139499,142030,201,367,211,367 M,0,142030,142124,211,367,216,367 M,0,142124,142312,216,367,-60,367
Sprite,Foreground,Centre,"Lyric\52.png",320,240 M,0,142312,142499,456,75,143,231 S,0,142312,142499,0,1 M,0,142499,145687,141,231,151,231 F,0,145312,145687,1,0
Sprite,Foreground,Centre,"Lyric\53.png",320,240 M,0,145687,145874,414,85,141,173 S,0,145687,145874,0,1 M,0,145874,147937,143,173,153,173 S,0,147562,147937,1,0.1 R,0,147562,147937,0,12.55424
Sprite,Foreground,Centre,"SB\sakura.png",320,240 M,0,141937,,588,236 F,0,141937,,1 S,0,141937,,1 MX,1,141937,147562,591,80 MY,2,141937,147562,236,400 R,0,141937,147937,0,6.283185 M,0,147562,,77,400 S,0,147562,147749,0.54944,0 F,0,147749,,0
Sprite,Foreground,Centre,"SB\sakura1.png",320,240 L,0,5 R,0,141937,147937,0,6.283185 L,222940,5 R,0,0,5997,0,6.283185 F,0,141937,,0 S,0,147749,147937,0,1 F,0,147843,,1 S,0,147843,147937,0,1 M,0,147937,,80,400 R,0,147937,,13 F,0,165187,165937,1,0 F,0,222937,223312,0,1 F,0,248062,248437,1,0.0323201
Sprite,Foreground,Centre,"Lyric\54.png",320,240 S,0,147749,147937,2.44384,1 M,0,147937,149624,147,194,152,194 M,0,149624,149812,152,194,147,194 M,0,149812,149999,147,194,721,194
Sprite,Foreground,Centre,"Lyric\55.png",320,240 M,0,149812,149999,-87,210,171,230 M,0,149999,152624,171,230,164,230 M,0,152624,152812,164,230,181,493
Sprite,Foreground,Centre,"Lyric\56.png",320,240 F,0,152812,153562,0,1 M,0,152812,155437,139,252,144,252 F,0,154687,155437,1,0
Sprite,Foreground,Centre,"Lyric\57.png",320,240 F,0,155437,156562,0,1 M,0,155437,158437,82,280,91,284 F,0,156562,157312,1 F,0,157312,158437,1,0
Sprite,Foreground,Centre,"Lyric\58.png",320,240 M,0,158437,158624,162,492,162,328 M,0,158624,161999,162,328,162,332 M,0,161999,162187,162,332,162,337 M,0,162187,162374,162,337,165,-16
Sprite,Foreground,Centre,"Lyric\59.png",320,240 F,0,162187,162937,0,1 M,0,162187,165937,217,386,242,386 F,0,165187,165937,1,0
Sprite,Foreground,Centre,"Lyric\14.png",320,240 S,0,183749,183937,2.1776,1 M,0,183937,185437,68,307 S,0,184499,184687,1,1.3584 S,0,184687,184874,1.3584,1 F,0,185062,185437,1,0
Sprite,Foreground,Centre,"Lyric\15.png",320,240 S,0,185249,185437,2.05472,1 M,0,185437,186562,172,344 S,0,185999,186187,1,1.33792 S,0,186187,186374,1.33792,1 F,0,186562,186937,1,0
Sprite,Foreground,Centre,"Lyric\16 (1).png",320,240 M,0,186749,186937,-48,374,105,405 M,0,186937,187687,105,405
Sprite,Foreground,Centre,"Lyric\16 (2).png",320,240 M,0,186937,187124,105,498,104,405 M,0,187124,187874,104,405
Sprite,Foreground,Centre,"Lyric\16 (3).png",320,240 M,0,187124,187312,364,496,104,405 M,0,187312,188062,104,405
Sprite,Foreground,Centre,"Lyric\17 (1).png",320,240 M,0,187687,187874,-39,214,218,439 M,0,187874,189562,218,439 F,0,189187,189562,1,0
Sprite,Foreground,Centre,"Lyric\17 (2).png",320,240 M,0,187874,188062,303,-12,218,439 M,0,188062,189562,218,439 F,0,189187,189562,1,0
Sprite,Foreground,Centre,"Lyric\17 (3).png",320,240 M,0,188062,188249,665,258,218,439 M,0,188249,189562,218,439 F,0,189187,189562,1,0
Sprite,Foreground,Centre,"Lyric\18.png",320,240 F,0,189468,,1 M,1,189468,189843,-67,266,120,266 M,0,189937,192374,120,266,128,266 M,0,192374,192562,128,266,125,266 M,2,192562,192937,125,266,701,266
Sprite,Foreground,Centre,"Lyric\19.png",320,240 M,0,192749,192937,712,216,222,216 M,0,192937,197812,222,216,212,216 M,0,197812,197999,212,216,260,-13
Sprite,Foreground,Centre,"Lyric\201 un.png",320,240 M,0,197999,198187,-68,198,95,198 M,0,198187,198937,95,198 M,0,198937,200437,95,198,895,198
Sprite,Foreground,Centre,"Lyric\21 un.png",320,240 M,0,198187,198562,-93,198,196,198 M,0,198562,198937,196,198 M,0,198937,200062,196,198,796,198
Sprite,Foreground,Centre,"Lyric\22 un.png",320,240 M,0,198562,198937,-61,198,297,198 M,0,198937,199687,297,198,697,198
Sprite,Foreground,Centre,"Lyric\23 un.png",320,240 M,0,199312,199499,155,-17,155,224 M,0,199499,205312,155,224,150,224 M,0,205312,205499,150,224,-86,224
Sprite,Foreground,Centre,"Lyric\24 un.png",320,240 M,0,202312,202499,715,267,224,267 M,0,202499,205312,224,267,232,267 M,0,205312,205499,232,267,235,494
Sprite,Foreground,Centre,"Lyric\25 un.png",320,240 M,0,205312,205499,471,371,146,371 M,0,205499,208687,146,371,153,371 F,0,208312,208687,1,0
Sprite,Foreground,Centre,"Lyric\26 un.png",320,240 F,0,208687,209062,0,1 M,0,208687,210562,156,184,156,193 F,0,210187,210562,1,0
Sprite,Foreground,Centre,"Lyric\27 un.png",320,240 L,0,5 S,0,210937,211124,1 S,0,211124,211312,1,1.06 S,0,211312,211499,1.06,1 S,0,211499,211687,1 F,0,210749,211124,0,1 M,0,210749,214312,125,247,140,247 M,0,214312,214499,140,247,748,247
Sprite,Foreground,Centre,"Lyric\601.png",320,240 L,3750,4 S,0,210937,211124,1 S,0,211124,211312,1,1.06 S,0,211312,211499,1.06,1 S,0,211499,211687,1 M,0,214312,214499,121,493,121,272 M,0,214499,217312,121,272,121,279 M,0,217312,217499,121,279,-109,279
Sprite,Foreground,Centre,"Lyric\61.png",320,240 L,6750,5 S,0,210937,211124,1 S,0,211124,211312,1,1.06 S,0,211312,211499,1.06,1 S,0,211499,211687,1 M,0,217312,217499,168,168 S,0,217312,217499,0.1,1 R,0,217312,217499,-4.75136,0 M,0,217499,221062,168,168,168,174 M,0,221062,221249,168,174,-135,174
Sprite,Foreground,Centre,"Lyric\62.png",320,240 M,0,221249,221437,-66,262,87,260 M,0,221437,222562,87,260 M,0,222562,222749,87,260,-49,163
Sprite,Foreground,Centre,"Lyric\63.png",320,240 M,0,221624,221720,208,-14,200,263 M,0,221720,222562,200,263,200,262 M,0,222562,222749,200,262,397,-17
Sprite,Foreground,Centre,"Lyric\64.png",320,240 S,0,221812,221999,2.8944,1 M,0,221812,222562,139,315 V,0,222562,222749,1,1,0,1
Sprite,Foreground,Centre,"Lyric\65.png",320,240 R,0,222749,,0 M,0,222749,222937,92,189 S,0,222749,222937,1.764587,1 M,0,222937,226312,92,189 M,0,226312,226499,92,189,-22,1
Sprite,Foreground,Centre,"Lyric\501.png",320,240 M,0,223312,223499,248,-14,244,224 M,0,223499,226312,244,224,226,224 M,0,226312,226499,226,224,-95,224
Sprite,Foreground,Centre,"Lyric\51.png",320,240 M,0,226312,226499,163,493,163,249 M,0,226499,229312,163,249,163,254 S,0,228937,229312,1,0.1 R,0,228937,229312,0,9.44128
Sprite,Foreground,Centre,"Lyric\52.png",320,240 F,0,229312,229687,0,1 M,0,229312,232687,139,175,145,175 F,0,232312,232687,1,0
Sprite,Foreground,Centre,"Lyric\66 (1).png",320,240 M,0,232874,233566,128,172 M,0,233566,234562,128,172 M,0,234562,234655,128,172,49,77
Sprite,Foreground,Centre,"Lyric\66 (2).png",320,240 M,0,233062,234562,128,172 M,0,234562,234655,128,172,122,-15
Sprite,Foreground,Centre,"Lyric\66 (3).png",320,240 M,0,233249,234562,128,172 M,0,234562,234655,128,172,203,-14
Sprite,Foreground,Centre,"Lyric\66 (4).png",320,240 M,0,233249,233437,-48,203,141,199 M,0,233437,234562,141,199,143,199 M,0,234562,234749,143,199,659,199
Sprite,Foreground,Centre,"Lyric\66 (5).png",320,240 M,0,233812,233999,612,228,172,226 M,0,233999,234562,172,226,169,226 M,0,234562,234749,169,226,-90,226
Sprite,Foreground,Centre,"Lyric\54.png",320,240 M,0,234937,236812,136,310,141,310 M,0,236812,239812,141,310 M,0,239812,239999,141,310,-79,301
Sprite,Foreground,Centre,"SB\white146.png",320,240 S,0,234937,235687,1,0 M,0,234937,236812,136,310,141,310
Sprite,Foreground,Centre,"Lyric\55.png",320,240 M,0,236812,236999,725,271,218,271 M,0,236999,239812,218,271,213,271 M,0,239812,239999,213,271,747,271
Sprite,Foreground,Centre,"Lyric\56.png",320,240 M,0,239812,239999,186,-13,186,180 M,0,239999,242437,186,180 M,0,242437,242624,186,180,-76,180
Sprite,Foreground,Centre,"Lyric\301.png",320,240 F,0,242624,242999,0,1 M,0,242624,248437,76,324,91,324 F,0,248062,248437,1,0
Sprite,Foreground,Centre,"Lyric\31.png",320,240 F,0,245624,245999,0,1 M,0,245624,248437,206,371,192,371 F,0,248062,248437,1,0
//Storyboard Sound Samples
//Background Colour Transformations
3,100,255,157,255

[TimingPoints]
937,375,4,2,2,40,1,0
6937,-100,4,2,1,50,0,0
20437,-100,4,1,1,60,0,0
31874,-100,4,1,1,60,0,0
65437,-100,4,1,1,80,0,1
77343,-100,4,2,1,60,0,0
77437,-100,4,1,1,70,0,1
89437,-100,4,2,1,60,0,0
89812,-100,4,2,1,50,0,0
90562,-100,4,2,1,40,0,0
91312,-100,4,2,1,30,0,0
92062,-100,4,2,1,20,0,0
95437,-100,4,2,2,70,0,0
101437,-100,4,2,2,80,0,0
126937,-100,4,2,1,80,0,0
129937,-100,4,2,1,60,0,0
132937,-100,4,2,1,70,0,0
135187,-100,4,2,1,80,0,0
135937,-100,4,1,1,80,0,1
147843,-100,4,2,1,60,0,0
147937,-100,4,1,1,80,0,1
165937,-100,4,1,1,70,0,0
171937,-100,4,1,1,60,0,0
172687,-100,4,2,1,50,0,0
173062,-100,4,1,1,50,0,0
183937,-100,4,1,1,60,0,0
189937,-100,4,2,1,70,0,0
194437,-100,4,2,1,60,0,0
198937,-100,4,2,1,50,0,1
199030,-100,4,2,2,60,0,0
219187,-100,4,1,1,60,0,0
222937,-100,4,1,1,70,0,1
234843,-100,4,1,1,60,0,0
234937,-100,4,1,1,80,0,1
246937,-100,4,1,1,70,0,0
247312,-100,4,2,1,50,0,0
247687,-100,4,2,1,30,0,0
248062,-100,4,2,1,15,0,0
248437,-100,4,2,1,5,0,0

[Colours]
Combo1 : 0,128,255
Combo2 : 255,128,0
Combo3 : 255,128,128
Combo4 : 189,0,95

[HitObjects]
328,208,2437,2,0,P|304:264,1,60,2|2,0:0|0:0,0:0:0
152,300,2999,2,0,P|124:352,2,60,2|0|2,0:0|0:0|0:0,0:0:0
132,224,3562,2,0,P|192:232|228:276,1,120,2|2,0:0|0:0,0:0:0
384,268,4312,2,0,P|440:284|500:276,2,120,0|0|2,0:0|0:0|0:0,0:0:0
228,260,5437,6,0,P|176:292,1,60,2|2,0:0|0:0,0:0:0
136,140,5999,2,0,P|84:172,2,60
208,108,6562,2,0,P|264:96|324:108,1,120,2|0,0:0|0:0,0:0:0
400,132,7124,1,12,0:0:0
308,260,7499,6,0,P|256:280|197:260,1,120,0|0,0:0|0:0,0:0:0
224,188,8062,2,0,P|284:188,2,60,8|0|4,0:0|0:0|0:0,0:0:0
228,92,20437,6,0,P|208:152|168:192,1,120,4|0,1:0|0:0,0:0:0
104,236,20999,1,8,0:0:0
220,340,21374,1,0,0:0:0
376,344,21749,6,0,P|436:360|496:360,2,120
308,380,22687,2,0,P|296:352|304:320,1,60,0|0,0:0|0:0,0:0:0
356,268,23062,1,8,0:0:0
480,172,23437,6,0,P|444:136|376:112,1,120,0|8,0:0|0:0,0:0:0
300,116,23999,1,0,0:0:0
152,160,24374,2,0,P|104:200,2,60,0|8|0,0:0|0:0|0:0,0:0:0
232,168,24937,6,0,P|280:200|340:192,2,120,0|8|0,0:0|0:0|0:0,0:0:0
200,96,25874,2,0,P|248:60,1,60,0|8,0:0|0:0,0:0:0
404,44,26437,6,0,P|436:96|452:152,1,120,0|8,0:0|0:0,0:0:0
464,228,26999,1,0,0:0:0
348,332,27374,1,0,0:0:0
292,276,27562,2,0,P|344:252|404:276,2,120,8|0|0,0:0|0:0|0:0,0:0:0
220,312,28499,1,8,0:0:0
80,248,28874,6,0,P|120:292,1,60,0|8,0:0|0:0,0:0:0
96,136,29437,2,0,P|44:104,1,60,4|0,2:0|0:0,0:0:0
100,48,29812,2,0,P|151:79,1,60,8|0,0:0|0:0,0:0:0
172,156,30187,6,0,P|220:204|272:224,1,120,0|8,0:0|0:0,0:0:0
344,236,30749,1,0,0:0:0
416,208,30937,2,0,P|476:104,1,120,4|0,2:0|0:0,0:0:0
508,32,31499,1,8,0:0:0
356,56,31874,2,0,P|300:80,1,60,0|8,0:0|0:0,0:0:0
156,140,32437,6,0,P|196:184,1,60,4|0,0:0|0:0,0:0:0
274,187,32812,2,0,P|251:239|194:262,2,120,8|0|8,0:0|0:0|0:0,0:0:0
410,111,33937,2,0,P|458:155|458:219|458:219|426:223|402:247,1,180
318,371,34874,2,0,P|260:359,1,60,0|8,0:0|0:0,0:0:0
108,316,35437,6,0,P|68:276|68:276|48:248|44:216,1,120,0|8,0:0|0:0,0:0:0
184,284,36187,2,0,P|228:328,2,60,0|0|8,0:0|0:0|0:0,0:0:0
108,148,36937,6,0,P|120:208,1,60
196,192,37312,2,0,P|184:132,1,60,8|0,0:0|0:0,0:0:0
332,84,37874,1,0,0:0:0
260,116,38062,2,0,P|284:172|328:212,1,120,8|4,0:0|0:0,0:0:0
496,224,38812,5,8,0:0:0
392,352,39187,1,0,0:0:0
236,348,39562,2,0,P|212:364|180:372,2,60,8|0|0,0:0|0:0|0:0,0:0:0
256,268,40124,2,0,P|244:244|216:224,1,60,0|8,0:0|0:0,0:0:0
180,292,40499,2,0,P|124:276|68:296,1,120
4,340,41062,1,8,0:0:0
56,192,41437,6,0,P|116:184,1,60
120,108,41812,2,0,P|180:120,1,60,8|0,0:0|0:0,0:0:0
308,208,42374,2,0,P|260:172,1,60,0|8,0:0|0:0,0:0:0
384,76,42937,6,0,P|440:108,2,60,0|0|8,0:0|0:0|0:0,0:0:0
308,56,43499,2,0,P|312:112|360:152,1,120
428,188,44062,2,0,P|452:204|468:232,1,60,8|0,0:0|0:0,0:0:0
396,260,44437,6,0,P|343:263|280:288,1,120,4|8,2:0|0:0,0:0:0
312,136,45187,2,0,P|348:184,2,60,0|0|8,0:0|0:0|0:0,0:0:0
156,124,45937,2,0,P|192:172,2,60,0|0|8,0:0|0:0|0:0,0:0:0
104,68,46499,1,0,0:0:0
132,220,46874,2,0,P|96:172,2,60,0|8|0,0:0|0:0|0:0,0:0:0
184,280,47437,6,0,P|236:312|296:320,1,120,0|8,0:0|0:0,0:0:0
372,324,47999,1,0,0:0:0
468,204,48374,2,0,P|484:264,2,60,0|0|4,0:0|0:0|2:0,0:0:0
440,132,48937,6,0,P|397:99|333:83,1,120,0|8,0:0|0:0,0:0:0
256,77,49499,1,0,0:0:0
178,83,49687,2,0,P|115:98|72:131,1,120,0|8,0:0|0:0,0:0:0
44,204,50249,2,0,P|100:232,1,60,0|4,0:0|0:0,0:0:0
240,300,50812,5,8,0:0:0
224,144,51187,2,0,P|172:172,2,60,0|0|8,0:0|0:0|0:0,0:0:0
312,272,51937,2,0,P|348:328|396:352,1,120,0|8,0:0|0:0,0:0:0
348,204,52687,2,0,P|404:180,2,60,0|0|8,0:0|0:0|0:0,0:0:0
204,260,53437,6,0,P|172:316|128:352,1,120,0|8,0:0|0:0,0:0:0
160,196,54187,1,0,0:0:0
200,128,54374,2,0,P|168:76,2,60,0|8|0,0:0|0:0|0:0,0:0:0
244,192,54937,2,0,P|304:216|360:216,1,120,0|8,0:0|0:0,0:0:0
444,348,55687,2,0,P|500:324,2,60,0|0|8,0:0|0:0|0:0,0:0:0
288,356,56437,6,0,P|228:336|172:336,1,120,4|8,0:0|0:0,0:0:0
320,284,57187,2,0,P|380:304,2,60,0|0|8,0:0|0:0|0:0,0:0:0
164,260,57937,6,0,P|128:212,1,60
82,148,58312,1,8,0:0:0
68,71,58499,2,0,P|128:55|184:71,1,120
174,148,59062,2,0,P|234:164|290:148,1,120,8|4,0:0|0:0,0:0:0
412,56,59812,5,8,0:0:0
424,288,60374,2,0,P|488:272,2,60,0|8|0,0:0|0:0|0:0,0:0:0
348,304,60937,2,0,P|292:320|232:312,1,120,0|8,0:0|0:0,0:0:0
256,240,61499,2,0,P|276:184,1,60
344,224,61874,2,0,P|364:164,1,60,0|8,0:0|0:0,0:0:0
208,140,62437,6,0,P|152:80|64:96|64:96|56:144|92:168,2,240,4|8|0,0:0|0:0|0:0,0:0:0
440,348,64687,6,0,P|384:364|324:348,1,120,0|8,0:0|0:0,0:0:0
324,192,65437,2,0,P|380:176|440:192,1,120,4|8,0:0|0:0,0:0:0
440,268,65999,6,0,P|500:268,2,60
284,260,66749,2,0,P|344:272,2,60
132,220,67499,2,0,P|76:212|16:188,2,120
164,148,68437,2,0,P|220:156|280:180,1,120,0|8,0:0|0:0,0:0:0
320,112,68999,6,0,P|264:88,2,60
464,172,69749,1,0,0:0:0
464,172,69937,2,0,P|440:228,1,60
352,356,70499,2,0,P|300:368|228:368,2,120
276,52,71999,6,0,P|216:32,2,60
124,96,72749,2,0,P|64:76,2,60
96,248,73499,2,0,P|132:300|180:328,1,120
256,344,74062,1,8,0:0:0
332,328,74249,2,0,P|400:324|420:260|420:260|376:216,1,180,0|8,0:0|0:0,0:0:0
144,184,75374,6,0,P|84:172,2,60,0|8|0,0:0|0:0|0:0,0:0:0
224,188,75937,2,0,P|276:156|304:104,1,120,0|8,0:0|0:0,0:0:0
380,104,76499,2,0,P|407:154|459:186,1,120
246,283,77437,6,0,P|294:249|351:258,1,120,4|8,0:0|0:0,0:0:0
312,325,77999,1,0,0:0:0
243,362,78187,2,0,P|183:339,1,60
79,227,78749,6,0,P|23:247,2,60
158,92,79499,2,0,P|102:68|42:76,1,120
79,227,80249,1,0,0:0:0
370,338,80999,6,0,P|306:346|254:330,1,120
396,265,81749,2,0,P|432:217,2,60
412,109,82499,6,0,P|340:205,1,120
293,268,83062,1,8,0:0:0
230,125,83437,2,0,P|142:141|54:125,2,180,4|0|8,0:0|0:0|0:0,0:0:0
303,98,84749,1,4,2:2:0
116,240,85312,5,8,0:0:0
268,208,85687,2,0,P|328:192,2,60,0|0|8,0:0|0:0|0:0,0:0:0
168,328,86437,2,0,P|264:344|348:328,2,180,4|0|8,0:0|0:0|0:0,0:0:0
92,312,87749,1,4,2:0:0
144,164,88124,6,0,P|208:148,2,60,0|8|0,0:0|0:0|0:0,0:0:0
288,208,88874,2,0,P|224:224,2,60,0|8|0,0:0|0:0|0:0,0:0:0
256,192,89437,12,0,92437,0:0:0
256,120,95437,6,0,P|200:136|156:180,1,120,4|8,0:0|0:0,0:0:0
136,332,96187,2,0,P|80:316|36:273,2,120,0|8|0,0:0|0:0|0:0,0:0:0
292,348,97312,1,8,0:0:0
404,240,97687,2,0,P|452:204,2,60,0|0|8,0:0|0:0|0:0,0:0:0
248,252,98437,6,0,P|188:256|128:240,1,120,0|8,0:0|0:0,0:0:0
156,88,99187,2,0,P|96:76|36:76,2,120,0|8|0,0:0|0:0|0:0,0:0:0
296,160,100312,1,8,0:0:0
408,268,100687,2,0,P|464:288,2,60,0|0|8,0:0|0:0|0:0,0:0:0
256,300,101437,6,0,P|312:308|368:336,2,120,0|8|0,0:0|0:0|0:0,0:0:0
100,296,102562,1,8,0:0:0
240,224,102937,2,0,P|180:220|124:196,2,120,0|8|0,0:0|0:0|0:0,0:0:0
396,220,104062,1,8,0:0:0
348,72,104437,6,0,P|404:60|468:64,2,120,0|8|0,0:0|0:0|0:0,0:0:0
192,92,105562,1,8,0:0:0
44,48,105937,2,0,P|40:120|56:168,1,120,0|8,0:0|0:0,0:0:0
84,236,106499,1,0,0:0:0
188,352,106874,2,0,P|228:308,1,60,0|8,0:0|0:0,0:0:0
300,336,107249,6,0,P|352:308|412:304,1,120,4|0,0:0|0:0,0:0:0
488,312,107812,1,8,0:0:0
416,176,108187,2,0,P|476:184,2,60,0|0|8,0:0|0:0|0:0,0:0:0
260,184,108937,6,0,P|216:228|164:256,2,120,4|8|0,0:0|0:0|0:0,0:0:0
348,56,110062,1,8,0:0:0
192,44,110437,2,0,P|132:40,2,60,0|0|8,0:0|0:0|0:0,0:0:0
184,120,110999,2,0,P|124:116|64:132,1,120
0,172,111562,1,8,0:0:0
60,316,111937,6,0,P|120:328|180:320,1,120,0|8,0:0|0:0,0:0:0
252,296,112499,2,0,P|308:276|368:272,1,120
448,268,113062,1,8,0:0:0
424,112,113437,2,0,P|364:124,2,60,0|0|8,0:0|0:0|0:0,0:0:0
404,36,113999,2,0,P|344:48|288:76,1,120
220,108,114562,1,8,0:0:0
84,188,114937,6,0,P|48:240|44:296,2,120,0|8|0,0:0|0:0|0:0,0:0:0
232,236,116062,1,8,0:0:0
376,300,116437,2,0,P|396:244|400:184,1,120,0|8,0:0|0:0,0:0:0
396,104,116999,1,0,0:0:0
240,112,117374,2,0,P|184:88,2,60,0|8|0,0:0|0:0|0:0,0:0:0
200,180,117937,6,0,P|144:160|84:160,1,120,4|8,0:0|0:0,0:0:0
8,176,118499,1,0,0:0:0
112,292,118874,2,0,P|168:272,1,60,0|8,0:0|0:0,0:0:0
244,256,119249,6,0,P|300:256|360:276,1,120,4|0,0:0|0:0,0:0:0
432,308,119812,1,12,0:0:0
492,164,120187,2,0,P|436:164|376:144,1,120,0|4,0:0|0:0,0:0:0
308,108,120749,1,0,0:0:0
240,144,120937,6,0,P|192:172|128:172,1,120,4|8,0:0|0:0,0:0:0
144,328,121687,2,0,P|84:312,2,60,0|0|8,0:0|0:0|0:0,0:0:0
300,300,122437,2,0,P|344:332|408:340,1,120,0|8,0:0|0:0,0:0:0
484,332,122999,1,0,0:0:0
356,244,123374,2,0,P|304:212,1,60,0|8,0:0|0:0,0:0:0
172,128,123937,6,0,P|228:140|288:128,1,120,0|8,0:0|0:0,0:0:0
436,80,124687,1,0,0:0:0
288,36,125062,2,0,P|232:24|172:36,1,120,8|0,0:0|0:0,0:0:0
36,116,125812,1,8,0:0:0
36,272,126187,6,0,P|92:296,1,60
168,308,126562,1,8,0:0:0
244,296,126749,2,0,P|304:272,1,60,0|4,0:0|0:0,0:0:0
440,204,127312,6,0,P|492:168|512:116,2,120,8|2|8,0:0|0:0|0:0,0:0:0
424,48,128437,2,0,P|376:80|352:136,1,120,2|8,0:0|0:0,0:0:0
196,136,129187,2,0,P|172:80|124:48,1,120,2|8,0:0|0:0,0:0:0
68,196,129937,6,0,P|100:240|100:240|148:284|216:276,1,180,4|0,0:0|0:0,0:0:0
292,268,130687,2,0,P|352:256,1,60,8|0,0:0|0:0,0:0:0
452,136,131249,1,0,0:0:0
452,136,131437,6,0,P|394:151,1,60,0|0,0:0|0:0,0:0:0
240,160,131999,2,0,P|180:152,1,60,0|8,0:0|0:0,0:0:0
192,76,132374,2,0,P|252:84,1,60,0|8,0:0|3:0,0:0:0
256,192,132937,12,2,134437,0:0:0
120,112,135187,5,8,3:0:0
256,192,135562,1,4,3:0:0
388,112,135937,1,4,0:0:0
416,264,136499,6,0,P|448:316,2,60
276,328,137249,2,0,P|228:368,2,60
156,228,137999,2,0,P|100:252|40:244,2,120
428,76,139499,5,0,0:0:0
428,76,139687,2,0,P|372:96,1,60
216,84,140249,2,0,P|156:96,2,60
328,192,140999,2,0,P|388:184|444:160,2,120
48,328,142499,5,0,0:0:0
128,328,142687,2,0,P|160:324|184:312,1,60
80,196,143249,2,0,P|105:176|120:154,1,60
152,80,143624,1,0,0:0:0
304,44,143999,6,0,P|358:75|386:123,1,120
404,200,144562,1,8,0:0:0
328,220,144749,2,0,P|344:284|344:340,2,120
252,84,145874,2,0,P|192:92,2,60,0|8|0,0:0|0:0|0:0,0:0:0
256,164,146437,2,0,P|196:180|156:220,1,120,0|8,0:0|0:0,0:0:0
152,296,146999,2,0,P|195:339|250:354,1,120
484,336,147937,6,0,P|424:336|368:316,1,120,4|8,0:0|0:0,0:0:0
304,272,148499,1,0,0:0:0
376,240,148687,2,0,P|432:216,1,60
456,64,149249,2,0,P|400:88,1,60
328,112,149624,2,0,P|264:132|208:128,2,120
188,40,150749,2,0,P|124:92|136:184,1,180,0|8,0:0|0:0,0:0:0
172,252,151499,6,0,P|116:272,2,60
328,272,152249,1,0,0:0:0
404,264,152437,2,0,P|464:256,1,60
404,112,152999,2,0,P|368:164|316:196,1,120
172,240,153749,6,0,P|112:256|56:240,1,120
40,164,154312,2,0,P|56:156|56:156|68:168|68:168|80:156|80:156|92:168|92:168|104:156|104:156|116:168|116:168|128:156|128:156|140:168|140:168|152:156|152:156|164:168|164:168|176:156|176:156|188:168|188:168|216:148|216:148|256:196,1,300,8|4,0:0|0:0,0:0:0
336,328,155624,6,0,P|368:380,2,60,0|8|0,0:0|0:0|0:0,0:0:0
332,248,156187,2,0,P|340:184|372:136,1,120,0|8,0:0|0:0,0:0:0
420,80,156749,1,0,0:0:0
344,68,156937,6,0,P|272:84|168:72,2,180,4|0|8,0:0|0:0|0:0,0:0:0
392,8,158249,1,4,0:0:0
468,144,158624,6,0,P|500:196,2,60,0|8|0,0:0|0:0|0:0,0:0:0
412,292,159374,2,0,P|352:300,1,60,0|8,0:0|0:0,0:0:0
316,232,159749,2,0,P|256:240,1,60,0|4,0:0|2:0,0:0:0
148,128,160312,6,0,P|188:84,1,60,8|0,0:0|0:0,0:0:0
248,136,160687,2,0,P|164:228,2,120,0|8|0,0:0|0:0|0:0,0:0:0
316,100,161624,2,0,P|376:92,2,60,0|8|0,0:0|0:0|0:0,0:0:0
440,196,162374,2,0,P|400:240,1,60,0|8,0:0|0:0,0:0:0
272,332,162937,6,0,P|224:360|160:368,1,120,0|8,0:0|0:0,0:0:0
56,252,163687,2,0,P|116:244,2,60,0|0|8,0:0|0:0|0:0,0:0:0
152,128,164437,2,0,P|208:112|268:128,1,120,0|8,0:0|0:0,0:0:0
380,236,165187,2,0,P|324:252|264:236,1,120,0|8,0:0|0:0,0:0:0
200,196,165749,2,0,P|192:260,1,60,0|4,0:0|0:0,0:0:0
256,280,171937,6,0,P|196:288|136:284,1,120,0|8,0:0|0:0,0:0:0
16,184,172687,1,4,2:0:0
152,104,173062,2,0,P|216:96,1,60,0|4,0:0|2:0,0:0:0
364,124,173624,1,0,0:0:0
444,260,173999,2,0,P|388:280,1,60,0|4,0:0|2:0,0:0:0
468,148,174562,6,0,P|420:184|364:204,1,120,8|4,0:0|0:0,0:0:0
212,232,175312,1,8,0:0:0
212,232,175687,1,8,0:0:0
84,320,176062,2,0,P|140:340,1,60,0|4,0:0|2:0,0:0:0
296,336,176624,6,0,P|360:348,2,60,0|8|0,0:0|0:0|0:0,0:0:0
416,232,177374,2,0,P|440:176,1,60,0|8,0:0|0:0,0:0:0
296,116,177937,6,0,P|280:144|240:156|212:148|212:148|188:136|152:136|132:156,2,180,4|8|0,2:0|0:0|0:0,0:0:0
232,72,179249,1,0,0:0:0
176,220,179624,1,8,0:0:0
292,324,179999,2,0,P|244:360|184:376,2,120,0|8|0,0:0|0:0|0:0,0:0:0
348,268,180937,5,4,2:0:0
400,212,181124,2,0,P|448:176|508:160,2,120,0|8|0,0:0|0:0|0:0,0:0:0
244,208,182249,2,0,P|204:164|148:140,1,120,0|8,0:0|0:0,0:0:0
9,220,182999,2,0,P|49:264|104:288,1,120,0|8,0:0|0:0,0:0:0
332,340,183937,5,0,0:0:0
332,340,184312,1,8,0:0:0
456,52,185062,1,0,0:0:0
456,52,185437,1,8,0:0:0
224,76,185999,5,8,0:0:0
96,164,186374,2,0,P|124:220,1,60,0|8,0:0|0:0,0:0:0
188,360,186937,2,0,P|152:364|152:364|116:344|116:344|72:348,1,120,0|8,0:0|0:0,0:0:0
304,300,187874,2,0,P|344:308|344:308|376:288|376:288|416:296,1,120,0|12,0:0|0:0,0:0:0
164,116,189937,5,4,0:0:0
164,116,190312,1,8,0:0:0
116,264,190687,2,0,P|84:268|56:264,2,60,0|0|8,0:0|0:0|0:0,0:0:0
268,228,191437,2,0,P|328:220|388:232,1,120,0|8,0:0|0:0,0:0:0
448,376,192187,2,0,P|388:384|328:372,1,120,0|8,0:0|0:0,0:0:0
180,332,192937,6,0,P|120:328|68:300,2,120,4|8|0,0:0|0:0|0:0,0:0:0
164,176,194062,1,8,0:0:0
8,192,194437,2,0,P|12:132|40:80,2,120,0|8|0,0:0|0:0|0:0,0:0:0
164,176,195562,1,8,0:0:0
256,192,195937,12,0,197812,0:0:0
344,92,210937,5,4,0:0:0
256,132,211312,2,0,P|200:152|140:156,2,120,2|0|2,0:0|0:0|0:0,0:0:0
372,284,212812,2,0,P|312:280|256:260,2,120,0|2|0,0:0|0:0|0:0,0:0:0
464,264,213937,5,4,0:0:0
476,168,214312,2,0,P|420:148|360:144,2,120,0|2|0,0:0|0:0|0:0,0:0:0
316,60,215812,2,0,P|376:40|432:40,2,120,0|2|0,0:0|0:0|0:0,0:0:0
224,92,216937,5,4,0:0:0
180,176,217312,2,0,P|148:232|100:268,2,120,0|2|0,0:0|0:0|0:0,0:0:0
372,196,218812,1,0,0:0:0
392,288,219187,2,0,P|436:332|488:356,2,120,0|0|4,0:0|0:0|0:0,0:0:0
372,196,220312,1,8,0:0:0
216,124,221062,5,8,0:0:0
216,124,221437,2,0,P|152:116|96:128,1,120,0|8,0:0|0:0,0:0:0
80,204,221999,2,0,P|108:264,1,60
184,252,222374,2,0,P|164:196,1,60,0|8,0:0|0:0,0:0:0
244,196,222749,1,0,0:0:0
296,252,222937,6,0,P|332:292|396:308,1,120,4|8,0:0|0:0,0:0:0
472,308,223499,2,0,P|508:356,2,60
432,240,224062,1,8,0:0:0
400,88,224437,2,0,P|364:40,2,60,0|0|8,0:0|0:0|0:0,0:0:0
448,148,224999,2,0,P|392:164|340:136,1,120
292,72,225562,1,8,0:0:0
156,148,225937,6,0,P|100:168|40:172,1,120,0|8,0:0|0:0,0:0:0
188,220,226687,2,0,P|132:240,2,60,0|0|8,0:0|0:0|0:0,0:0:0
184,376,227437,2,0,P|128:352,2,60,0|0|8,0:0|0:0|0:0,0:0:0
200,300,227999,1,0,0:0:0
356,300,228374,2,0,P|408:272,1,60,0|8,0:0|0:0,0:0:0
380,116,228937,6,0,P|332:80,1,60
276,136,229312,2,0,P|224:116|160:120,1,120,8|0,0:0|0:0,0:0:0
136,192,229874,2,0,P|88:228,1,60,0|8,0:0|0:0,0:0:0
192,344,230437,2,0,P|132:347,2,60,0|0|8,0:0|0:0|0:0,0:0:0
268,336,230999,2,0,P|344:324|384:308,1,120
452,268,231562,1,8,0:0:0
388,124,231937,6,0,P|444:88,2,60,0|0|8,0:0|0:0|0:0,0:0:0
320,164,232499,1,0,0:0:0
168,120,232874,2,0,P|214:81,2,60,0|8|0,0:0|0:0|0:0,0:0:0
108,168,233437,2,0,P|96:224|124:280,1,120,4|8,0:0|0:0,0:0:0
180,332,233999,2,0,P|240:344|296:328,1,120,4|8,0:0|0:0,0:0:0
360,104,234937,6,0,P|304:84|244:88,2,120,4|8|0,0:0|0:0|0:0,0:0:0
380,260,236062,1,8,0:0:0
236,336,236437,2,0,P|172:348|116:340,1,120,0|8,0:0|0:0,0:0:0
52,200,237187,2,0,P|116:188|172:196,1,120,0|8,0:0|0:0,0:0:0
244,216,237749,1,0,0:0:0
320,196,237937,6,0,P|384:184|440:192,1,120,0|8,0:0|0:0,0:0:0
336,72,238687,2,0,P|272:84|216:76,1,120,0|8,0:0|0:0,0:0:0
144,56,239249,1,0,0:0:0
72,88,239437,2,0,P|48:152,1,60
24,216,239812,5,8,0:0:0
44,292,239999,2,0,P|96:320|160:320,1,120
232,300,240562,1,8,0:0:0
340,188,240937,6,0,P|380:272|376:360,2,180,4|4|8,0:0|0:0|0:0,0:0:0
276,140,242249,1,4,0:0:0
124,172,242624,2,0,P|64:160,1,60,0|8,0:0|0:0,0:0:0
188,64,243187,2,0,P|128:56,2,60,8|0|8,0:0|0:0|0:0,0:0:0
344,44,243937,6,0,P|432:92|480:160,2,180,4|4|8,0:0|0:0|0:0,0:0:0
264,40,245249,1,4,0:0:0
183,172,245624,2,0,P|127:152,2,60,0|0|0,0:0|0:0|0:0,0:0:0
329,172,246374,2,0,P|385:152,2,60,0|0|0,0:0|0:0|0:0,0:0:0
256,192,246937,12,2,248437,0:0:0
