osu file format v11

[General]
AudioFilename: 01.DAYS of DASH.mp3
AudioLeadIn: 0
PreviewTime: 64499
Countdown: 0
SampleSet: Normal
StackLeniency: 0.7
Mode: 0
LetterboxInBreaks: 0

[Editor]
Bookmarks: 37874
DistanceSpacing: 1
BeatDivisor: 4
GridSize: 4

[Metadata]
Title:DAYS of DASH
TitleUnicode:DAYS of DASH
Artist:Suzuki Konomi
ArtistUnicode:鈴木このみ
Creator:Rotte
Version:Insane
Source:Sakurasou no Pet na Kanojo
Tags:a3272509123 Flower Cuvelia ending
BeatmapID:193311
BeatmapSetID:66221

[Difficulty]
HPDrainRate:7
CircleSize:4
OverallDifficulty:8
ApproachRate:8
SliderMultiplier:1.8
SliderTickRate:2

[Events]
//Background and Video events
0,0,"BG.jpg"
//Break Periods
2,8637,19687
2,92637,94687
2,166315,171187
//Storyboard Layer 0 (Background)
//Storyboard Layer 1 (Fail)
//Storyboard Layer 2 (Pass)
//Storyboard Layer 3 (Foreground)
Sprite,Foreground,Centre,"SB\beatmap.png",320,240 M,0,17249,17437,225,302,230,302 F,0,17249,17437,0,1 M,0,17437,19687,230,302 M,0,20437,21937,230,302,-170,302
Sprite,Foreground,Centre,"SB\sakura.png",320,240 L,0,5 R,0,2437,9937,0,6.283185 F,0,2437,2812,0,1 M,0,2437,8437,70,160 S,0,8062,8249,1,0.1 S,0,8249,8437,0.1,1 M,0,18937,20437,70,160,-330,160
Sprite,Foreground,Centre,"SB\days of dash.png",320,240 M,0,14249,14437,225,162,230,162 F,0,14249,14437,0,1 M,0,14437,18937,230,162 M,0,18937,20437,230,162,-170,162
Sprite,Foreground,Centre,"SB\sakura.png",320,240 L,2440,5 R,0,2437,9937,0,6.283185 F,0,0,8437,0 F,0,8437,,1 M,0,8437,9937,70,160,70,195 M,0,19312,20812,70,195,-330,195
Sprite,Foreground,Centre,"SB\zuoci.png",320,240 M,0,14999,15187,225,197,230,197 F,0,14999,15187,0,1 M,0,15187,19312,230,197 M,0,19312,20812,230,197,-170,197
Sprite,Foreground,Centre,"SB\sakura.png",320,240 L,2440,5 R,0,2437,9937,0,6.283185 F,0,0,9937,0 F,0,9937,,1 M,0,9937,11437,70,195,70,230 M,0,19687,21187,70,230,-330,230
Sprite,Foreground,Centre,"SB\zuoqu.png",320,240 M,0,15749,15937,225,232,230,232 F,0,15749,15937,0,1 M,0,15937,19687,230,232 M,0,19687,21187,230,232,-170,232
Sprite,Foreground,Centre,"SB\sakura.png",320,240 L,2440,5 R,0,2437,9937,0,6.283185 F,0,0,11437,0 F,0,11437,,1 M,0,11437,12937,70,230,70,265 M,0,20062,21562,70,265,-330,265
Sprite,Foreground,Centre,"SB\ge.png",320,240 F,0,16499,16506,0 M,0,16499,16687,225,267,230,267 F,0,16506,16511,0 F,0,16511,16515,0 F,0,16515,16519,0 F,0,16519,16687,0,1 M,0,16687,19687,230,267 M,0,20062,21562,230,267,-170,267
Sprite,Foreground,Centre,"SB\sakura.png",320,240 L,2440,5 R,0,2437,9937,0,6.283185 F,0,0,12937,0 F,0,12937,,1 M,0,12937,14437,70,265,70,300 M,0,20437,21937,70,300,-330,300
Sprite,Foreground,Centre,"SB\white cover.png",320,240 M,0,0,374,139,73 M,0,374,2437,139,73 M,0,2437,8437,139,73 F,0,8437,9937,1,0
Sprite,Foreground,Centre,"Lyric\01.png",320,240 M,0,20249,20437,40,216,112,216 V,0,20249,20437,0.1,1,1,1 M,0,20437,23249,112,216,122,216 V,0,23062,23249,1,1,0.1,1
Sprite,Foreground,Centre,"Lyric\02.png",320,240 V,0,23249,23437,0.1,1,1,1 M,0,23249,26062,122,216,132,216 M,2,26343,26437,132,216,132,229 V,0,26343,26437,1,1,1,0.1 M,1,26437,26624,132,230,132,228 M,2,26624,26812,132,228,132,254
Sprite,Foreground,Centre,"Lyric\03.png",320,240 M,2,26249,26437,132,190,132,216 M,1,26437,26624,132,216,132,206 M,2,26624,26812,132,206,132,216 M,0,26812,28499,132,216 M,0,28499,28687,132,216,203,216 V,0,28499,28687,1,1,0.1,1
Sprite,Foreground,Centre,"Lyric\04.png",320,240 F,0,28687,,0 M,0,28687,28874,140,-20,140,160 M,0,28874,32062,140,160,140,170 F,0,29437,29624,1,0 S,0,29437,29624,1,2.54624
Sprite,Foreground,Centre,"Lyric\04.png",320,240 M,0,28687,28874,140,-20,140,160 M,0,28874,32062,140,160,140,170 M,1,32249,32437,140,170,140,160 F,0,32437,33187,1,0 M,0,32437,34687,140,160
Sprite,Foreground,Centre,"Lyric\05.png",320,240 M,0,29437,29624,-58,200,70,200 M,0,29624,32062,70,200,80,200 M,1,32249,32437,80,200,60,200 F,0,32437,33187,1,0 M,0,32437,34687,60,200
Sprite,Foreground,Centre,"Lyric\05.png",320,240 F,0,29437,,0 M,0,29437,29624,-58,200,70,200 M,0,29624,32062,70,200,80,200 F,0,30374,30562,1,0 S,0,30374,30562,1,1.89088
Sprite,Foreground,Centre,"Lyric\06.png",320,240 M,0,30187,30374,140,500,140,238 M,0,30374,32062,140,238,140,230 M,1,32249,32437,140,230,140,240 F,0,32437,33187,1,0 M,0,32437,34687,140,240
Sprite,Foreground,Centre,"Lyric\06.png",320,240 F,0,30187,,0 M,0,30187,30374,140,500,140,238 M,0,30374,32062,140,238,140,230 F,0,30937,31124,1,0 S,0,30937,31124,1,2.95584
Sprite,Foreground,Centre,"Lyric\07.png",320,240 M,0,31124,31312,660,200,212,200 M,0,31312,32062,212,200,205,200 M,1,32249,32437,205,200,225,200 F,0,32437,33187,1,0 M,0,32437,34687,225,200
Sprite,Foreground,Centre,"Lyric\07.png",320,240 F,0,31124,,0 M,0,31124,31312,660,200,212,200 M,0,31312,32062,212,200,205,200 F,0,31874,32062,1,0 S,0,31874,32062,1,1.89088
Sprite,Foreground,Centre,"Lyric\08.png",320,240 S,2,31874,32249,5,1 M,0,32062,32249,142,200 M,0,32249,34687,142,200 F,0,34499,34687,1,0
Sprite,Foreground,Centre,"Lyric\08.png",320,240 S,2,31874,32249,5,1 M,0,32062,32249,142,200 F,0,32249,32624,1,0 S,0,32249,32624,1,2.792
Sprite,Foreground,Centre,"Lyric\09.png",320,240 F,0,34874,35249,0,1 M,0,34874,38062,132,240,142,240 F,0,35249,37687,1 F,0,37687,38062,1,0
Sprite,Foreground,Centre,"Lyric\101.png",320,240 M,0,38249,38437,-58,309,111,308 M,0,38437,44419,111,308,121,308 M,0,44419,44812,111,308,-57,168 R,0,44419,44812,0,-7.843842
Sprite,Foreground,Centre,"Lyric\11.png",320,240 M,0,41249,41437,731,351,242,346 M,0,41437,44380,242,346,232,346 M,0,44380,44812,232,346,725,86 R,0,44380,44812,0,7.84384
Sprite,Foreground,Centre,"Lyric\12.png",320,240 M,0,44249,44437,167,497,167,319 M,0,44437,46687,167,319,167,309 F,0,46312,46687,1,0.4986666 S,0,46312,46687,1,2.202398
Sprite,Foreground,Centre,"Lyric\13.png",320,240 F,0,46499,46874,0,1 S,0,46499,46874,2.24928,1 M,0,46499,50062,167,279,167,269 F,0,46874,48749,1 F,0,48749,50062,1,0
Sprite,Foreground,Centre,"Lyric\14.png",320,240 M,0,50249,50437,-29,203,113,203 M,0,50437,53062,113,203 S,0,50999,51280,1.06144,1.364037 S,0,51280,51562,1.364037,1.139213 F,0,53062,53437,1,0
Sprite,Foreground,Centre,"Lyric\15.png",320,240 M,0,51749,51937,689,265,199,262 M,0,51937,53437,199,262 S,0,52499,52780,0.9488,1.1024 S,0,52780,53062,1.1024,0.9488 F,0,53062,53437,1,0
Sprite,Foreground,Centre,"Lyric\16.png",320,240 F,0,53812,,1 M,0,53812,56062,115,320,120,320 F,0,56062,,0
Sprite,Foreground,Centre,"Lyric\16 (1).png",320,240 F,0,53343,,1 S,0,53343,53437,4.82976,1 M,0,53343,53812,115,320 F,0,53812,,0 F,0,56062,,1 M,0,56062,56155,120,320,7,243
Sprite,Foreground,Centre,"Lyric\16 (2).png",320,240 F,0,53530,,1 S,0,53530,53624,4.82976,1 M,0,53530,53812,115,320 F,0,53812,,0 F,0,56062,,1 M,0,56062,56155,120,320,116,-9
Sprite,Foreground,Centre,"Lyric\16 (3).png",320,240 F,0,53718,,1 M,0,53718,53812,120,320 S,0,53718,53812,4.82976,1 F,0,53812,,0 F,0,56062,,1 M,0,56062,56155,120,320,366,-15
Sprite,Foreground,Centre,"Lyric\17.png",320,240 F,0,54749,,1 M,0,54749,56062,190,360,193,360 F,0,56062,,0
Sprite,Foreground,Centre,"Lyric\17 (1).png",320,240 F,0,54280,,1 S,0,54280,54374,4.82976,1 M,0,54280,54749,190,360 F,0,54749,,0 F,0,56062,,1 M,0,56062,56155,193,360,68,493
Sprite,Foreground,Centre,"Lyric\17 (2).png",320,240 F,0,54468,,1 S,0,54468,54562,4.82976,1 M,0,54468,54749,190,360 F,0,54749,,0 F,0,56062,,1 M,0,56062,56155,193,360,652,477
Sprite,Foreground,Centre,"Lyric\17 (3).png",320,240 F,0,54655,,1 M,0,54655,54749,190,360 S,0,54655,54749,4.82976,1 F,0,54749,,0 F,0,56062,,1 M,0,56062,56155,193,360,639,137
Sprite,Foreground,Centre,"Lyric\18.png",320,240 M,0,56437,57187,235,195,207,195 M,0,57187,57562,207,195,185,195 M,0,57562,58312,185,195,161,195 M,0,58312,58687,161,195,139,195 M,0,58687,59418,139,195,113,195 M,0,59418,59437,113,195,51,195 V,0,59418,59437,1,1,0.1,1 M,0,59718,59812,51,195,51,190 M,0,59812,59905,51,190,51,195 M,0,59905,60468,51,195 M,0,60468,60562,51,195,51,192 M,0,60562,60655,51,192,51,195 M,0,60655,60749,51,195,51,192 M,0,60749,60843,51,192,51,195 M,0,60843,60937,51,195 M,0,60937,61312,51,195 M,0,61312,61687,51,195 M,0,61687,62437,51,195 M,0,62437,62624,51,195 M,0,62624,62812,51,195,49,190 M,0,62812,62905,49,190,55,195 M,0,62905,62999,55,195,53,191 M,0,62999,63093,53,191,54,199 M,0,63093,63187,54,199,49,191 M,0,63187,63280,49,191,53,198 M,0,63280,63374,53,198,51,192 M,0,63374,63468,51,192,51,198 M,0,63468,63562,51,198,54,191 M,0,63562,63655,54,191,48,192 M,0,63655,63749,48,192,53,198 M,0,63749,63843,53,198,48,195 M,0,63843,63937,48,195,52,193 M,0,63937,64030,52,193,48,196 M,0,64030,64124,48,196,53,192 M,0,64124,64218,53,192,49,193 M,0,64218,64312,49,193,58,200 V,0,64312,64405,0.1,1,1,1 M,0,64312,64499,58,200,-63,149 R,0,64312,64499,0,-2.43712
Sprite,Foreground,Centre,"SB\white.png",320,240 M,0,56437,59437,235,195
Sprite,Foreground,Centre,"Lyric\19.png",320,240 M,0,59343,59437,694,195,115,195 M,0,59437,59718,115,195 M,0,59718,59812,115,195 M,0,59812,59905,115,195 M,0,59905,64312,115,195 M,0,64312,64499,115,195,707,104 R,0,64312,64499,0,5.89824
Sprite,Foreground,Centre,"Lyric\201.png",320,240 M,0,64499,64687,184,-17,184,210 M,0,64687,65362,184,210 M,0,65362,65812,184,210,693,139 R,0,65362,65812,0,-3.01056
Sprite,Foreground,Centre,"Lyric\21.png",320,240 M,0,64874,65062,184,495,184,248 M,0,65062,65379,184,248 M,0,65379,65812,184,248,668,314 R,0,65379,65812,0,2.06848
Sprite,Foreground,Centre,"Lyric\22.png",320,240 S,0,65249,,1 M,0,65249,65812,-89,223,717,223
Sprite,Foreground,Centre,"Lyric\23.png",320,240 M,1,65812,65999,-84,270,150,270 V,0,65812,66093,1,0.1,1,1 M,0,65999,66093,150,270,145,270 M,0,66093,68437,145,270,155,270 M,0,68437,68624,155,270 M,2,68624,68999,155,270,730,270
Sprite,Foreground,Centre,"Lyric\24.png",320,240 M,1,68812,68999,-84,300,180,300 V,0,68812,69093,1,0.1,1,1 M,0,68999,69093,180,300,175,300 M,0,69093,71437,175,300,185,300 M,0,71437,71530,185,300,180,300 M,0,71530,71624,180,300,185,300 M,2,71624,71999,185,300,730,300
Sprite,Foreground,Centre,"Lyric\25.png",320,240 M,0,71812,72562,120,300,120,326 F,0,71812,72562,0,1 M,0,74437,75187,120,326,120,300 F,0,74437,75187,1,0
Sprite,Foreground,Centre,"SB\white234.png",320,240 M,0,71812,75187,120,300
Sprite,Foreground,Centre,"Lyric\26 (1).png",320,240 M,0,75280,75374,110,170 S,0,75280,75374,2.21856,1 M,0,75374,77062,110,170 M,0,77062,77155,110,170,56,125
Sprite,Foreground,Centre,"Lyric\26 (2).png",320,240 M,0,75468,75562,110,170 S,0,75468,75562,2.21856,1 M,0,75562,77062,110,170 M,0,77062,77155,110,170,216,-14
Sprite,Foreground,Centre,"Lyric\26 (3).png",320,240 M,0,75655,75749,110,170 S,0,75655,75749,2.21856,1 M,0,75749,77062,110,170 M,0,77062,77155,110,170,425,-15
Sprite,Foreground,Centre,"Lyric\26 (4).png",320,240 R,0,75843,,0 M,0,75843,75937,142,193 S,0,75843,75937,2.21856,1 M,0,75937,77062,142,193 M,0,77062,77155,142,193,527,497
Sprite,Foreground,Centre,"Lyric\26 (5).png",320,240 R,0,76405,,0 M,0,76405,76499,137,208 S,0,76405,76499,2.21856,1 M,0,76499,77062,137,208 M,0,77062,77155,137,208,-82,388
Sprite,Foreground,Centre,"Lyric\27.png",320,240 S,0,77249,77343,2.024,1.11264 S,0,77343,77437,1.11264,0.5699203 S,0,77437,77530,0.5699203,1.34816 M,0,77437,77624,132,295 S,0,77530,77624,1.34816,1.14336 M,0,77624,80812,132,295,132,285 S,0,80530,80624,1.14336,0.7849597 S,0,80624,80718,0.7849597,1.14336 S,0,80718,80812,1.14336,2.5872
Sprite,Foreground,Centre,"Lyric\28.png",320,240 M,0,80812,80999,163,166,163,184 F,0,80812,80999,0,1 M,0,80999,84749,163,184,173,184 M,0,84749,84843,173,184,168,184 M,2,84843,84937,168,184,600,184
Sprite,Foreground,Centre,"Lyric\29.png",320,240 M,0,82312,82405,600,232,220,232 M,0,82405,84749,220,232,210,232 M,0,84749,84843,210,232,215,232 M,1,84843,84937,215,232,-20,232
Sprite,Foreground,Centre,"Lyric\301.png",320,240 F,0,84937,85687,0,1 M,0,84937,87937,131,287,141,287 F,0,87187,87937,1,0
Sprite,Foreground,Centre,"Lyric\31.png",320,240 M,0,87937,92437,128,332,138,332 F,0,92062,92437,1,0
Sprite,Foreground,Centre,"SB\white234.png",320,240 V,0,87937,88312,1,1,0,0 M,0,87937,92437,128,332,138,332 F,0,92062,92437,1,0
Sprite,Foreground,Centre,"Lyric\32.png",320,240 M,0,95249,95437,-65,190,85,190 M,0,95437,101062,85,190,81,190 M,0,101062,101249,81,190,85,-14
Sprite,Foreground,Centre,"Lyric\33.png",320,240 M,0,98249,98437,752,246,226,246 M,0,98437,101062,226,246,235,246 M,0,101062,101249,235,246,240,494
Sprite,Foreground,Centre,"Lyric\34.png",320,240 M,0,101249,101437,141,492,141,287 M,0,101437,103687,141,287,141,292 M,0,103687,103874,141,292,201,292 V,0,103687,103874,1,1,0.1,1
Sprite,Foreground,Centre,"Lyric\35.png",320,240 M,0,103687,103874,14,176,74,176 V,0,103687,103874,0.1,1,1,1 M,0,103874,108187,74,176,83,176 M,0,108187,108562,83,176,460,-20 R,0,108187,108562,0,3.072
Sprite,Foreground,Centre,"Lyric\36.png",320,240 M,0,105187,105374,193,221,145,221 V,0,105187,105374,0.1,1,1,1 M,0,105374,108374,145,221,134,221 M,0,108374,108749,134,221,553,-14 R,0,108374,108749,0,2.1504
Sprite,Foreground,Centre,"Lyric\37.png",320,240 M,0,106124,106312,154,266,227,266 V,0,106124,106312,0.1,1,1,1 M,0,106312,108562,227,266,234,266 M,0,108562,108937,234,266,714,29 R,0,108562,108937,0,1.024
Sprite,Foreground,Centre,"SB\sakura.png",320,240 M,0,108093,108187,-18,230,22,194 M,0,108187,108468,22,194,6,-18
Sprite,Foreground,Centre,"SB\sakura.png",320,240 M,0,108468,108562,-16,397,161,283 M,0,108562,108937,161,283,407,-17
Sprite,Foreground,Centre,"SB\sakura.png",320,240 M,0,108280,108374,-18,310,81,241 M,0,108374,108749,81,241,236,-18
Sprite,Foreground,Centre,"Lyric\38.png",320,240 M,0,108749,108937,116,276 S,0,108749,108937,0.1,1 R,0,108749,108937,-6.656,0 M,0,108937,111562,116,276,126,276 V,0,111562,111749,1,1,0,1
Sprite,Foreground,Centre,"Lyric\39.png",320,240 M,0,111749,111937,126,276 V,0,111749,111937,0,1,1,1 M,0,111937,114562,126,276,136,276 F,0,114187,114562,1,0
Sprite,Foreground,Centre,"Lyric\401.png",320,240 M,0,114562,,160,192 F,0,114562,114937,0,1 S,0,114562,114937,2.06496,1 F,0,114937,115687,1,0 S,0,114937,115687,1,2.296302
Sprite,Foreground,Centre,"Lyric\401.png",320,240 M,0,114937,117187,160,192 M,0,117187,117280,160,192,160,-13
Sprite,Foreground,Centre,"Lyric\41.png",320,240 F,0,117187,117937,0,1 M,0,117187,120562,154,288,154,262 F,0,119249,120562,1,0
Sprite,Foreground,Centre,"Lyric\42.png",320,240 M,0,120749,120937,-29,235,103,235 M,0,120937,123562,103,235 S,0,121499,121687,1,1.4 S,0,121687,121874,1.4,1 F,0,123562,123937,1,0
Sprite,Foreground,Centre,"Lyric\43.png",320,240 M,0,122249,122437,689,195,199,195 M,0,122437,123562,199,195 S,0,122999,123187,1,1.4 S,0,123187,123374,1.4,1 F,0,123562,123937,1,0
Sprite,Foreground,Centre,"Lyric\44.png",320,240 R,0,123749,,0 S,0,123749,123937,2,0.8 M,0,123843,123937,132,290 S,0,123937,124124,0.7,1 M,0,123937,125437,132,290 M,1,125437,126843,132,290,165,310 S,0,125437,126843,1,0 R,0,125437,126843,-0.3,0
Sprite,Foreground,Centre,"Lyric\45.png",320,240 R,0,124687,,0 S,0,124687,124780,2,0.8 M,0,124780,124874,200,315 S,0,124780,124968,0.7,1 M,0,124874,125437,200,315 M,1,125437,126843,200,315,165,310 S,0,125437,126843,1,0 R,0,125437,126843,0.4,0
Sprite,Foreground,Centre,"Lyric\46.png",320,240 M,0,126843,126937,165,310,165,250 S,0,126843,126937,0,1 M,0,126937,129562,165,250,165,252 V,0,129562,129749,1,1,0,1
Sprite,Foreground,Centre,"Lyric\47.png",320,240 V,0,129749,129937,0,1,1,1 M,0,129937,134812,165,252,165,254
Sprite,Foreground,Centre,"Lyric\47 (1).png",320,240 M,0,134812,134905,165,254,39,309
Sprite,Foreground,Centre,"Lyric\47 (2).png",320,240 M,0,134812,134905,165,254,22,477
Sprite,Foreground,Centre,"Lyric\47 (3).png",320,240 M,0,134812,134905,165,254,249,494
Sprite,Foreground,Centre,"Lyric\47 (4).png",320,240 M,0,134812,134905,165,254,414,494
Sprite,Foreground,Centre,"Lyric\47 (5).png",320,240 M,0,134812,134905,165,254,622,484
Sprite,Foreground,Centre,"Lyric\47 (6).png",320,240 M,0,134812,134905,165,254,600,291
Sprite,Foreground,Centre,"Lyric\48.png",320,240 M,0,135093,136312,85,185
Sprite,Foreground,Centre,"Lyric\49.png",320,240 M,0,135468,136312,182,185
Sprite,Foreground,Centre,"Lyric\48.png",320,240 M,0,135843,136312,279,185
Sprite,Foreground,Centre,"Lyric\501.png",320,240 M,0,136312,136499,123,312 S,0,136312,136499,0.1,1 R,0,136312,136499,-12.57472,-6.286721 M,0,136499,139030,123,312,133,312 M,0,139030,139124,133,312,128,312 M,2,139124,139499,128,312,800,312
Sprite,Foreground,Centre,"Lyric\51.png",320,240 M,0,139312,139499,653,445,201,367 S,0,139312,139499,0.1,1 M,0,139499,142030,201,367,211,367 M,0,142030,142124,211,367,216,367 M,0,142124,142312,216,367,-60,367
Sprite,Foreground,Centre,"Lyric\52.png",320,240 M,0,142312,142499,456,75,143,231 S,0,142312,142499,0,1 M,0,142499,145687,141,231,151,231 F,0,145312,145687,1,0
Sprite,Foreground,Centre,"Lyric\53.png",320,240 M,0,145687,145874,414,85,141,173 S,0,145687,145874,0,1 M,0,145874,147937,143,173,153,173 S,0,147562,147937,1,0.1 R,0,147562,147937,0,12.55424
Sprite,Foreground,Centre,"SB\sakura.png",320,240 M,0,141937,,588,236 F,0,141937,,1 S,0,141937,,1 MX,1,141937,147562,591,80 MY,2,141937,147562,236,400 R,0,141937,147937,0,6.283185 M,0,147562,,77,400 S,0,147562,147749,0.54944,0 F,0,147749,,0
Sprite,Foreground,Centre,"SB\sakura1.png",320,240 L,0,5 R,0,141937,147937,0,6.283185 L,222940,5 R,0,0,5997,0,6.283185 F,0,141937,,0 S,0,147749,147937,0,1 F,0,147843,,1 S,0,147843,147937,0,1 M,0,147937,,80,400 R,0,147937,,13 F,0,165187,165937,1,0 F,0,222937,223312,0,1 F,0,248062,248437,1,0.0323201
Sprite,Foreground,Centre,"Lyric\54.png",320,240 S,0,147749,147937,2.44384,1 M,0,147937,149624,147,194,152,194 M,0,149624,149812,152,194,147,194 M,0,149812,149999,147,194,721,194
Sprite,Foreground,Centre,"Lyric\55.png",320,240 M,0,149812,149999,-87,210,171,230 M,0,149999,152624,171,230,164,230 M,0,152624,152812,164,230,181,493
Sprite,Foreground,Centre,"Lyric\56.png",320,240 F,0,152812,153562,0,1 M,0,152812,155437,139,252,144,252 F,0,154687,155437,1,0
Sprite,Foreground,Centre,"Lyric\57.png",320,240 F,0,155437,156562,0,1 M,0,155437,158437,82,280,91,284 F,0,156562,157312,1 F,0,157312,158437,1,0
Sprite,Foreground,Centre,"Lyric\58.png",320,240 M,0,158437,158624,162,492,162,328 M,0,158624,161999,162,328,162,332 M,0,161999,162187,162,332,162,337 M,0,162187,162374,162,337,165,-16
Sprite,Foreground,Centre,"Lyric\59.png",320,240 F,0,162187,162937,0,1 M,0,162187,165937,217,386,242,386 F,0,165187,165937,1,0
Sprite,Foreground,Centre,"Lyric\14.png",320,240 S,0,183749,183937,2.1776,1 M,0,183937,185437,68,307 S,0,184499,184687,1,1.3584 S,0,184687,184874,1.3584,1 F,0,185062,185437,1,0
Sprite,Foreground,Centre,"Lyric\15.png",320,240 S,0,185249,185437,2.05472,1 M,0,185437,186562,172,344 S,0,185999,186187,1,1.33792 S,0,186187,186374,1.33792,1 F,0,186562,186937,1,0
Sprite,Foreground,Centre,"Lyric\16 (1).png",320,240 M,0,186749,186937,-48,374,105,405 M,0,186937,187687,105,405
Sprite,Foreground,Centre,"Lyric\16 (2).png",320,240 M,0,186937,187124,105,498,104,405 M,0,187124,187874,104,405
Sprite,Foreground,Centre,"Lyric\16 (3).png",320,240 M,0,187124,187312,364,496,104,405 M,0,187312,188062,104,405
Sprite,Foreground,Centre,"Lyric\17 (1).png",320,240 M,0,187687,187874,-39,214,218,439 M,0,187874,189562,218,439 F,0,189187,189562,1,0
Sprite,Foreground,Centre,"Lyric\17 (2).png",320,240 M,0,187874,188062,303,-12,218,439 M,0,188062,189562,218,439 F,0,189187,189562,1,0
Sprite,Foreground,Centre,"Lyric\17 (3).png",320,240 M,0,188062,188249,665,258,218,439 M,0,188249,189562,218,439 F,0,189187,189562,1,0
Sprite,Foreground,Centre,"Lyric\18.png",320,240 F,0,189468,,1 M,1,189468,189843,-67,266,120,266 M,0,189937,192374,120,266,128,266 M,0,192374,192562,128,266,125,266 M,2,192562,192937,125,266,701,266
Sprite,Foreground,Centre,"Lyric\19.png",320,240 M,0,192749,192937,712,216,222,216 M,0,192937,197812,222,216,212,216 M,0,197812,197999,212,216,260,-13
Sprite,Foreground,Centre,"Lyric\201 un.png",320,240 M,0,197999,198187,-68,198,95,198 M,0,198187,198937,95,198 M,0,198937,200437,95,198,895,198
Sprite,Foreground,Centre,"Lyric\21 un.png",320,240 M,0,198187,198562,-93,198,196,198 M,0,198562,198937,196,198 M,0,198937,200062,196,198,796,198
Sprite,Foreground,Centre,"Lyric\22 un.png",320,240 M,0,198562,198937,-61,198,297,198 M,0,198937,199687,297,198,697,198
Sprite,Foreground,Centre,"Lyric\23 un.png",320,240 M,0,199312,199499,155,-17,155,224 M,0,199499,205312,155,224,150,224 M,0,205312,205499,150,224,-86,224
Sprite,Foreground,Centre,"Lyric\24 un.png",320,240 M,0,202312,202499,715,267,224,267 M,0,202499,205312,224,267,232,267 M,0,205312,205499,232,267,235,494
Sprite,Foreground,Centre,"Lyric\25 un.png",320,240 M,0,205312,205499,471,371,146,371 M,0,205499,208687,146,371,153,371 F,0,208312,208687,1,0
Sprite,Foreground,Centre,"Lyric\26 un.png",320,240 F,0,208687,209062,0,1 M,0,208687,210562,156,184,156,193 F,0,210187,210562,1,0
Sprite,Foreground,Centre,"Lyric\27 un.png",320,240 L,0,5 S,0,210937,211124,1 S,0,211124,211312,1,1.06 S,0,211312,211499,1.06,1 S,0,211499,211687,1 F,0,210749,211124,0,1 M,0,210749,214312,125,247,140,247 M,0,214312,214499,140,247,748,247
Sprite,Foreground,Centre,"Lyric\601.png",320,240 L,3750,4 S,0,210937,211124,1 S,0,211124,211312,1,1.06 S,0,211312,211499,1.06,1 S,0,211499,211687,1 M,0,214312,214499,121,493,121,272 M,0,214499,217312,121,272,121,279 M,0,217312,217499,121,279,-109,279
Sprite,Foreground,Centre,"Lyric\61.png",320,240 L,6750,5 S,0,210937,211124,1 S,0,211124,211312,1,1.06 S,0,211312,211499,1.06,1 S,0,211499,211687,1 M,0,217312,217499,168,168 S,0,217312,217499,0.1,1 R,0,217312,217499,-4.75136,0 M,0,217499,221062,168,168,168,174 M,0,221062,221249,168,174,-135,174
Sprite,Foreground,Centre,"Lyric\62.png",320,240 M,0,221249,221437,-66,262,87,260 M,0,221437,222562,87,260 M,0,222562,222749,87,260,-49,163
Sprite,Foreground,Centre,"Lyric\63.png",320,240 M,0,221624,221720,208,-14,200,263 M,0,221720,222562,200,263,200,262 M,0,222562,222749,200,262,397,-17
Sprite,Foreground,Centre,"Lyric\64.png",320,240 S,0,221812,221999,2.8944,1 M,0,221812,222562,139,315 V,0,222562,222749,1,1,0,1
Sprite,Foreground,Centre,"Lyric\65.png",320,240 R,0,222749,,0 M,0,222749,222937,92,189 S,0,222749,222937,1.764587,1 M,0,222937,226312,92,189 M,0,226312,226499,92,189,-22,1
Sprite,Foreground,Centre,"Lyric\501.png",320,240 M,0,223312,223499,248,-14,244,224 M,0,223499,226312,244,224,226,224 M,0,226312,226499,226,224,-95,224
Sprite,Foreground,Centre,"Lyric\51.png",320,240 M,0,226312,226499,163,493,163,249 M,0,226499,229312,163,249,163,254 S,0,228937,229312,1,0.1 R,0,228937,229312,0,9.44128
Sprite,Foreground,Centre,"Lyric\52.png",320,240 F,0,229312,229687,0,1 M,0,229312,232687,139,175,145,175 F,0,232312,232687,1,0
Sprite,Foreground,Centre,"Lyric\66 (1).png",320,240 M,0,232874,233566,128,172 M,0,233566,234562,128,172 M,0,234562,234655,128,172,49,77
Sprite,Foreground,Centre,"Lyric\66 (2).png",320,240 M,0,233062,234562,128,172 M,0,234562,234655,128,172,122,-15
Sprite,Foreground,Centre,"Lyric\66 (3).png",320,240 M,0,233249,234562,128,172 M,0,234562,234655,128,172,203,-14
Sprite,Foreground,Centre,"Lyric\66 (4).png",320,240 M,0,233249,233437,-48,203,141,199 M,0,233437,234562,141,199,143,199 M,0,234562,234749,143,199,659,199
Sprite,Foreground,Centre,"Lyric\66 (5).png",320,240 M,0,233812,233999,612,228,172,226 M,0,233999,234562,172,226,169,226 M,0,234562,234749,169,226,-90,226
Sprite,Foreground,Centre,"Lyric\54.png",320,240 M,0,234937,236812,136,310,141,310 M,0,236812,239812,141,310 M,0,239812,239999,141,310,-79,301
Sprite,Foreground,Centre,"SB\white146.png",320,240 S,0,234937,235687,1,0 M,0,234937,236812,136,310,141,310
Sprite,Foreground,Centre,"Lyric\55.png",320,240 M,0,236812,236999,725,271,218,271 M,0,236999,239812,218,271,213,271 M,0,239812,239999,213,271,747,271
Sprite,Foreground,Centre,"Lyric\56.png",320,240 M,0,239812,239999,186,-13,186,180 M,0,239999,242437,186,180 M,0,242437,242624,186,180,-76,180
Sprite,Foreground,Centre,"Lyric\301.png",320,240 F,0,242624,242999,0,1 M,0,242624,248437,76,324,91,324 F,0,248062,248437,1,0
Sprite,Foreground,Centre,"Lyric\31.png",320,240 F,0,245624,245999,0,1 M,0,245624,248437,206,371,192,371 F,0,248062,248437,1,0
//Storyboard Sound Samples
//Background Colour Transformations
3,100,255,157,255

[TimingPoints]
937,375,4,2,2,30,1,0
6937,-100,4,1,1,50,0,0
8437,-100,4,1,1,80,0,0
20437,-100,4,2,2,50,0,0
28874,-100,4,2,2,60,0,0
29062,-100,4,2,2,70,0,0
29249,-100,4,2,2,80,0,0
29437,-100,4,2,2,60,0,0
31874,-100,4,2,2,50,0,0
31968,-100,4,1,1,50,0,0
45937,-100,4,1,1,70,0,0
46687,-100,4,1,1,60,0,0
47249,-100,4,1,1,50,0,0
47437,-100,4,1,1,60,0,0
50437,-100,4,1,1,50,0,0
55687,-100,4,1,1,70,0,0
56437,-100,4,1,1,50,0,0
59437,-100,4,1,1,65,0,0
59812,-100,4,1,1,50,0,0
60187,-100,4,2,1,60,0,0
60562,-100,4,1,1,50,0,0
60937,-100,4,1,1,60,0,0
61312,-100,4,1,1,50,0,0
62062,-100,4,1,1,70,0,0
62437,-100,4,1,1,60,0,0
62812,-100,4,1,1,40,0,0
63187,-100,4,1,1,50,0,0
63562,-100,4,1,1,60,0,0
63937,-100,4,1,1,65,0,0
64124,-100,4,1,1,70,0,0
64312,-100,4,1,1,75,0,0
64499,-100,4,1,1,80,0,0
64687,-100,4,1,1,55,0,0
65437,-66.6666666666667,4,2,2,80,0,1
65812,-100,4,2,2,80,0,1
68437,-100,4,2,1,80,0,1
75937,-100,4,1,1,70,0,1
76499,-100,4,1,1,75,0,1
76968,-100,4,2,1,40,0,1
77062,-100,4,2,1,90,0,1
77343,-100,4,2,1,50,0,0
77437,-100,4,1,1,70,0,1
77530,-100,4,2,2,70,0,1
83999,-90.9090909090909,4,2,2,70,0,1
84562,-83.3333333333333,4,2,2,70,0,1
85124,-100,4,2,2,70,0,1
87749,-100,4,2,1,100,0,1
88312,-100,4,2,1,70,0,1
89437,-100,4,2,1,50,0,0
89812,-100,4,2,1,40,0,0
90562,-100,4,2,1,30,0,0
91312,-100,4,2,1,20,0,0
92062,-100,4,2,1,10,0,0
95437,-100,4,2,2,60,0,0
101437,-100,4,2,2,70,0,0
104530,-100,4,1,1,40,0,0
105937,-100,4,2,2,70,0,0
106030,-100,4,1,1,60,0,0
106124,-100,4,1,1,30,0,0
106218,-100,4,1,1,60,0,0
106499,-100,4,2,2,70,0,0
106593,-100,4,1,1,60,0,0
107249,-100,4,2,1,55,0,0
107624,-100,4,1,1,55,0,0
108187,-100,4,1,1,40,0,0
108937,-100,4,2,2,70,0,0
114937,-100,4,1,1,60,0,0
115030,-100,4,2,2,60,0,0
121687,-100,4,2,1,40,0,0
122062,-100,4,2,1,80,0,0
122437,-100,4,2,1,40,0,0
122812,-100,4,2,1,80,0,0
126749,-100,4,2,1,50,0,0
126937,-133.333333333333,4,2,1,70,0,0
128437,-100,4,3,0,50,0,0
128624,-100,4,3,0,55,0,0
128812,-100,4,3,0,60,0,0
128999,-100,4,3,0,65,0,0
129187,-100,4,3,0,70,0,0
129374,-100,4,3,0,75,0,0
129562,-100,4,3,0,80,0,0
129749,-100,4,3,0,50,0,0
129937,-133.333333333333,4,2,1,50,0,0
132937,-133.333333333333,4,2,1,80,0,0
134249,-100,4,1,1,30,0,0
134437,-100,4,2,1,80,0,0
134530,-100,4,1,1,30,0,0
135187,-100,4,2,1,80,0,0
135280,-100,4,1,1,40,0,0
135562,-100,4,1,1,50,0,0
135937,-100,4,2,1,80,0,1
136687,-100,4,2,2,70,0,1
147843,-100,4,2,1,60,0,0
147937,-100,4,1,1,70,0,1
148218,-100,4,2,1,80,0,1
152437,-100,4,1,1,60,0,1
153187,-100,4,1,1,70,0,1
153937,-100,4,1,1,75,0,1
156187,-100,4,1,1,60,0,1
156374,-100,4,1,1,50,0,1
156562,-100,4,1,1,40,0,1
156749,-100,4,1,1,30,0,1
156937,-100,4,1,1,60,0,1
157499,-100,4,1,1,70,0,1
158249,-100,4,1,1,80,0,1
159937,-100,4,1,1,70,0,1
162374,-100,4,1,1,80,0,1
165937,-100,4,1,1,60,0,0
171937,-133.333333333333,4,1,1,60,0,0
183937,-100,4,1,1,50,0,0
186187,-100,4,2,2,50,0,0
186280,-100,4,1,1,50,0,0
189937,-100,4,2,1,70,0,0
194437,-100,4,2,1,60,0,0
198937,-100,4,2,1,50,0,1
199030,-100,4,2,2,50,0,0
211312,-100,4,2,2,70,0,0
219187,-100,4,1,1,50,0,0
220687,-100,4,2,1,30,0,0
220874,-100,4,2,1,40,0,0
221062,-100,4,2,1,50,0,0
221249,-100,4,2,1,60,0,0
221437,-100,4,2,1,70,0,0
221812,-100,4,2,1,50,0,0
221999,-100,4,2,1,60,0,0
222187,-100,4,2,1,70,0,0
222562,-100,4,2,1,80,0,0
222937,-100,4,1,1,70,0,1
223030,-100,4,2,1,80,0,1
225937,-100,4,2,2,80,0,1
232968,-100,4,1,1,30,0,1
233437,-100,4,2,1,80,0,1
234843,-100,4,2,1,60,0,0
234937,-100,4,2,1,80,0,1
239812,-100,4,1,1,40,0,1
240562,-100,4,1,1,70,0,1
240937,-100,4,1,1,60,0,1
241499,-100,4,1,1,50,0,1
242062,-100,4,1,1,60,0,1
242249,-100,4,1,1,70,0,1
242624,-100,4,1,1,50,0,1
243187,-100,4,1,1,60,0,1
243280,-100,4,1,1,50,0,1
243374,-100,4,1,1,40,0,1
243562,-100,4,1,1,60,0,1
243655,-100,4,1,1,50,0,1
243749,-100,4,1,1,40,0,1
243937,-100,4,1,1,60,0,1
244499,-100,4,1,1,70,0,1
245249,-100,4,1,1,80,0,1
245624,-100,4,2,1,30,0,1
245812,-100,4,2,1,45,0,1
246187,-100,4,2,1,60,0,1
246749,-100,4,2,1,70,0,1
246937,-100,4,2,1,5,0,0
247030,-100,4,2,1,70,0,0
247312,-100,4,2,1,50,0,0
247687,-100,4,2,1,30,0,0
248062,-100,4,2,1,15,0,0
248437,-100,4,2,1,5,0,0

[Colours]
Combo1 : 0,128,255
Combo2 : 255,128,0
Combo3 : 255,128,128
Combo4 : 189,0,95

[HitObjects]
136,104,2437,1,2,0:0:0
136,104,2624,1,2,0:0:0
184,304,2999,2,0,P|140:316|96:304,1,90,0|2,0:0|0:0,0:0:0
52,224,3374,2,0,P|96:212|140:224,1,90,0|2,0:0|0:0,0:0:0
184,304,3749,5,0,0:0:0
316,324,3937,1,2,0:0:0
268,196,4124,2,0,P|256:148|256:148|208:96|132:104,2,180,2|0|0,0:0|0:0|0:0,0:0:0
432,312,5062,5,2,0:0:0
432,312,5155,1,0,0:0:0
432,312,5249,1,0,0:0:0
432,312,5343,1,0,0:0:0
432,312,5437,2,0,P|392:288|368:248,1,90,2|2,0:0|0:0,0:0:0
336,72,5999,2,0,P|304:104|256:112,1,90,0|2,0:0|0:0,0:0:0
176,128,6374,1,0,0:0:0
161,290,6562,2,0,P|160:248|136:208,1,90,2|2,0:0|0:0,0:0:0
72,144,6937,5,0,0:0:0
64,280,7124,1,8,0:0:0
340,316,7499,5,0,0:0:0
367,301,7593,1,0,0:0:0
391,280,7687,1,0,0:0:0
409,254,7780,1,0,0:0:0
420,225,7874,1,0,0:0:0
424,192,7968,1,0,0:0:0
420,160,8062,1,8,0:0:0
404,132,8155,1,0,0:0:0
384,108,8249,1,0,0:0:0
360,88,8343,1,0,0:0:0
332,76,8437,1,4,0:0:0
56,296,20437,6,0,P|104:288|144:264,1,90,4|0,0:0|0:0,0:0:0
208,208,20812,2,0,P|243:228|291:236,1,90,2|0,0:0|0:0,0:0:0
376,264,21187,2,0,P|352:304|313:319,2,90,0|0|2,0:0|0:0|0:0,0:0:0
416,184,21749,1,0,0:0:0
432,36,21937,6,0,P|384:28|344:36,1,90
256,124,22312,2,0,P|304:132|344:124,1,90,2|0,0:0|0:0,0:0:0
256,36,22687,2,0,P|208:28|168:36,1,90,0|0,0:0|0:0,0:0:0
80,124,23062,2,0,P|128:132|168:124,1,90,2|0,0:0|0:0,0:0:0
160,212,23437,6,0,P|152:260|128:292,2,90,0|0|2,0:0|0:0|0:0,0:0:0
72,220,23999,1,0,0:0:0
184,364,24187,1,0,0:0:0
248,196,24374,1,0,0:0:0
336,212,24562,2,0,P|380:220|416:248,1,90,2|0,0:0|0:0,0:0:0
456,328,24937,2,0,P|416:248|412:156,1,180,0|2,0:0|0:0,0:0:0
260,60,25687,6,0,P|308:80|345:84,2,90,0|2|2,0:0|0:0|0:0,0:0:0
376,168,26249,1,0,0:0:0
376,168,26343,1,0,0:0:0
376,168,26437,2,0,P|348:204|308:224,1,90,4|0,0:0|0:0,0:0:0
220,232,26812,1,2,0:0:0
264,312,26999,1,0,0:0:0
180,336,27187,2,0,P|136:348|92:336,1,90
48,260,27562,2,0,P|92:248|136:260,1,90,2|0,0:0|0:0,0:0:0
128,168,27937,6,0,P|96:136|84:93,1,90,0|0,0:0|0:0,0:0:0
220,164,28312,2,0,P|252:196|263:238,1,90,2|0,0:0|0:0,0:0:0
260,44,28687,1,0,0:0:0
468,96,28874,1,2,0:0:0
380,12,29062,1,2,0:0:0
348,128,29249,1,0,0:0:0
376,252,29437,6,0,P|388:296|380:340,1,90,4|0,0:0|0:0,0:0:0
296,304,29812,2,0,P|284:348|255:382,1,90,2|0,0:0|0:0,0:0:0
124,356,30187,1,0,0:0:0
188,296,30374,1,4,0:0:0
64,256,30562,2,0,P|104:236|128:196,1,90,2|0,0:0|0:0,0:0:0
226,180,30937,6,0,P|192:165|168:120,1,90,4|0,0:0|0:0,0:0:0
64,88,31312,2,0,P|99:73|123:29,1,90,2|0,0:0|0:0,0:0:0
256,64,31687,1,0,0:0:0
380,112,31874,1,4,0:0:0
380,112,31968,1,0,0:0:0
380,112,32062,6,0,P|368:68|380:24,1,90,4|0,0:0|0:0,0:0:0
464,144,32437,6,0,P|476:188|464:232,1,90,4|0,0:0|0:0,0:0:0
374,337,32812,2,0,P|364:296|376:252,1,90,8|0,0:0|0:0,0:0:0
412,42,33187,1,0,0:0:0
420,180,33374,1,0,0:0:0
300,114,33562,1,8,0:0:0
164,68,33749,5,0,0:0:0
164,68,33937,2,0,P|144:156,1,90
100,332,34312,1,8,0:0:0
101,331,34499,2,0,P|36:316|12:240|52:188,1,180
124,244,35062,2,0,P|160:276,2,45,8|8|8,0:0|0:0|0:0,0:0:0
208,216,35437,6,0,P|208:168|224:128,1,90,4|0,0:0|0:0,0:0:0
272,52,35812,2,0,P|228:48|184:32,2,90,8|0|0,0:0|0:0|0:0,0:0:0
408,48,36374,1,0,0:0:0
364,176,36562,1,8,0:0:0
496,152,36749,1,0,0:0:0
324,304,36937,6,0,P|280:288|252:256,1,90
196,184,37312,1,8,0:0:0
40,96,37499,2,0,P|64:132|68:180,1,90
68,200,37780,1,0,0:0:0
68,224,37874,2,0,P|72:268|92:308,1,90
112,324,38155,1,0,0:0:0
132,336,38249,1,0,0:0:0
224,340,38437,6,0,P|264:320|296:288,1,90,4|0,0:0|0:0,0:0:0
388,288,38812,2,0,P|420:320|460:340,1,90,8|0,0:0|0:0,0:0:0
344,212,39187,1,0,0:0:0
392,136,39374,2,0,P|424:104|464:84,2,90,0|8|0,0:0|0:0|0:0,0:0:0
463,84,39937,6,0,P|420:72|384:44,1,90
296,36,40312,1,8,0:0:0
208,48,40499,2,0,P|172:128|104:188,1,180
27,147,41062,2,0,P|70:159|104:188,1,90,8|0,0:0|0:0,0:0:0
100,96,41437,5,0,0:0:0
184,244,41624,2,0,P|224:220|244:180,2,90,0|8|0,0:0|0:0|0:0,0:0:0
100,280,42187,1,0,0:0:0
172,332,42374,6,0,P|216:348|260:344,1,90
348,251,42749,1,0,0:0:0
473,270,42937,1,0,0:0:0
401,323,43124,5,0,0:0:0
420,196,43312,2,0,P|444:156|452:112,1,90,8|0,0:0|0:0,0:0:0
284,80,43874,1,0,0:0:0
284,80,44062,2,0,P|320:108|364:120,1,90,8|0,0:0|0:0,0:0:0
368,264,44437,6,0,P|336:294|294:311,1,90,4|0,0:0|0:0,0:0:0
160,320,44812,1,8,0:0:0
220,252,44999,2,0,P|248:216|256:172,1,90
192,56,45374,1,0,0:0:0
48,133,45562,2,0,P|80:164|124:172,1,90,8|0,0:0|0:0,0:0:0
8,52,45937,5,0,0:0:0
24,184,46124,1,0,0:0:0
24,320,46312,2,0,P|64:292|116:304|116:304|136:272,1,135,8|0,0:0|0:0,0:0:0
156,232,46687,1,0,0:0:0
196,252,46780,1,0,0:0:0
236,272,46874,2,0,P|232:228|240:180,1,90,8|8,0:0|0:0,0:0:0
260,96,47249,1,0,0:0:0
392,68,47437,5,4,0:0:0
488,164,47624,1,0,0:0:0
352,172,47812,1,8,0:0:0
387,303,47999,2,0,P|340:296|308:268,1,90,0|4,0:0|0:0,0:0:0
141,309,48374,6,0,P|188:302|220:276,1,90
76,248,48749,1,0,0:0:0
124,172,48937,2,0,P|108:128|124:80,1,90,4|0,0:0|0:0,0:0:0
124,172,49312,2,0,P|152:136|196:112,1,90,8|0,0:0|0:0,0:0:0
272,72,49687,2,0,P|300:36,2,45,0|0|8,0:0|0:0|0:0,0:0:0
224,148,50062,2,0,P|204:188|204:232,1,90,8|0,0:0|0:0,0:0:0
244,312,50437,5,4,0:0:0
420,280,50812,2,0,P|432:188|476:112,1,180,8|0,0:0|0:0,0:0:0
460,24,51374,1,0,0:0:0
388,76,51562,2,0,P|364:108|344:156,1,90,8|0,0:0|0:0,0:0:0
332,244,51937,6,0,P|292:228|260:192,1,90
137,213,52312,2,0,P|177:229|208:264,1,90,8|0,0:0|0:0,0:0:0
232,352,52687,1,0,0:0:0
144,352,52874,1,0,0:0:0
68,304,53062,1,8,0:0:0
44,216,53249,1,0,0:0:0
88,136,53437,6,0,P|72:88|44:60,2,90,0|0|8,0:0|0:0|0:0,0:0:0
284,84,54187,1,0,0:0:0
264,172,54374,2,0,P|280:220|308:248,2,90,0|0|8,0:0|0:0|0:0,0:0:0
372,76,54937,6,0,P|392:36,2,45
412,156,55312,2,0,P|444:120|458:78,1,90
432,236,55687,1,8,0:0:0
432,236,55780,2,0,P|412:280|412:324,1,90
432,364,56062,2,0,P|400:304|320:228,1,180,8|4,0:0|0:0,0:0:0
168,132,56812,5,8,0:0:0
36,256,57187,2,0,P|114:290|146:325,1,135
176,360,57562,2,0,P|236:292,1,90,8|0,0:0|0:0,0:0:0
292,224,57937,1,0,0:0:0
292,224,58030,1,0,0:0:0
292,224,58124,2,0,P|208:188,1,90,0|8,0:0|0:0,0:0:0
128,152,58499,1,0,0:0:0
128,152,58687,6,0,P|122:109|143:64,1,90
128,152,59062,2,0,P|200:100|292:88,1,180,8|4,0:0|0:0,0:0:0
464,128,59812,1,8,0:0:0
368,280,60187,1,0,0:0:0
448,320,60374,1,0,0:0:0
372,368,60562,2,0,P|324:360|280:360,1,90,8|0,0:0|0:0,0:0:0
192,360,60937,5,0,0:0:0
124,300,61124,1,0,0:0:0
40,272,61312,2,0,P|80:244|104:208,1,90,8|0,0:0|0:0,0:0:0
112,180,61593,1,0,0:0:0
112,148,61687,1,0,0:0:0
104,120,61780,2,0,P|148:96|192:92,1,90
204,116,62062,2,0,P|292:92,1,90,8|0,0:3|0:0,0:0:0
376,60,62437,5,4,0:0:0
436,216,62812,2,0,P|372:152,1,90,0|0,0:0|0:0,0:0:0
396,296,63187,2,0,P|332:232,1,90
364,380,63562,2,0,P|300:316,1,90,0|0,0:0|0:0,0:0:0
172,280,63937,1,0,0:0:0
40,244,64124,1,0,0:0:0
152,172,64312,1,8,0:0:0
80,56,64499,5,0,0:0:0
80,56,64593,1,0,0:0:0
80,56,64687,2,0,P|124:68|168:60,1,90,4|0,0:0|0:0,0:0:0
432,56,65062,2,0,P|388:68|344:60,1,90,12|0,0:0|0:0,0:0:0
256,44,65437,6,0,P|256:316,1,270.000010299683,4|8,0:0|0:0,0:0:0
392,324,65999,1,0,0:0:0
468,212,66187,6,0,P|428:216|384:192,1,90,2|0,0:0|0:0,0:0:0
400,40,66562,1,8,0:0:0
344,112,66749,1,0,0:0:0
264,156,66937,2,0,P|224:176|180:176,1,90,2|0,0:0|0:0,0:0:0
124,32,67312,1,8,0:0:0
108,120,67499,1,0,0:0:0
96,208,67687,2,2,P|72:240|28:264,1,90,2|0,0:0|0:0,0:0:0
140,288,68062,2,0,P|164:324|204:348,1,90,8|0,0:0|0:0,0:0:0
236,356,68343,1,0,0:0:0
268,356,68437,6,0,P|312:348|344:316,1,90,4|0,0:0|0:0,0:0:0
384,236,68812,2,0,P|404:192|436:164,1,90,8|0,0:0|0:0,0:0:0
500,104,69187,2,0,P|444:120|372:100,1,135,2|0,0:0|0:0,0:0:0
332,80,69562,2,0,P|316:118|276:142,1,90,8|0,0:0|0:0,0:0:0
240,60,69937,2,0,P|188:108|188:168,1,135,2|0,0:0|0:0,0:0:0
200,212,70312,2,0,P|160:188|116:192,1,90,8|0,0:0|0:0,0:0:0
32,216,70687,2,0,P|32:288|0:344,1,135,2|0,0:0|0:0,0:0:0
44,328,71062,2,0,P|84:312|132:308,1,90,8|8,0:0|0:0,0:0:0
264,312,71437,5,4,0:0:0
400,328,71624,1,0,0:0:0
464,208,71812,1,8,0:0:0
436,76,71999,1,0,0:0:0
308,36,72187,2,0,P|304:100|336:164,1,135,2|0,0:0|0:0,0:0:0
368,192,72562,2,0,P|328:176|280:172,1,90,8|0,0:0|0:0,0:0:0
192,176,72937,6,0,P|148:176|100:200|80:240,1,135,2|0,0:0|0:0,0:0:0
56,280,73312,2,0,P|68:220|64:188,1,90,8|0,0:0|0:0,0:0:0
60,100,73687,2,0,P|104:80|156:92|156:92|152:68|164:56,1,135,2|0,0:0|0:0,0:0:0
180,16,74062,6,0,P|216:44|260:56,1,90,8|0,0:0|0:0,0:0:0
405,92,74437,1,4,0:0:0
468,248,74624,1,0,0:0:0
512,140,74812,5,8,0:0:0
358,200,74999,1,0,0:0:0
212,264,75187,2,0,P|172:284|128:280,1,90,2|0,0:0|0:0,0:0:0
68,212,75562,6,0,P|70:167|96:131,1,90,8|8,0:0|0:0,0:0:0
216,24,75937,1,4,0:0:0
340,156,76124,1,8,0:0:0
160,196,76312,1,8,0:0:0
188,112,76499,5,4,0:0:0
280,88,76687,1,8,0:0:0
252,176,76874,1,8,0:0:0
272,264,77062,1,8,0:0:0
292,288,77155,1,8,0:0:0
320,304,77249,1,8,0:0:0
348,316,77343,1,8,0:0:0
380,320,77437,6,0,P|364:240|388:144,1,180,4|8,0:0|0:0,0:0:0
440,72,77999,1,0,0:0:0
473,157,78187,2,0,P|429:161|387:146,1,90,2|0,0:0|0:0,0:0:0
272,76,78562,1,8,0:0:0
268,212,78749,1,0,0:0:0
372,300,78937,6,0,P|412:316|460:308,1,90,2|0,0:0|0:0,0:0:0
356,216,79312,1,8,0:0:0
248,296,79499,1,0,0:0:0
120,252,79687,2,0,P|90:215|85:172,1,90,2|0,0:0|0:0,0:0:0
148,52,80062,1,8,0:0:0
264,120,80249,1,8,0:0:0
400,120,80437,6,0,P|440:100|456:60,2,90,4|0|8,0:0|0:0|0:0,0:0:0
312,120,80999,1,0,0:0:0
400,120,81187,2,0,P|440:140|456:180,1,90,2|0,0:0|0:0,0:0:0
428,268,81562,1,8,0:0:0
332,380,81749,1,0,0:0:0
340,292,81937,6,0,P|288:304|260:328,1,90,2|0,0:0|0:0,0:0:0
188,380,82312,2,0,P|188:328|176:292,1,90,8|0,0:0|0:0,0:0:0
152,252,82593,2,0,P|132:204|164:168|164:168|144:140|140:120,1,135
104,48,83062,2,0,P|152:60|192:60,1,90,8|8,0:0|0:0,0:0:0
280,48,83437,6,0,P|280:140,1,90,4|0,0:0|0:0,0:0:0
280,228,83812,1,8,0:0:0
368,92,83999,2,0,P|368:192,1,99.0000030212403,4|0,0:0|0:0,0:0:0
368,292,84374,1,0,0:0:0
456,136,84562,2,0,P|456:244,1,107.999996704102,8|4,0:0|0:0,0:0:0
212,340,85124,1,0,0:0:0
132,300,85312,5,8,0:0:0
108,272,85405,1,0,0:0:0
104,236,85499,1,0,0:0:0
104,120,85687,2,0,P|68:88,2,45
220,140,86062,1,8,0:0:0
244,168,86155,1,0,0:0:0
252,204,86249,1,0,0:0:0
316,264,86437,6,0,P|400:232,1,90,4|0,0:0|0:0,0:0:0
420,144,86812,1,8,0:0:0
416,328,86999,2,0,P|500:296,1,90,4|0,0:0|0:0,0:0:0
420,144,87374,1,0,0:0:0
352,84,87562,1,8,0:0:0
352,84,87655,1,0,0:0:0
352,84,87749,6,0,P|284:80|256:92|256:92|208:112|160:112,1,180,4|0,0:0|0:0,0:0:0
84,112,88312,1,0,0:0:0
36,196,88499,2,0,P|4:164,2,45,2|0|0,0:0|0:0|0:0,0:0:0
104,268,88874,1,0,0:0:0
196,232,89062,1,0,0:0:0
188,132,89249,1,2,0:0:0
188,132,89343,1,0,0:0:0
188,132,89437,1,4,0:0:0
256,192,89530,12,0,92437,0:0:0
116,112,95437,6,0,P|160:100|204:112,1,90,4|0,0:0|0:0,0:0:0
160,188,95812,1,8,0:0:0
205,266,95999,2,0,P|236:236|248:192,2,90
292,112,96562,2,0,P|372:64,1,90,8|0,0:0|0:0,0:0:0
460,76,96937,6,0,P|476:120|460:160,1,90,0|0,0:0|0:0,0:0:0
394,306,97312,2,0,P|380:268|396:224,1,90,8|0,0:0|0:0,0:0:0
476,268,97687,1,0,0:0:0
384,116,97874,1,0,0:0:0
284,268,98062,1,8,0:0:0
252,276,98155,1,0,0:0:0
220,272,98249,1,0,0:0:0
192,260,98343,1,0,0:0:0
172,236,98437,6,0,P|200:204|212:156,1,90,2|0,0:0|0:0,0:0:0
132,120,98812,2,0,P|104:152|92:200,1,90,8|0,0:0|0:0,0:0:0
96,288,99187,2,0,P|52:304|8:304,2,90,0|0|8,0:0|0:0|0:0,0:0:0
212,160,99749,1,0,0:0:0
340,48,99937,6,0,P|384:36|428:48,1,90,0|0,0:0|0:0,0:0:0
459,170,100312,2,0,P|428:139|384:128,1,90,8|0,0:0|0:0,0:0:0
384,220,100687,2,0,P|416:252|428:296,1,90
337,381,101062,2,0,P|348:340|336:296,1,90,8|0,0:0|0:0,0:0:0
288,220,101437,5,2,0:0:0
200,132,101624,1,0,0:0:0
292,132,101812,1,8,0:0:0
200,220,101999,1,0,0:0:0
144,292,102187,2,0,P|100:312|60:312,1,90,0|0,0:0|0:0,0:0:0
0,204,102562,2,0,P|44:224|84:224,1,90,8|0,0:0|0:0,0:0:0
80,52,102937,6,0,P|60:96|60:136,1,90,0|0,0:0|0:0,0:0:0
232,132,103312,2,0,P|188:112|148:112,1,90,8|0,0:0|0:0,0:0:0
172,200,103687,2,0,P|216:220|256:220,1,90
436,192,104062,1,8,0:0:0
324,52,104249,1,0,0:0:0
368,132,104437,6,0,P|344:168|348:212,1,90,4|0,0:0|0:0,0:0:0
416,276,104812,1,8,0:0:0
456,112,104999,1,0,0:0:0
288,156,105187,2,0,P|248:140|216:104,1,90,0|0,0:0|0:0,0:0:0
144,56,105562,2,0,P|156:104|152:144,1,90,8|0,0:0|0:0,0:0:0
136,188,105843,1,0,0:0:0
112,228,105937,6,0,P|76:252|28:260,1,90,4|0,0:0|0:0,0:0:0
64,344,106312,1,8,0:0:0
152,348,106499,2,0,P|192:376,2,45,4|0|0,0:0|0:0|0:0,0:0:0
216,288,106874,2,0,P|228:244|252:204,1,90
272,184,107155,1,0,0:0:0
300,168,107249,6,0,P|208:152|148:92,1,180,4|0,0:0|0:0,0:0:0
220,40,107812,1,8,0:0:0
300,76,107999,1,8,0:0:0
388,104,108187,1,4,0:0:0
416,112,108280,1,0,0:0:0
448,112,108374,1,0,0:0:0
476,96,108468,1,0,0:0:0
492,68,108562,6,0,P|484:16|416:12|368:48|388:104,1,180,12|4,0:0|0:0,0:0:0
420,188,109124,1,0,0:0:0
428,276,109312,2,0,P|460:312|500:324,2,90,8|0|0,0:0|0:0|0:0,0:0:0
420,188,109874,1,0,0:0:0
356,324,110062,2,0,P|316:348|272:356,1,90,8|0,0:0|0:0,0:0:0
188,332,110437,5,0,0:0:0
103,304,110624,1,0,0:0:0
257,270,110812,1,8,0:0:0
86,215,110999,2,0,P|164:180|196:96,1,180
160,12,111562,2,0,P|121:38|107:78,1,90,8|0,0:0|0:0,0:0:0
148,160,111937,6,0,P|180:188|228:196,1,90,0|0,0:0|0:0,0:0:0
316,200,112312,1,8,0:0:0
272,72,112499,1,0,0:0:0
348,120,112687,2,0,P|388:92|396:52,2,90,0|0|8,0:0|0:0|0:0,0:0:0
272,72,113249,1,0,0:0:0
404,192,113437,2,0,P|452:187|479:157,2,90,0|0|8,0:0|0:0|0:0,0:0:0
316,200,113999,2,0,P|356:284|424:336,1,180
464,256,114562,2,8,P|504:236,2,45,0|8|8,0:0|0:0|0:0,0:0:0
296,332,114937,5,4,0:0:0
208,344,115124,1,0,0:0:0
156,272,115312,2,0,P|140:228|104:204,1,90,8|0,0:0|0:0,0:0:0
68,288,115687,2,0,P|84:332|120:356,2,90,0|0|8,0:0|0:0|0:0,0:0:0
16,212,116249,1,0,0:0:0
244,260,116437,2,0,P|232:220|192:192,1,90
104,200,116812,1,8,0:0:0
336,252,116999,2,0,P|300:164|232:116,1,180
152,76,117562,2,0,P|112:56,2,45,8|0|0,0:0|0:0|0:0,0:0:0
276,96,117937,5,4,0:0:0
380,10,118124,1,0,0:0:0
466,115,118312,1,8,0:0:0
360,201,118499,2,0,P|372:288|312:352,1,180,2|0,0:0|0:0,0:0:0
224,332,119062,1,8,0:0:0
67,269,119249,2,0,P|106:259|152:276,2,90,4|0|0,0:0|0:0|0:0,0:0:0
232,236,119812,1,12,0:0:0
24,152,119999,2,0,P|112:132|196:156,1,180,0|0,0:0|0:0,0:0:0
320,212,120562,5,12,0:0:0
308,76,120749,1,8,0:0:0
396,52,120937,2,0,P|412:140|408:232,1,180,4|8,0:0|0:0,0:0:0
480,12,121687,5,0,0:0:0
512,144,121874,1,0,0:0:0
484,276,122062,1,8,0:0:0
316,340,122437,5,0,0:0:0
228,336,122624,1,0,0:0:0
148,296,122812,2,0,P|116:264|96:224,1,90,8|0,0:0|0:0,0:0:0
68,140,123187,5,0,0:0:0
88,52,123374,2,0,P|40:44|-4:48,2,90,0|8|0,0:0|0:0|0:0,0:0:0
152,116,123937,1,0,0:0:0
236,152,124124,1,0,0:0:0
324,144,124312,2,0,P|296:108|292:64,1,90,8|0,0:0|0:0,0:0:0
376,28,124687,5,0,0:0:0
460,60,124874,2,0,P|488:96|492:140,1,90,0|8,0:0|0:0,0:0:0
460,224,125249,1,0,0:0:0
460,224,125437,2,0,P|416:232|371:225,1,90
324,300,125812,2,0,P|279:306|235:298,1,90,8|0,0:0|0:0,0:0:0
152,268,126187,5,0,3:0:0
152,268,126280,1,0,3:0:0
152,268,126374,1,0,3:0:0
64,248,126562,1,0,3:0:0
64,248,126655,1,0,3:0:0
64,248,126749,1,8,3:0:0
64,248,126843,1,4,3:0:0
64,248,126937,6,0,P|128:220|180:176,1,135.000005149842,4|2,2:0|3:0,0:0:0
177,38,127687,2,0,P|113:66|64:108,1,135.000005149842,0|2,0:0|3:0,0:0:0
356,44,128437,5,8,0:3:0
356,44,128624,1,8,0:3:0
292,108,128812,1,8,0:3:0
292,108,128999,1,8,0:3:0
400,124,129187,1,8,0:3:0
296,196,129374,1,8,0:3:0
440,204,129562,1,12,0:3:0
304,288,129749,1,8,0:3:0
304,288,129843,1,8,0:3:0
304,288,129937,6,0,P|328:268|364:260,2,67.5000025749208,4|0|0,0:0|0:0|0:0,0:0:0
216,340,130499,1,0,0:0:0
128,196,130687,2,0,P|152:232|172:244,2,67.5000025749208,2|0|8,0:0|0:0|0:0,0:0:0
84,104,131249,1,0,0:0:0
184,112,131437,2,0,P|208:80|230:64,1,67.5000025749208,2|0,0:0|0:0,0:0:0
336,52,131812,2,0,P|336:16,2,33.7500012874604,8|0|0,0:0|0:0|0:0,0:0:0
420,108,132187,5,2,0:0:0
336,152,132374,1,0,0:0:0
508,148,132562,1,8,3:0:0
332,252,132749,1,8,3:0:0
164,148,132937,1,4,3:0:0
196,308,133687,6,0,P|240:312|288:300,2,90.0000034332277
176,300,134249,5,0,0:0:0
152,288,134343,1,0,0:0:0
132,272,134437,2,0,P|96:300,3,45,0|0|0|0,0:0|0:0|0:0|0:0,0:0:0
124,252,134812,5,0,0:0:0
116,232,134905,1,0,0:0:0
108,212,134999,1,0,0:0:0
100,192,135093,1,0,0:0:0
92,172,135187,2,0,P|140:172,3,45,0|0|0|0,0:0|0:0|0:0|0:0,0:0:0
96,148,135562,5,0,0:0:0
104,128,135655,1,0,0:0:0
112,108,135749,1,0,0:0:0
120,88,135843,1,0,0:0:0
128,68,135937,6,0,P|188:96|248:68,1,135,4|0,0:0|0:0,0:0:0
284,40,136312,2,0,P|256:72|248:120,1,90,8|0,0:0|0:0,0:0:0
212,200,136687,2,0,P|253:208|299:191,1,90,2|0,0:0|0:0,0:0:0
332,108,137062,2,0,P|323:149|340:195,1,90,8|0,0:0|0:0,0:0:0
396,264,137437,5,2,0:0:0
496,120,137624,1,0,0:0:0
408,144,137812,2,0,P|428:180|471:206,1,90,8|0,0:0|0:0,0:0:0
404,44,138187,1,2,0:0:0
284,176,138374,1,0,0:0:0
316,352,138562,2,0,P|360:372|400:368,1,90,8|8,0:0|0:0,0:0:0
284,268,138937,6,0,P|244:284|216:320,1,90,4|0,0:0|0:0,0:0:0
144,264,139312,2,0,P|104:268|60:248,1,90,8|0,0:0|0:0,0:0:0
192,128,139687,1,2,0:0:0
116,180,139874,1,0,0:0:0
52,28,140062,2,0,P|76:68|116:84,1,90,8|0,0:0|0:0,0:0:0
192,40,140437,5,2,0:0:0
273,169,140624,1,0,0:0:0
268,79,140812,1,8,0:0:0
197,217,140999,1,0,0:0:0
273,169,141187,5,2,0:0:0
116,176,141374,1,0,0:0:0
197,217,141562,1,8,0:0:0
113,85,141749,1,8,0:0:0
30,217,141937,6,0,P|20:180|32:132,2,90,4|0|8,0:0|0:0|0:0,0:0:0
120,320,142499,2,0,P|164:324|208:316,1,90,0|2,0:0|0:0,0:0:0
368,232,142874,1,0,0:0:0
284,260,143062,2,0,P|304:296|348:320,1,90,8|0,0:0|0:0,0:0:0
452,208,143437,2,0,P|432:172|388:148,1,90,2|0,0:0|0:0,0:0:0
300,148,143812,2,0,P|252:144|216:120,1,90,8|0,0:0|0:0,0:0:0
120,32,144187,6,0,P|138:69|134:117,1,90,2|0,0:0|0:0,0:0:0
64,176,144562,1,8,0:0:0
44,88,144749,1,8,0:0:0
212,64,144937,6,0,P|256:56|299:67,2,90,2|0|8,0:0|0:0|0:0,0:0:0
346,230,145499,2,0,P|336:188|348:144,1,90,0|2,0:0|0:0,0:0:0
428,192,145874,1,0,0:0:0
280,292,146062,1,8,0:0:0
176,148,146249,1,0,0:0:0
252,100,146437,5,4,0:0:0
252,188,146624,1,0,0:0:0
176,148,146812,1,8,0:0:0
328,52,146999,5,4,0:0:0
332,232,147187,1,0,0:0:0
176,148,147374,1,0,0:0:0
332,144,147562,5,8,0:0:0
332,144,147655,1,8,0:0:0
332,144,147749,1,8,0:0:0
332,144,147843,1,8,0:0:0
332,144,147937,2,0,P|392:168|420:232,1,135,4|0,0:0|0:0,0:0:0
432,272,148312,2,0,P|436:236|456:184,1,90,8|0,0:0|0:0,0:0:0
512,64,148687,5,0,0:0:0
376,76,148874,1,0,0:0:0
252,128,149062,2,0,P|274:89|282:45,2,90,8|0|0,0:0|0:0|0:0,0:0:0
144,48,149624,1,0,0:0:0
36,128,149812,2,0,P|13:89|5:45,2,90,8|0|0,0:0|0:0|0:0,0:0:0
80,204,150374,1,0,0:0:0
96,292,150562,2,0,P|79:338|55:372,1,90,8|8,0:0|0:0,0:0:0
136,336,150937,6,0,P|180:314|220:310,1,90,4|0,0:0|0:0,0:0:0
312,312,151312,1,8,0:0:0
224,196,151499,1,0,0:0:0
312,208,151687,2,0,P|352:196|388:160,1,90,0|0,0:0|0:0,0:0:0
350,37,152062,2,0,P|334:81|308:116,1,90,8|0,0:0|0:0,0:0:0
172,120,152437,5,4,0:0:0
44,80,152624,1,0,0:0:0
80,212,152812,2,0,P|116:240|140:280,1,90,8|0,0:0|0:0,0:0:0
140,324,153093,2,0,P|136:352|136:352|180:320|236:320,1,135
328,320,153562,1,8,0:0:0
496,260,153749,1,8,0:0:0
416,216,153937,6,0,P|372:204|328:212,1,90,4|0,0:0|0:0,0:0:0
496,260,154312,1,8,0:0:0
428,164,154499,2,0,P|395:131|353:116,1,90,4|0,0:0|0:0,0:0:0
496,260,154874,1,0,0:0:0
464,128,155062,2,0,P|452:83|423:49,1,90,8|4,0:0|0:0,0:0:0
223,140,155624,5,0,0:0:0
304,30,155812,1,8,0:0:0
412,111,155999,1,0,0:0:0
332,220,156187,5,0,0:0:0
317,240,156280,1,0,0:0:0
298,254,156374,1,0,0:0:0
276,258,156468,1,0,0:0:0
254,259,156562,1,8,0:0:0
234,255,156655,1,0,0:0:0
213,243,156749,1,0,0:0:0
199,225,156843,1,0,0:0:0
183,211,156937,6,0,P|140:204|96:216,1,90,4|0,0:0|0:0,0:0:0
16,260,157312,1,8,0:0:0
157,116,157499,2,0,P|116:131|84:164,1,90,4|0,0:0|0:0,0:0:0
16,260,157874,1,8,0:0:0
83,50,158062,2,0,P|55:83|44:128,1,90,0|4,0:0|0:0,0:0:0
164,312,158624,6,0,P|200:340|248:352,1,90,0|8,0:0|0:0,0:0:0
320,308,158999,2,0,P|340:332|372:336|372:336|388:348|388:348|388:324|388:324|404:336|404:336|436:332|456:308,2,180
308,220,159937,6,0,P|344:188|388:180,1,90
472,192,160312,1,8,0:0:0
416,264,160499,1,0,0:0:0
436,108,160687,2,0,P|456:72|496:44,1,90
286,60,161062,2,0,P|324:80|348:120,1,90,8|0,0:0|0:0,0:0:0
260,144,161437,6,0,P|240:180|200:208,1,90
112,184,161812,2,0,P|72:212|52:248,2,90,8|0|0,0:0|0:0|0:0,0:0:0
140,272,162374,1,0,0:0:0
172,116,162562,1,8,0:0:0
292,228,162749,1,8,0:0:0
372,272,162937,6,0,P|416:284|460:272,2,90,0|0|8,0:0|0:0|0:0,0:0:0
416,196,163499,2,0,P|460:184|486:150,2,90,0|0|8,0:0|0:0|0:0,0:0:0
292,132,164062,1,8,0:0:0
384,100,164249,1,8,0:0:0
320,228,164437,6,0,P|288:260|272:304,1,90
136,230,164812,2,0,P|168:262|184:304,1,90,8|0,0:0|0:0,0:0:0
228,220,165187,2,0,P|228:130,2,90,0|8|8,0:0|0:0|0:0,0:0:0
188,36,165749,1,8,0:0:0
232,24,165843,1,8,0:0:0
276,36,165937,1,8,0:0:0
192,76,171937,5,0,0:0:0
92,220,172312,2,0,P|56:212|28:196,2,67.5000025749208,8|0|8,0:0|0:0|0:0,0:0:0
268,228,173062,2,0,P|304:236|332:252,1,67.5000025749208,8|8,0:0|0:0,0:0:0
472,356,173624,5,0,0:0:0
484,268,173812,1,8,0:0:0
464,184,173999,1,8,0:0:0
412,112,174187,2,0,P|448:100,2,33.7500012874604,0|0|0,0:0|0:0|0:0,0:0:0
324,124,174562,2,0,P|288:124|256:112,1,67.5000025749208,0|8,0:0|0:0,0:0:0
228,100,174843,1,8,0:0:0
196,92,174937,6,0,P|128:84|64:96,2,135.000005149842,0|0|8,0:0|0:0|0:0,0:0:0
52,192,176062,1,0,0:0:0
52,192,176249,1,4,0:0:0
144,340,176624,6,0,P|108:336|80:320,2,67.5000025749208,0|8|0,0:0|0:0|0:0,0:0:0
232,340,177187,1,8,0:0:0
316,324,177374,1,8,0:0:0
396,284,177562,1,0,0:0:0
376,256,177655,1,0,0:0:0
348,236,177749,1,0,0:0:0
320,220,177843,1,0,0:0:0
292,208,177937,6,0,P|228:196|160:204,1,135.000005149842,4|0,0:0|0:0,0:0:0
72,220,178499,1,0,0:0:0
40,136,178687,1,0,0:0:0
64,52,178874,2,0,P|128:36|196:40,2,135.000005149842
228,116,179999,6,0,P|296:120|360:104,1,135.000005149842
444,260,180749,2,0,P|472:288,2,33.7500012874604,0|0|4,0:0|0:0|2:0,0:0:0
360,292,181124,1,0,0:0:0
276,316,181312,2,0,P|208:324|140:316,1,135.000005149842
36,180,182062,6,0,P|64:200|96:208,1,67.5000025749208,0|0,0:3|0:0,0:0:0
120,212,182343,1,0,0:0:0
144,216,182437,1,0,0:0:0
232,228,182624,1,0,0:0:0
320,208,182812,5,0,0:0:0
332,186,182905,1,0,0:0:0
337,162,182999,1,0,0:0:0
338,138,183093,1,0,0:0:0
335,117,183187,1,0,0:0:0
327,95,183280,1,0,0:0:0
310,79,183374,1,0,0:0:0
293,63,183468,1,0,0:0:0
272,56,183562,1,0,0:0:0
200,108,183749,5,0,0:0:0
112,84,183937,5,0,0:0:0
112,84,184312,1,0,0:0:0
396,304,185062,5,0,0:0:0
396,304,185437,1,0,0:0:0
128,296,185999,6,0,P|88:280|60:244,2,90,0|2|0,0:0|0:0|0:0,0:0:0
216,308,186562,1,0,0:0:0
396,304,186937,2,0,P|448:231|448:231|439:141,1,180
196,28,187874,2,0,P|143:100|143:100|152:190,1,180,0|4,0:0|0:0,0:0:0
416,68,189937,5,4,0:0:0
416,68,190312,1,2,0:0:0
344,232,190687,2,0,P|368:192|405:172,2,90,0|0|2,0:0|0:0|0:0,0:0:0
512,136,191249,1,0,0:0:0
300,312,191437,2,0,P|276:352|236:372,1,90
208,284,191812,2,0,P|167:306|122:303,1,90,2|0,0:0|0:0,0:0:0
144,216,192187,1,0,0:0:0
32,140,192374,1,0,0:0:0
116,32,192562,1,2,0:0:0
224,116,192749,1,0,0:0:0
288,52,192937,6,0,P|380:60|456:104,1,180,4|2,0:0|0:0,0:0:0
337,93,193687,2,0,P|412:145|456:222,1,180,0|2,0:0|0:0,0:0:0
358,153,194437,2,0,P|388:196|396:236,2,90,0|8|2,0:0|0:0|0:0,0:0:0
348,216,195187,2,0,P|340:308|296:384,1,180,0|2,0:0|0:0,0:0:0
256,192,195937,12,0,198187,0:0:0
208,88,198937,6,0,P|252:76|296:80,1,90,4|0,0:0|0:0,0:0:0
176,172,199312,2,0,P|132:184|88:180,1,90,2|0,0:0|0:0,0:0:0
266,77,199687,2,0,P|310:89|346:115,1,90,2|0,0:0|0:0,0:0:0
196,134,200062,2,0,P|152:123|116:97,1,90,2|0,0:0|0:0,0:0:0
322,98,200437,2,0,P|354:130|372:170,1,90,2|0,0:0|0:0,0:0:0
233,112,200812,2,0,P|200:80|182:40,1,90,2|0,0:0|0:0,0:0:0
360,144,201187,2,0,P|372:187|367:231,1,90,2|0,0:0|0:0,0:0:0
276,111,201562,2,0,P|264:68|268:24,1,90,2|0,0:0|0:0,0:0:0
432,200,201937,5,2,0:0:0
416,288,202124,1,0,0:0:0
452,192,202312,1,2,0:0:0
432,308,202499,1,0,0:0:0
340,236,202687,6,0,P|336:280|316:320,1,90,2|0,0:0|0:0,0:0:0
284,164,203062,2,0,P|288:120|308:80,1,90,2|0,0:0|0:0,0:0:0
328,244,203437,2,0,P|346:284|349:328,1,90,2|0,0:0|0:0,0:0:0
272,172,203812,2,0,P|253:131|250:87,1,90,2|0,0:0|0:0,0:0:0
320,252,204187,2,0,P|356:277|380:314,1,90,2|0,0:0|0:0,0:0:0
264,180,204562,2,0,P|227:154|203:117,1,90,2|0,0:0|0:0,0:0:0
148,52,204937,5,2,0:0:0
68,92,205124,1,0,0:0:0
108,172,205312,1,2,0:0:0
188,132,205499,1,0,0:0:0
182,313,205687,5,2,0:0:0
277,229,205874,1,0,0:0:0
188,224,206062,1,2,0:0:0
272,316,206249,1,0,0:0:0
360,316,206437,6,0,P|404:312|444:288,1,90,2|0,0:0|0:0,0:0:0
376,228,206812,2,0,P|412:202|434:161,1,90,2|0,0:0|0:0,0:0:0
348,140,207187,2,0,P|366:99|365:53,1,90,2|0,0:0|0:0,0:0:0
276,36,207562,2,0,P|257:76|258:122,1,90,2|0,0:0|0:0,0:0:0
48,132,207937,6,0,P|73:168|114:190,1,90,2|0,0:0|0:0,0:0:0
244,186,208312,2,0,P|219:150|180:128,1,90,2|0,0:0|0:0,0:0:0
188,256,208687,2,0,P|213:292|254:314,1,90,2|0,0:0|0:0,0:0:0
385,311,209062,2,0,P|359:274|320:252,1,90,2|0,0:0|0:0,0:0:0
188,256,209437,1,2,0:0:0
120,140,209624,1,0,0:0:0
256,132,209812,1,2,0:0:0
184,16,209999,2,0,P|96:36|96:36|64:48|36:68|28:96,2,180,0|2|0,0:0|0:0|0:0,0:0:0
268,44,210937,1,2,0:0:0
428,128,211312,5,2,0:0:0
384,136,212062,1,2,0:0:0
340,144,212812,1,2,0:0:0
296,152,213562,2,0,P|248:156|208:144,1,90,2|0,0:0|0:0,0:0:0
260,68,213937,1,4,0:0:0
84,256,214312,5,2,0:0:0
128,248,215062,1,2,0:0:0
172,240,215812,1,2,0:0:0
216,232,216562,2,0,P|264:228|304:240,1,90,2|0,0:0|0:0,0:0:0
252,316,216937,5,4,0:0:0
385,194,217312,1,0,0:0:0
265,60,217687,1,0,0:0:0
131,180,218062,1,0,0:0:0
284,312,218437,1,0,0:0:0
386,166,218812,1,0,0:0:0
230,62,219187,5,0,0:0:0
132,212,219562,1,0,0:0:0
152,300,219749,1,0,0:0:0
152,300,219843,1,0,0:0:0
152,300,219937,2,0,P|236:328|328:328,1,180,4|0,0:0|0:0,0:0:0
428,180,220687,5,0,0:0:0
420,152,220780,1,0,0:0:0
404,124,220874,1,0,0:0:0
384,100,220968,1,0,0:0:0
360,80,221062,1,0,0:0:0
332,68,221155,1,0,0:0:0
300,64,221249,1,0,0:0:0
268,64,221343,1,0,0:0:0
240,80,221437,6,0,P|288:152|296:244,1,180,4|0,0:0|0:0,0:0:0
212,276,221999,1,12,0:0:0
200,188,222187,1,8,0:0:0
152,112,222374,1,8,0:0:0
72,72,222562,5,8,0:0:0
80,100,222655,1,8,0:0:0
84,132,222749,1,8,0:0:0
84,164,222843,1,8,0:0:0
80,196,222937,6,0,P|56:260|8:308,1,135,4|0,0:0|0:0,0:0:0
52,288,223312,2,0,P|96:284|140:292,1,90,8|0,0:0|0:0,0:0:0
228,316,223687,2,0,P|288:344|356:356,1,135,2|0,0:0|0:0,0:0:0
392,332,224062,2,0,P|416:296|460:276,1,90,8|0,0:0|0:0,0:0:0
484,364,224437,2,0,P|464:304|464:232,1,135,2|0,0:0|0:0,0:0:0
468,188,224812,2,0,P|424:212|384:216,1,90,8|0,0:0|0:0,0:0:0
296,220,225187,2,0,P|232:192|168:188,1,135,2|0,0:0|0:0,0:0:0
132,164,225562,2,0,P|184:160|220:148,1,90,8|8,0:0|0:0,0:0:0
292,96,225937,5,4,0:0:0
216,48,226124,1,0,0:0:0
128,56,226312,1,8,0:0:0
52,104,226499,1,0,0:0:0
36,192,226687,6,0,P|52:232|92:256,1,90,2|0,0:0|0:0,0:0:0
180,228,227062,1,8,0:0:0
52,104,227249,1,0,0:0:0
116,164,227437,2,0,P|152:140|200:140,1,90,2|0,0:0|0:0,0:0:0
360,220,227812,1,8,0:0:0
252,76,227999,1,0,0:0:0
340,88,228187,2,0,P|324:132|288:156,1,90,2|0,0:0|0:0,0:0:0
200,140,228562,1,8,0:0:0
360,220,228749,1,8,0:0:0
404,296,228937,6,0,P|432:332|472:352,2,90,4|0|8,0:0|0:0|0:0,0:0:0
360,132,229499,1,0,0:0:0
316,296,229687,2,0,P|288:332|249:351,1,90,2|0,0:0|0:0,0:0:0
180,292,230062,1,8,0:0:0
220,212,230249,1,0,0:0:0
316,212,230437,2,0,P|360:220|404:212,2,90,2|0|8,0:0|0:0|0:0,0:0:0
216,120,230999,1,0,0:0:0
344,80,231187,1,2,0:0:0
316,212,231374,1,0,0:0:0
216,120,231562,2,0,P|192:80|152:64,1,90,8|8,0:0|0:0,0:0:0
68,92,231937,6,0,P|45:132|51:175,2,90,4|0|8,0:0|0:0|0:0,0:0:0
136,148,232499,1,0,0:0:0
120,232,232687,2,0,P|166:231|200:204,1,90,2|0,0:0|0:0,0:0:0
216,180,232968,1,0,0:0:0
244,164,233062,1,8,0:0:0
276,164,233155,1,0,0:0:0
304,176,233249,1,0,0:0:0
368,240,233437,6,0,P|380:280|364:324,2,90,4|0|8,0:0|0:0|0:0,0:0:0
288,284,233999,1,12,0:0:0
444,196,234187,1,8,0:0:0
292,104,234374,1,8,0:0:0
224,48,234562,2,0,P|209:5,3,45,12|0|0|0,0:0|0:0|0:0|0:0,0:0:0
224,92,234937,6,0,P|200:148|136:180,1,135,4|0,0:0|0:0,0:0:0
92,180,235312,2,0,P|136:200|156:236,1,90,8|0,0:0|0:0,0:0:0
184,320,235687,1,2,0:0:0
96,308,235874,1,0,0:0:0
28,248,236062,2,0,P|0:208|0:168,1,90,8|0,0:0|0:0,0:0:0
16,80,236437,6,0,P|64:104|112:84|112:84|144:108,1,135,2|0,0:0|0:0,0:0:0
172,132,236812,2,0,P|240:192,1,90,8|0,0:0|0:0,0:0:0
296,260,237187,2,0,P|296:208|328:128,1,135,2|0,0:0|0:0,0:0:0
360,100,237562,2,0,P|360:148|376:188,1,90,8|8,0:0|0:0,0:0:0
420,264,237937,5,4,0:0:0
308,380,238124,1,0,0:0:0
392,348,238312,1,8,0:0:0
224,344,238499,1,0,0:0:0
196,260,238687,2,0,P|232:232|252:192,1,90,2|0,0:0|0:0,0:0:0
232,60,239062,1,8,0:0:0
124,144,239249,1,0,0:0:0
252,192,239437,5,2,0:0:0
364,120,239624,1,0,0:0:0
496,144,239812,1,8,0:0:0
492,176,239905,1,0,0:0:0
484,208,239999,1,0,0:0:0
468,236,240093,1,0,0:0:0
448,260,240187,2,0,P|412:292|372:304,1,90,0|0,0:0|0:0,0:0:0
284,304,240562,1,8,0:0:0
152,324,240749,1,8,0:0:0
144,188,240937,6,0,P|184:164|228:164,1,90,4|0,0:0|0:0,0:0:0
204,252,241312,1,8,0:0:0
296,104,241499,2,0,P|336:126|358:164,1,90,4|0,0:0|0:0,0:0:0
204,252,241874,1,0,0:0:0
436,208,242062,2,0,P|436:254|414:292,1,90,8|4,0:0|0:0,0:0:0
185,163,242624,6,0,P|228:164|268:188,2,90,0|8|0,0:0|0:0|0:0,0:0:0
264,280,243187,1,0,0:0:0
246,304,243280,1,0,0:0:0
219,315,243374,1,0,0:0:0
132,288,243562,1,8,0:0:0
116,260,243655,1,0,0:0:0
120,228,243749,1,0,0:0:0
184,108,243937,6,0,P|273:88,2,90,4|0|8,0:0|0:0|0:0,0:0:0
376,140,244499,2,0,P|288:160,2,90,4|0|0,0:0|0:0|0:0,0:0:0
479,192,245062,2,0,P|392:212,1,90,8|4,0:0|0:0,0:0:0
256,332,245624,5,0,0:0:0
163,293,245812,1,8,0:0:0
163,293,245999,1,0,0:0:0
93,199,246187,1,0,0:0:0
93,199,246374,1,0,0:0:0
180,84,246562,1,8,0:0:0
255,205,246749,2,0,P|344:224,1,90
256,192,247030,12,2,248437,0:0:0
