osu file format v13

[General]
AudioFilename: DAYS OF DASH.mp3
AudioLeadIn: 1000
PreviewTime: 57360
Countdown: 0
SampleSet: Soft
StackLeniency: 0.7
Mode: 0
LetterboxInBreaks: 0
WidescreenStoryboard: 0

[Editor]
DistanceSpacing: 0.9
BeatDivisor: 4
GridSize: 8
TimelineZoom: 1

[Metadata]
Title:DAYS of DASH
TitleUnicode:DAYS of DASH
Artist:Suzuki Konomi
ArtistUnicode:鈴木このみ
Creator:CXu
Version:Normal
Source:Sakurasou no Pet na Kanojo
Tags:The Pet Girl of さくら荘のペットな彼女 Kamoshida Hajime Mizoguchi Keiji TV Size KinomiCandy rEdo fear f_e_a_r
BeatmapID:276406
BeatmapSetID:105264

[Difficulty]
HPDrainRate:4
CircleSize:3
OverallDifficulty:4
ApproachRate:5
SliderMultiplier:1.3
SliderTickRate:1

[Events]
//Background and Video events
Video,0,"NanamiIsCooler.avi"
0,0,"NANAMIIIIIIIIIIIIIIIIIIIIII.jpg",0,0
//Break Periods
//Storyboard Layer 0 (Background)
//Storyboard Layer 1 (Fail)
//Storyboard Layer 2 (Pass)
//Storyboard Layer 3 (Foreground)
//Storyboard Sound Samples
//Background Colour Transformations
3,100,163,162,255

[TimingPoints]
1110,375,4,2,0,30,1,0
5610,-100,4,2,0,50,0,0
6172,-100,4,2,0,30,0,0
6735,-100,4,2,0,50,0,0
11985,-133.333333333333,4,2,0,50,0,0
12547,-100,4,2,0,50,0,0
13110,-100,4,2,0,40,0,0
25110,-100,4,2,0,50,0,0
31110,-100,4,2,0,40,0,0
43110,-100,4,2,0,50,0,0
58110,-100,4,2,0,60,0,1
69735,-100,4,2,0,40,0,1
70110,-100,4,2,0,60,0,1
81922,-100,4,2,0,60,0,0
82016,-100,4,2,0,5,0,0

[Colours]
Combo1 : 252,208,107
Combo2 : 143,189,252
Combo3 : 137,80,37
Combo4 : 233,136,247

[HitObjects]
416,280,1110,6,0,L|392:216,1,65,2|2,0:0|0:0,0:0:0:0:
344,72,1672,1,2,0:0:0:0:
344,72,1860,2,0,P|288:96|272:176,2,130,2|2|0,0:0|0:0|0:0,0:0:0:0:
216,364,4110,6,0,L|148:324,1,65,2|2,0:0|0:0,0:0:0:0:
76,196,4672,1,2,0:0:0:0:
76,196,4860,2,0,P|128:196|188:248,1,130,2|2,0:0|0:0,0:0:0:0:
336,292,5610,6,0,P|296:272|284:252,1,65,0|4,1:0|0:0,0:0:0:0:
292,100,6172,1,0,1:0:0:0:
292,100,6360,2,0,P|348:56|408:52,1,130,0|2,1:0|0:0,0:0:0:0:
468,192,7110,6,0,P|464:254|413:293,1,130,4|0,0:0|1:0,0:0:0:0:
336,292,7672,2,0,P|277:230|281:190,1,130,2|0,0:0|0:0,0:0:0:0:
320,120,8235,1,0,1:0:0:0:
180,48,8610,6,0,P|104:72|80:128,1,130,2|0,0:0|1:0,0:0:0:0:
64,188,9172,2,0,P|129:179|161:127,1,130,2|2,0:0|0:0,0:0:0:0:
236,108,9735,1,0,1:0:0:0:
180,252,10110,6,0,P|112:280|32:276,1,130,4|0,0:0|1:0,0:0:0:0:
20,352,10672,2,0,P|88:364|164:348,1,130,2|0,0:0|0:0,0:0:0:0:
220,328,11235,1,0,1:0:0:0:
256,260,11422,5,4,0:0:0:0:
392,336,11797,2,0,P|394:183|320:116,1,260,2|0,0:0|0:0,0:0:0:0:
244,112,12735,1,0,1:0:0:0:
120,204,13110,6,0,P|84:184|64:156,2,65,4|2|0,0:0|0:0|1:0,0:0:0:0:
192,236,13672,2,0,P|119:234|80:271,1,130,2|2,0:0|0:0,0:0:0:0:
224,340,14422,2,0,P|297:341|336:305,1,130,2|0,0:0|0:0,0:0:0:0:
340,228,14985,1,0,1:0:0:0:
256,96,15360,1,0,0:0:0:0:
172,228,15735,1,0,1:0:0:0:
308,152,16110,6,0,P|336:144|392:168,2,65,2|0|0,0:0|0:0|1:0,0:0:0:0:
256,208,16672,2,0,P|264:268|324:312,1,130,2|0,0:0|0:0,0:0:0:0:
380,268,17235,1,0,1:0:0:0:
444,309,17422,2,0,P|496:268|504:208,2,130,2|2|0,0:0|0:0|0:0,0:0:0:0:
380,168,18547,2,0,L|380:104,1,65,2|2,0:0|0:2,0:0:0:0:
232,56,19110,6,0,P|192:56|160:80,2,65,2|2|0,0:0|0:0|1:0,0:0:0:0:
268,124,19672,2,0,P|272:184|212:252,1,130,2|2,0:0|0:0,0:0:0:0:
80,224,20422,2,0,P|76:284|136:352,1,130,2|0,0:0|0:0,0:0:0:0:
192,339,20985,1,0,1:0:0:0:
300,224,21360,2,0,L|360:260,2,65,2|0|0,0:0|0:0|1:0,0:0:0:0:
232,184,21922,6,0,P|236:132|320:80,1,130,2|2,0:0|0:0,0:0:0:0:
360,124,22485,1,0,1:0:0:0:
428,82,22672,2,0,P|483:131|487:183,1,130,2|4,0:0|0:0,0:0:0:0:
456,256,23235,1,0,1:0:0:0:
396,308,23422,2,0,P|348:324|256:228,1,195,2|0,0:0|1:0,0:0:0:0:
255,156,24172,1,2,0:0:0:0:
140,52,24547,2,0,L|76:52,1,65,0|0,1:0|1:0,0:0:0:0:
32,204,25110,6,0,P|44:276|100:312,1,130,4|0,0:0|1:0,0:0:0:0:
108,232,25672,2,0,P|176:256|288:204,1,195,2|0,0:0|1:0,0:0:0:0:
480,156,26610,6,0,P|468:84|412:48,1,130,2|0,0:0|1:0,0:0:0:0:
404,128,27172,2,0,P|336:104|224:156,1,195,2|0,0:0|1:0,0:0:0:0:
196,304,28110,6,0,P|256:328|316:304,1,130,2|0,0:0|1:0,0:0:0:0:
336,230,28672,2,0,P|256:182|176:230,1,195,2|0,0:0|1:0,0:0:0:0:
48,320,29610,6,0,P|12:344|-4:368,2,65,2|2|0,0:0|0:0|1:0,0:0:0:0:
100,260,30172,2,0,P|125:191|109:139,1,130,2|0,0:0|0:0,0:0:0:0:
56,80,30735,1,0,1:0:0:0:
208,48,31110,6,0,P|240:36|276:36,2,65,4|2|0,0:0|0:0|1:0,0:0:0:0:
248,116,31672,2,0,P|312:124|352:176,1,130,2|2,0:0|0:0,0:0:0:0:
268,304,32422,2,0,P|204:296|164:244,1,130,2|0,0:0|0:0,0:0:0:0:
184,172,32985,1,0,1:0:0:0:
320,244,33360,1,0,0:0:0:0:
392,104,33735,1,0,1:0:0:0:
248,44,34110,6,0,P|216:44|184:60,2,65,2|0|0,0:0|0:0|1:0,0:0:0:0:
320,16,34672,2,0,P|276:52|280:132,1,130,2|2,0:0|0:0,0:0:0:0:
324,188,35235,1,0,1:0:0:0:
376,248,35422,2,0,P|373:317|329:353,1,130,2|0,0:0|0:0,0:0:0:0:
256,332,35985,1,0,1:0:0:0:
182,353,36172,2,0,P|138:317|136:248,1,130,2|2,0:0|0:0,0:0:0:0:
196,196,36735,1,0,1:0:0:0:
196,196,36922,1,0,1:0:0:0:
164,124,37110,6,0,P|204:116|232:128,2,65,4|2|0,0:0|0:0|1:0,0:0:0:0:
108,68,37672,2,0,P|56:88|28:160,1,130,2|2,0:0|0:0,0:0:0:0:
108,316,38422,2,0,P|56:296|28:224,1,130,2|0,0:0|0:0,0:0:0:0:
96,192,38985,1,0,1:0:0:0:
96,192,39172,1,0,0:0:0:0:
236,264,39547,6,0,L|308:308,1,65,0|0,0:0|1:0,0:0:0:0:
360,336,39922,2,0,P|432:332|476:276,1,130,2|0,0:0|0:0,0:0:0:0:
469,213,40485,1,0,1:0:0:0:
469,135,40672,2,0,P|397:139|353:195,1,130,2|0,0:0|0:0,0:0:0:0:
359,257,41235,1,0,1:0:0:0:
292,300,41422,6,0,P|132:192|292:84,1,455,4|0,0:0|1:0,0:0:0:0:
248,192,43110,6,0,L|400:192,1,130,4|0,0:0|1:0,0:0:0:0:
460,328,43860,2,0,L|308:328,1,130,0|0,1:0|1:0,0:0:0:0:
248,192,44610,2,0,L|96:192,1,130,0|0,1:0|1:0,0:0:0:0:
52,56,45360,2,0,L|204:56,1,130,0|0,1:0|1:0,0:0:0:0:
338,56,46110,6,0,L|410:56,2,65,0|2|0,1:0|0:0|1:0,0:0:0:0:
256,192,46860,2,0,L|184:192,2,65,0|2|0,1:0|0:0|1:0,0:0:0:0:
336,192,47422,2,0,P|396:224|396:356,1,195,2|2,0:0|1:2,0:0:0:0:
256,308,48360,1,2,1:2:0:0:
104,340,48735,1,2,1:2:0:0:
52,192,49110,6,0,L|52:52,1,130,4|0,0:0|1:0,0:0:0:0:
140,192,49860,2,0,L|140:332,1,130,0|0,1:0|1:0,0:0:0:0:
228,192,50610,2,0,L|228:52,1,130,0|0,1:0|1:0,0:0:0:0:
316,192,51360,2,0,L|316:332,1,130,0|0,1:0|1:0,0:0:0:0:
400,192,52110,6,0,P|352:116|256:132,1,195,4|0,0:0|0:0,0:0:0:0:
212,192,52860,2,0,P|118:205|70:129,1,195,2|0,0:0|0:0,0:0:0:0:
100,56,53610,5,2,0:0:0:0:
412,56,54360,1,2,0:0:0:0:
256,192,55110,12,0,56985,1:0:0:0:
334,58,57360,5,4,0:0:0:0:
178,58,57735,1,0,1:0:0:0:
256,192,58110,6,0,P|312:228|388:216,1,130,4|0,0:0|1:0,0:0:0:0:
444,188,58672,1,0,0:0:0:0:
444,188,58860,1,2,0:0:0:0:
444,188,59047,2,0,P|476:248|464:324,1,130,0|0,0:0|0:0,0:0:0:0:
400,344,59610,1,2,0:0:0:0:
400,344,59797,2,0,L|268:344,1,130,0|2,0:0|0:0,0:0:0:0:
160,232,60547,2,0,L|292:232,1,130,2|0,0:0|0:0,0:0:0:0:
356,192,61110,6,0,P|356:140|296:80,1,130,4|0,0:0|1:0,0:0:0:0:
240,124,61672,1,0,0:0:0:0:
240,124,61860,1,2,0:0:0:0:
240,124,62047,2,0,L|120:48,1,130,0|0,0:0|0:0,0:0:0:0:
52,64,62610,1,2,0:0:0:0:
52,64,62797,2,0,P|12:128|16:208,1,130,0|2,0:0|0:0,0:0:0:0:
100,308,63547,2,0,P|140:244|136:164,1,130,2|0,0:0|0:0,0:0:0:0:
120,116,64110,6,0,P|188:128|220:184,1,130,4|0,0:0|1:0,0:0:0:0:
220,256,64672,1,0,0:0:0:0:
220,256,64860,1,2,0:0:0:0:
220,256,65047,2,0,L|352:296,1,130,0|0,0:0|0:0,0:0:0:0:
420,312,65610,1,2,0:0:0:0:
420,312,65797,2,0,P|452:252|428:180,1,130,0|2,0:0|0:0,0:0:0:0:
324,88,66547,5,0,0:0:0:0:
324,88,66735,1,0,1:0:0:0:
324,88,66922,2,0,P|260:108|204:84,1,130,2|0,0:0|0:0,0:0:0:0:
140,36,67485,1,0,1:0:0:0:
8,116,67860,2,0,P|0:148|16:184,1,65,2|0,0:0|0:0,0:0:0:0:
84,204,68235,2,0,P|92:235|81:265,1,65,0|0,1:0|0:0,0:0:0:0:
20,316,68610,6,0,P|88:348|144:316,1,130,4|0,0:0|1:0,0:0:0:0:
180,264,69172,1,4,0:0:0:0:
332,264,69547,1,4,0:0:0:0:
332,264,69735,1,0,1:0:0:0:
452,176,70110,6,0,P|416:104|364:80,1,130,4|0,0:0|1:0,0:0:0:0:
312,128,70672,1,0,0:0:0:0:
312,128,70860,1,2,0:0:0:0:
312,128,71047,2,0,P|256:156|200:128,1,130,0|0,0:0|0:0,0:0:0:0:
137,82,71610,1,2,0:0:0:0:
137,82,71797,2,0,P|96:104|60:176,1,130,0|2,0:0|0:0,0:0:0:0:
128,316,72547,2,0,L|272:316,1,130,2|0,0:0|0:0,0:0:0:0:
336,316,73110,6,0,P|380:276|384:204,1,130,4|0,0:0|1:0,0:0:0:0:
336,148,73672,1,0,0:0:0:0:
336,148,73860,1,2,0:0:0:0:
336,148,74047,2,0,P|256:112|208:132,1,130,0|0,0:0|0:0,0:0:0:0:
164,179,74610,1,2,0:0:0:0:
164,179,74797,2,0,P|127:190|47:154,2,130,0|2|2,0:0|0:0|0:0,0:0:0:0:
256,52,75922,5,0,0:0:0:0:
256,52,76110,2,0,L|256:204,1,130,4|0,0:0|1:0,0:0:0:0:
336,144,76672,2,0,L|336:296,1,130,4|0,0:0|0:0,0:0:0:0:
420,236,77235,1,0,1:0:0:0:
420,236,77422,2,0,L|420:388,1,130,4|0,0:0|0:0,0:0:0:0:
498,366,77985,1,0,1:0:0:0:
500,212,78360,1,2,0:0:0:0:
344,208,78735,1,0,1:0:0:0:
292,352,79110,6,0,P|224:364|165:336,1,130,4|0,0:0|1:0,0:0:0:0:
204,270,79672,2,0,P|144:235|116:176,1,130,4|0,0:0|0:0,0:0:0:0:
188,149,80235,1,0,1:0:0:0:
188,149,80422,2,0,P|164:84|181:21,1,130,4|0,0:0|0:0,0:0:0:0:
256,26,80985,1,0,1:0:0:0:
333,26,81172,2,0,P|347:89|324:149,1,130,0|0,1:0|1:0,0:0:0:0:
256,192,81735,1,0,1:0:0:0:
256,269,81922,1,4,0:0:0:0:
256,192,82016,12,0,83235,0:0:0:0:
