osu file format v12

[General]
AudioFilename: CHOIR JAIL (TV Size).mp3
AudioLeadIn: 500
PreviewTime: 24067
Countdown: 0
SampleSet: Normal
StackLeniency: 0.7
Mode: 0
LetterboxInBreaks: 0

[Editor]
DistanceSpacing: 1
BeatDivisor: 4
GridSize: 4

[Metadata]
Title:CHOIR JAIL (TV Size)
TitleUnicode:CHOIR JAIL (TV Size)
Artist:Suzuki Konomi
ArtistUnicode:鈴木このみ
Creator:DakeDekaane
Version:Normal
Source:Tasogare Otome x Amnesia
Tags:opening op Dusk Maiden of ReySHeL Gero ShiauKe Irreversible pkhg
BeatmapID:224306
BeatmapSetID:80650

[Difficulty]
HPDrainRate:4
CircleSize:3
OverallDifficulty:4
ApproachRate:5
SliderMultiplier:1
SliderTickRate:2

[Events]
//Background and Video events
0,0,"BG.jpg",0,0
//Break Periods
//Storyboard Layer 0 (Background)
//Storyboard Layer 1 (Fail)
//Storyboard Layer 2 (Pass)
//Storyboard Layer 3 (Foreground)
//Storyboard Sound Samples
//Background Colour Transformations
3,100,0,0,0

[TimingPoints]
200,331.491712707182,4,1,1,75,1,0
16111,-100,4,1,1,80,0,0
24067,-100,4,2,1,60,0,0
34675,-100,4,2,1,65,0,0
45282,-100,4,2,1,70,0,0
50586,-100,4,1,1,75,0,0
55890,-100,4,1,1,80,0,1
79758,-100,4,1,1,75,0,0
82409,-100,4,1,1,80,0,1
87713,-100,4,1,1,80,0,0

[Colours]
Combo1 : 250,27,27
Combo2 : 143,255,32
Combo3 : 23,255,255

[HitObjects]
172,328,2851,2,0,P|268:356|364:328,1,200,4|0,0:0|0:0,0:0:0:0:
488,172,4177,2,0,P|392:144|296:172,1,200,4|0,0:0|0:0,0:0:0:0:
172,328,5503,2,0,P|44:284|80:152,1,300,4|0,0:0|0:0,0:0:0:0:
124,128,6664,1,0,0:0:0:0:
356,28,7492,5,0,0:0:0:0:
452,60,7824,1,0,0:0:0:0:
492,152,8155,1,4,0:0:0:0:
260,344,9150,5,0,0:0:0:0:
320,264,9481,2,0,L|400:136,1,150
288,36,10476,1,0,0:0:0:0:
248,128,10807,6,0,L|204:220,1,100,4|0,0:0|0:0,0:0:0:0:
156,132,11470,2,0,L|84:200,1,100
16,272,12133,1,0,0:0:0:0:
56,364,12465,1,0,0:0:0:0:
148,324,12796,1,0,0:0:0:0:
240,364,13128,1,0,0:0:0:0:
336,340,13459,6,0,P|404:372|476:364,2,150,4|0|0,0:0|0:0|0:0,0:0:0:0:
288,196,14951,2,0,P|360:188|428:220,1,150
508,160,15780,1,0,0:0:0:0:
428,220,16111,6,0,P|408:168|441:84,2,150,4|0|0,0:0|0:0|0:0,0:0:0:0:
452,264,17271,2,0,L|380:336,1,100
236,372,18100,5,4,0:0:0:0:
148,324,18432,1,0,0:0:0:0:
256,192,18763,12,4,22741,0:0:0:0:
112,136,23404,6,0,L|204:92,1,100
280,32,24067,5,4,0:0:0:0:
376,64,24398,2,0,P|356:160|404:244,1,200,0|0,1:0|1:0,0:0:0:0:
492,296,25393,1,0,0:0:0:0:
420,364,25724,1,0,1:0:0:0:
320,344,26056,2,0,L|240:284,1,100,2|0,0:0|1:0,0:0:0:0:
180,364,26719,2,0,L|100:304,1,100,4|0,0:0|1:0,0:0:0:0:
4,128,27713,1,0,1:0:0:0:
188,52,28376,6,0,L|284:12,2,100,0|0|0,1:0|0:0|0:0,0:0:0:0:
96,96,29371,2,0,P|88:144|96:196,1,100,4|0,0:0|1:0,0:0:0:0:
204,360,30365,1,0,1:0:0:0:
404,356,31028,6,0,P|452:216|476:168,1,200,0|0,1:0|1:0,0:0:0:0:
512,84,32023,1,2,0:0:0:0:
428,32,32354,1,0,1:0:0:0:
380,52,32520,2,0,P|328:56|280:48,1,100,0|0,0:0|0:0,0:0:0:0:
184,24,33183,1,4,0:0:0:0:
84,28,33514,2,0,P|120:92|124:168,1,150,4|4,0:0|0:0,0:0:0:0:
92,264,34343,1,0,1:0:0:0:
168,332,34675,5,4,0:0:0:0:
268,328,35006,2,0,P|332:296|372:230,1,150,0|0,1:0|1:0,0:0:0:0:
392,132,35835,1,0,1:0:0:0:
384,32,36166,2,0,L|332:28,1,50,0|0,0:0|1:0,0:0:0:0:
236,20,36664,1,2,0:0:0:0:
144,60,36995,6,0,L|48:28,2,100,0|4|0,1:0|0:0|1:0,0:0:0:0:
192,76,37824,1,0,0:0:0:0:
256,152,38155,1,0,1:0:0:0:
356,164,38487,2,0,P|416:212|396:272,1,150,0|0,1:0|1:0,0:0:0:0:
328,348,39316,5,2,0:0:0:0:
232,368,39647,1,0,1:0:0:0:
132,352,39979,2,0,P|100:304|100:260,1,100,4|0,0:0|1:0,0:0:0:0:
120,164,40641,5,2,0:0:0:0:
180,84,40973,1,0,1:0:0:0:
272,40,41304,2,0,P|328:116|428:112,1,200,2|0,0:0|0:0,0:0:0:0:
512,60,42299,1,0,1:0:0:0:
425,113,42630,5,2,0:0:0:0:
392,208,42962,1,0,1:0:0:0:
436,296,43293,2,0,P|400:328|352:348,1,100,2|0,0:0|1:0,0:0:0:0:
252,360,43956,2,0,L|200:356,1,50,2|0,0:0|0:0,0:0:0:0:
108,320,44454,2,0,P|112:248|84:176,1,150,2|0,0:0|1:0,0:0:0:0:
0,120,45282,6,0,L|192:56,1,200,4|0,0:0|0:0,0:0:0:0:
288,32,46277,1,0,1:0:0:0:
388,36,46608,2,0,P|384:84|400:132,1,100,2|0,0:0|1:0,0:0:0:0:
420,180,47106,2,0,P|424:228|408:276,1,100,0|2,0:0|0:0,0:0:0:0:
292,372,47934,5,4,0:0:0:0:
220,304,48266,1,0,1:0:0:0:
292,236,48597,1,0,0:0:0:0:
220,168,48929,1,0,1:0:0:0:
292,96,49260,2,0,P|340:108|388:92,1,100,2|2,0:0|0:0,0:0:0:0:
436,84,49758,1,0,0:0:0:0:
484,92,49923,2,0,P|500:136|496:192,1,100,2|2,0:0|0:0,0:0:0:0:
448,276,50586,5,4,0:0:0:0:
360,328,50918,2,0,P|284:324|224:280,1,150,0|0,0:0|0:0,0:0:0:0:
180,192,51746,1,0,0:0:0:0:
225,101,52078,2,0,P|284:60|360:56,1,150,0|0,0:0|0:0,0:0:0:0:
448,104,52907,1,0,0:0:0:0:
404,192,53238,6,0,P|345:233|269:237,1,150,0|0,0:0|0:0,0:0:0:0:
180,192,54067,1,0,0:0:0:0:
108,124,54398,1,4,0:0:0:0:
36,56,54730,2,0,P|12:100|16:160,1,100,0|0,0:0|0:0,0:0:0:0:
32,196,55227,1,4,0:0:0:0:
224,268,55890,6,0,P|288:228|400:264,1,200,4|0,0:0|0:0,0:0:0:0:
452,348,56885,1,0,0:0:0:0:
400,264,57216,2,0,P|380:164|392:68,1,200
304,20,58211,1,0,0:0:0:0:
204,24,58542,2,0,P|68:68|44:208,1,300,4|0,0:0|0:0,0:0:0:0:
68,252,59702,1,0,0:0:0:0:
288,360,60531,5,2,2:0:0:0:
388,364,60862,1,2,2:0:0:0:
480,328,61194,1,4,0:0:0:0:
504,36,62188,5,0,0:0:0:0:
404,44,62520,2,0,P|336:64|258:62,2,150
504,36,63846,2,0,L|512:136,1,100,4|0,0:0|0:0,0:0:0:0:
512,236,64509,2,0,L|484:340,1,100,4|0,0:0|0:0,0:0:0:0:
396,372,65172,1,4,0:0:0:0:
248,360,65669,2,0,L|248:308,1,50,0|4,0:0|0:0,0:0:0:0:
288,116,66498,6,0,P|224:156|112:120,1,200,4|0,0:0|0:0,0:0:0:0:
60,36,67492,1,0,0:0:0:0:
112,120,67824,2,0,P|132:220|120:316,1,200
208,364,68819,1,0,0:0:0:0:
308,360,69150,2,0,P|444:316|468:176,1,300,4|0,0:0|0:0,0:0:0:0:
444,132,70310,1,0,0:0:0:0:
180,20,71470,5,0,0:0:0:0:
260,76,71802,2,0,P|276:124|272:172,1,100,4|0,0:0|0:0,0:0:0:0:
248,216,72299,1,0,0:0:0:0:
120,292,72796,1,0,0:0:0:0:
20,284,73128,2,0,P|72:204|172:204,1,200,4|0,0:0|0:0,0:0:0:0:
256,252,74122,1,0,0:0:0:0:
340,304,74454,6,0,P|384:320|436:316,1,100,4|0,0:0|0:0,0:0:0:0:
480,296,74951,1,0,0:0:0:0:
508,148,75448,1,0,0:0:0:0:
436,76,75780,2,0,L|512:12,2,100
340,100,76774,1,0,0:0:0:0:
240,88,77106,6,0,L|108:12,2,150,4|0|0,0:0|0:0|0:0,0:0:0:0:
344,196,78598,2,0,P|336:272|292:328,1,150
196,356,79427,1,0,0:0:0:0:
112,304,79758,6,0,P|40:308|0:368,2,150,4|0|0,0:0|0:0|0:0,0:0:0:0:
160,300,80918,2,0,L|240:240,1,100
360,148,81747,5,4,0:0:0:0:
440,88,82079,1,0,0:0:0:0:
256,192,82409,12,4,86387,0:0:0:0:
368,124,87050,5,0,0:0:0:0:
400,220,87382,2,0,L|432:316,1,100,0|4,0:0|0:0,0:0:0:0:
