osu file format v12

[General]
AudioFilename: CHOIR JAIL (TV Size).mp3
AudioLeadIn: 500
PreviewTime: 24067
Countdown: 0
SampleSet: Normal
StackLeniency: 0.7
Mode: 0
LetterboxInBreaks: 0

[Editor]
Bookmarks: 70144
DistanceSpacing: 1
BeatDivisor: 4
GridSize: 4

[Metadata]
Title:CHOIR JAIL (TV Size)
TitleUnicode:CHOIR JAIL (TV Size)
Artist:Suzuki Konomi
ArtistUnicode:鈴木このみ
Creator:DakeDekaane
Version:Hard
Source:Tasogare Otome x Amnesia
Tags:opening op Dusk Maiden of ReySHeL Gero ShiauKe Irreversible pkhg
BeatmapID:224305
BeatmapSetID:80650

[Difficulty]
HPDrainRate:6
CircleSize:4
OverallDifficulty:6
ApproachRate:7
SliderMultiplier:1.4
SliderTickRate:2

[Events]
//Background and Video events
0,0,"BG.jpg",0,0
//Break Periods
//Storyboard Layer 0 (Background)
//Storyboard Layer 1 (Fail)
//Storyboard Layer 2 (Pass)
//Storyboard Layer 3 (Foreground)
//Storyboard Sound Samples
//Background Colour Transformations
3,100,0,0,0

[TimingPoints]
200,331.491712707182,4,1,1,75,1,0
2851,-133.333333333333,4,1,1,75,0,0
16111,-100,4,1,1,80,0,0
24067,-100,4,2,1,60,0,0
34675,-100,4,2,1,65,0,0
45282,-133.333333333333,4,2,1,70,0,0
50586,-100,4,1,1,75,0,0
55890,-90.9090909090909,4,1,1,80,0,1
79758,-100,4,1,1,75,0,0
82409,-100,4,1,1,80,0,1
87713,-100,4,1,1,80,0,0

[Colours]
Combo1 : 250,27,27
Combo2 : 143,255,32
Combo3 : 23,255,255

[HitObjects]
232,320,2851,2,0,P|324:332|312:244,1,210.000008010865,4|0,0:0|0:0,0:0:0:0:
144,160,4177,2,0,P|132:72|224:84,1,210.000008010865,0|0,0:0|0:0,0:0:0:0:
392,168,5503,2,0,P|404:256|312:244,1,210.000008010865,4|0,0:0|0:0,0:0:0:0:
292,140,6498,1,0,0:0:0:0:
256,100,6664,1,0,0:0:0:0:
256,352,7492,5,0,0:0:0:0:
288,272,7824,1,0,0:0:0:0:
224,216,8155,1,4,0:0:0:0:
52,44,9150,5,0,0:0:0:0:
112,132,9481,2,0,P|164:140|212:120,1,105.000004005432
236,72,9979,2,0,L|372:156,1,157.500006008148
464,204,10807,6,0,L|512:300,1,105.000004005432,4|0,0:0|0:0,0:0:0:0:
412,256,11470,2,0,L|420:360,1,105.000004005432
344,288,12133,1,0,0:0:0:0:
344,288,12465,1,0,0:0:0:0:
244,324,12796,1,0,0:0:0:0:
140,300,13128,1,0,0:0:0:0:
120,196,13459,6,0,L|116:144,1,52.5000020027161,4|0,0:0|0:0,0:0:0:0:
168,52,13956,2,0,L|172:104,1,52.5000020027161
240,184,14454,2,0,L|236:132,1,52.5000020027161
288,40,14951,2,0,L|292:92,1,52.5000020027161
360,172,15448,1,0,0:0:0:0:
360,172,15614,2,0,L|356:120,1,52.5000020027161
460,24,16111,5,4,0:0:0:0:
500,100,16277,1,0,0:0:0:0:
444,164,16443,1,0,0:0:0:0:
484,236,16608,2,0,P|424:280|360:284,1,140
280,264,17106,1,0,0:0:0:0:
200,240,17271,2,0,P|136:244|76:288,1,140
180,68,18100,5,4,0:0:0:0:
124,148,18432,1,0,0:0:0:0:
256,192,18763,12,4,22741,0:0:0:0:
300,244,23072,1,0,0:0:0:0:
132,228,23404,2,0,L|168:168,1,70,0|0,0:0|0:0,0:0:0:0:
212,96,23735,1,0,0:0:0:0:
256,24,23901,1,0,0:0:0:0:
256,24,24067,5,4,0:0:0:0:
424,32,24398,2,0,L|448:100,1,70,0|0,1:0|0:0,0:0:0:0:
412,232,24896,1,0,0:0:0:0:
412,232,25061,2,0,P|484:236|508:236,2,70,0|0|0,1:0|0:0|0:0,0:0:0:0:
340,240,25559,1,0,0:0:0:0:
340,240,25724,2,0,L|272:260,1,70,0|0,1:0|0:0,0:0:0:0:
208,288,26056,6,0,P|140:288|76:256,1,140,2|0,0:0|1:0,0:0:0:0:
212,220,26719,2,0,P|178:161|173:89,1,140,4|0,0:0|1:0,0:0:0:0:
188,24,27216,1,0,0:0:0:0:
328,32,27548,5,0,0:0:0:0:
328,32,27713,2,0,L|400:24,2,70,0|0|0,1:0|0:0|0:0,0:0:0:0:
308,100,28211,1,0,0:0:0:0:
308,100,28376,2,0,L|248:64,2,70,0|0|0,1:0|0:0|0:0,0:0:0:0:
420,184,29039,1,4,0:0:0:0:
420,184,29371,6,0,P|372:232|348:300,1,140,4|0,0:0|1:0,0:0:0:0:
336,368,29868,1,0,0:0:0:0:
200,344,30199,1,0,0:0:0:0:
200,344,30365,2,0,L|136:316,2,70,0|0|0,1:0|0:0|0:0,0:0:0:0:
256,300,30862,5,0,0:0:0:0:
256,300,31028,2,0,L|284:364,2,70,0|0|0,1:0|0:0|0:0,0:0:0:0:
208,196,31691,1,0,1:0:0:0:
208,196,32023,5,0,0:0:0:0:
76,144,32354,2,0,L|20:188,1,70,0|0,1:0|0:0,0:0:0:0:
0,252,32686,1,0,0:0:0:0:
32,316,32851,2,0,L|96:348,1,70,0|0,0:0|1:0,0:0:0:0:
164,348,33183,5,4,0:0:0:0:
164,348,33514,2,0,P|224:312|296:316,1,140,2|4,0:0|0:0,0:0:0:0:
372,344,34012,1,0,0:0:0:0:
456,332,34177,2,0,L|472:364,2,35,0|0|0,0:0|0:0|1:0,0:0:0:0:
420,196,34675,5,4,0:0:0:0:
408,56,35006,2,0,L|340:68,1,70,0|0,1:0|0:0,0:0:0:0:
200,56,35503,2,0,L|268:68,2,70,0|0|0,0:0|1:0|0:0,0:0:0:0:
60,68,36166,2,0,L|128:56,1,70,0|0,0:0|1:0,0:0:0:0:
200,56,36498,5,0,0:0:0:0:
268,68,36664,2,0,P|264:140|236:200,1,140,0|0,0:0|1:0,0:0:0:0:
300,324,37327,2,0,P|304:252|332:192,1,140,4|0,0:0|1:0,0:0:0:0:
384,144,37824,1,0,0:0:0:0:
384,144,38155,1,0,1:0:0:0:
268,68,38487,2,0,P|240:112|148:104,1,140,0|0,1:0|0:0,0:0:0:0:
200,56,38984,1,0,1:0:0:0:
116,168,39316,5,0,0:0:0:0:
36,284,39647,1,0,1:0:0:0:
148,368,39979,2,0,P|212:344|284:344,1,140,4|0,0:0|1:0,0:0:0:0:
420,376,40641,1,0,0:0:0:0:
492,256,40973,1,0,1:0:0:0:
352,276,41304,2,0,P|281:275|217:251,1,140,0|0,0:0|1:0,0:0:0:0:
156,216,41802,1,0,0:0:0:0:
112,160,41967,1,0,1:0:0:0:
112,160,42299,1,0,1:0:0:0:
32,276,42630,5,4,0:0:0:0:
112,160,42962,1,0,1:0:0:0:
60,32,43293,2,0,P|128:20|196:48,1,140,2|0,0:0|1:0,0:0:0:0:
284,152,43956,2,0,L|336:104,1,70,2|0,0:0|0:0,0:0:0:0:
448,20,44454,2,0,B|482:54|474:118|474:118|468:181|502:216,1,210,2|0,0:0|1:0,0:0:0:0:
500,320,45282,6,0,L|400:352,1,105.000004005432,4|0,0:0|1:0,0:0:0:0:
308,304,45945,1,0,0:0:0:0:
204,324,46277,1,0,1:0:0:0:
100,300,46608,2,0,P|60:272|44:220,1,105.000004005432,2|0,0:0|1:0,0:0:0:0:
48,168,47106,2,0,L|136:112,1,105.000004005432,2|0,0:0|0:0,0:0:0:0:
184,88,47603,1,0,1:0:0:0:
256,192,47934,5,4,0:0:0:0:
244,296,48266,1,0,1:0:0:0:
340,256,48597,1,0,0:0:0:0:
352,152,48929,1,0,1:0:0:0:
268,88,49260,2,0,L|224:52,1,52.5000020027161,2|0,0:0|0:0,0:0:0:0:
204,104,49592,2,0,L|147:100,1,52.5000020027161,2|2,0:0|0:0,0:0:0:0:
160,152,49923,2,0,L|111:181,1,52.5000020027161
156,216,50255,2,0,L|133:268,1,52.5000020027161,2|0,0:0|0:0,0:0:0:0:
176,324,50586,5,4,0:0:0:0:
244,304,50752,1,0,0:0:0:0:
312,312,50918,2,0,L|380:296,1,70,0|0,0:0|0:0,0:0:0:0:
436,232,51249,2,0,L|368:216,1,70,0|0,0:0|0:0,0:0:0:0:
256,128,51746,5,0,0:0:0:0:
256,128,52078,2,0,P|304:68|364:52,1,140,0|0,0:0|0:0,0:0:0:0:
432,52,52575,1,0,0:0:0:0:
432,52,52907,1,0,0:0:0:0:
452,192,53238,6,0,L|496:248,2,70
404,140,53735,1,0,0:0:0:0:
404,140,54067,1,0,0:0:0:0:
264,52,54398,1,4,0:0:0:0:
264,52,54730,2,0,P|216:100|148:120,1,140
64,108,55227,1,4,0:0:0:0:
168,332,55890,6,0,P|232:292|308:292,1,154.000004699707,4|0,0:0|0:0,0:0:0:0:
352,372,56387,1,0,0:0:0:0:
308,292,56553,2,0,L|360:144,1,154.000004699707
388,60,57050,1,0,0:0:0:0:
440,136,57216,2,0,P|368:128|304:80,1,154.000004699707,4|0,0:0|0:0,0:0:0:0:
244,12,57713,1,0,0:0:0:0:
188,88,57879,2,0,L|96:212,1,154.000004699707
4,336,58542,6,0,B|72:295|149:337|149:337|227:379|296:337,1,308.000009399414,4|0,0:0|0:0,0:0:0:0:
408,228,59537,1,0,0:0:0:0:
368,296,59702,1,0,0:0:0:0:
297,337,59868,6,0,P|255:273|243:196,1,154.000004699707,2|2,2:0|2:0,2:0:0:0:
364,100,60531,1,2,2:0:0:0:
212,120,60862,1,2,2:0:0:0:
356,176,61194,1,4,0:0:0:0:
484,332,62188,5,0,0:0:0:0:
332,348,62520,2,0,P|256:360|184:336,1,154.000004699707
124,288,63017,1,0,0:0:0:0:
36,72,63514,1,0,0:0:0:0:
0,224,63846,6,0,L|92:348,1,154.000004699707,4|0,0:0|0:0,0:0:0:0:
112,272,64343,1,0,0:0:0:0:
96,196,64509,2,0,L|237:257,1,154.000004699707,4|0,0:0|0:0,0:0:0:0:
220,184,65006,1,0,0:0:0:0:
168,128,65172,2,0,L|321:110,1,154.000004699707,4|0,0:0|0:0,0:0:0:0:
456,56,65669,2,0,L|376:56,1,77.0000023498536,0|4,0:0|0:0,0:0:0:0:
344,332,66498,6,0,P|280:292|204:292,1,154.000004699707,4|0,0:0|0:0,0:0:0:0:
160,372,66995,1,0,0:0:0:0:
204,292,67161,2,0,L|152:144,1,154.000004699707
124,60,67658,1,0,0:0:0:0:
72,136,67824,2,0,P|144:128|208:80,1,154.000004699707,4|0,0:0|0:0,0:0:0:0:
268,12,68321,1,0,0:0:0:0:
324,88,68487,2,0,L|416:212,1,154.000004699707
508,336,69150,6,0,B|439:295|362:337|362:337|284:379|216:338,1,308.000009399414,4|0,0:0|0:0,0:0:0:0:
104,228,70144,1,0,0:0:0:0:
144,300,70309,1,0,0:0:0:0:
215,337,70475,6,0,P|257:273|269:196,1,154.000004699707,2|2,2:0|2:0,2:0:0:0:
132,128,71138,1,2,2:0:0:0:
264,48,71469,1,0,1:0:0:0:
300,116,71636,1,0,0:0:0:0:
336,184,71802,6,0,P|352:260|328:332,1,154.000004699707,4|0,0:0|0:0,0:0:0:0:
252,292,72299,2,0,P|348:248|412:348,1,231.000007049561
500,188,73128,2,4,P|428:180|388:112,1,154.000004699707
308,84,73625,2,0,P|392:28|472:128,1,231.000007049561
320,176,74454,6,0,P|256:160|216:84,1,154.000004699707,4|0,0:0|0:0,0:0:0:0:
308,83,74951,2,0,P|204:176|129:122,1,231.000007049561
76,296,75780,2,0,L|56:372,2,77.0000023498536
244,296,76443,2,0,L|264:372,2,77.0000023498536
266,171,77106,6,0,L|192:152,1,77.0000023498536,4|0,0:0|0:0,0:0:0:0:
355,111,77603,2,0,L|352:35,1,77.0000023498536
439,179,78100,2,0,L|512:152,1,77.0000023498536
401,280,78597,2,0,L|450:340,1,77.0000023498536
293,274,79095,1,0,0:0:0:0:
293,274,79260,2,0,L|253:340,1,77.0000023498536
88,304,79758,5,4,0:0:0:0:
15,258,79924,1,0,0:0:0:0:
90,219,80089,1,0,0:0:0:0:
17,174,80255,2,0,P|46:108|95:58,1,140
174,33,80753,1,0,0:0:0:0:
255,46,80918,2,0,P|316:72|388:77,1,140
296,312,81747,5,4,0:0:0:0:
332,220,82079,1,0,0:0:0:0:
256,192,82410,12,4,86387,0:0:0:0:
172,144,87050,5,0,0:0:0:0:
256,288,87382,1,0,0:0:0:0:
340,144,87713,1,4,0:0:0:0:
