osu file format v12

[General]
AudioFilename: CHOIR JAIL (TV Size).mp3
AudioLeadIn: 500
PreviewTime: 24067
Countdown: 0
SampleSet: Normal
StackLeniency: 0.7
Mode: 0
LetterboxInBreaks: 0

[Editor]
Bookmarks: 66498,73128
DistanceSpacing: 1.1
BeatDivisor: 4
GridSize: 4

[Metadata]
Title:CHOIR JAIL (TV Size)
TitleUnicode:CHOIR JAIL (TV Size)
Artist:Suzuki Konomi
ArtistUnicode:鈴木このみ
Creator:DakeDekaane
Version:Easy
Source:Tasogare Otome x Amnesia
Tags:opening op Dusk Maiden of ReySHeL Gero ShiauKe Irreversible pkhg
BeatmapID:224304
BeatmapSetID:80650

[Difficulty]
HPDrainRate:2
CircleSize:3
OverallDifficulty:2
ApproachRate:3
SliderMultiplier:0.8
SliderTickRate:2

[Events]
//Background and Video events
0,0,"BG.jpg",0,0
//Break Periods
//Storyboard Layer 0 (Background)
//Storyboard Layer 1 (Fail)
//Storyboard Layer 2 (Pass)
//Storyboard Layer 3 (Foreground)
//Storyboard Sound Samples
//Background Colour Transformations
3,100,0,0,0

[TimingPoints]
200,331.491712707182,4,1,1,75,1,0
16111,-100,4,1,1,80,0,0
24067,-100,4,2,1,60,0,0
34675,-100,4,2,1,65,0,0
45282,-100,4,2,1,70,0,0
50586,-100,4,1,1,75,0,0
55890,-100,4,1,1,80,0,1
79758,-100,4,1,1,75,0,0
82409,-100,4,1,1,80,0,1
87713,-100,4,1,1,80,0,0

[Colours]
Combo1 : 250,27,27
Combo2 : 143,255,32
Combo3 : 23,255,255

[HitObjects]
320,140,2851,2,0,P|376:96|464:80,1,160,4|0,0:0|0:0,0:0:0:0:
444,240,4177,2,0,P|388:284|302:300,1,160,4|0,0:0|0:0,0:0:0:0:
144,276,5503,2,0,P|92:172|244:152,1,320,4|0,0:0|0:0,0:0:0:0:
320,292,7492,6,0,P|400:288|450:232,1,160,0|4,0:0|0:0,0:0:0:0:
196,36,9481,6,0,L|48:96,1,160
172,196,10807,2,0,L|80:328,1,160,4|0,0:0|0:0,0:0:0:0:
240,324,12133,1,0,0:0:0:0:
396,352,12796,1,0,0:0:0:0:
448,200,13459,6,0,P|448:140|456:80,2,120,4|0|0,0:0|0:0|0:0,0:0:0:0:
352,272,14951,2,0,P|292:272|232:280,1,120,0|0,0:0|0:0,0:0:0:0:
152,296,15780,1,0,0:0:0:0:
76,272,16111,6,0,B|36:216|68:160|68:160|188:156|188:156|220:100|180:44,1,360,4|0,0:0|0:0,0:0:0:0:
60,32,18100,5,4,0:0:0:0:
16,100,18432,1,0,0:0:0:0:
256,192,18763,12,4,22741,0:0:0:0:
464,144,24067,5,4,0:0:0:0:
500,216,24398,2,0,P|440:268|412:344,1,160,0|0,1:0|1:0,0:0:0:0:
252,368,25724,5,0,1:0:0:0:
172,364,26056,2,0,P|140:336|120:304,1,80,2|0,0:0|1:0,0:0:0:0:
84,232,26719,2,0,P|72:192|68:152,1,80,4|0,0:0|1:0,0:0:0:0:
160,24,27713,1,0,1:0:0:0:
320,44,28376,6,0,L|396:8,2,80,0|0|4,1:0|0:0|0:0,0:0:0:0:
272,108,29371,2,0,L|252:188,1,80,4|0,0:0|1:0,0:0:0:0:
216,340,30365,1,0,1:0:0:0:
376,352,31028,6,0,P|452:356|492:288,1,160,0|0,1:0|1:0,0:0:0:0:
476,212,32023,1,2,0:0:0:0:
400,192,32354,2,0,P|340:200|280:188,1,120,0|0,1:0|0:0,0:0:0:0:
224,136,33183,1,4,0:0:0:0:
236,56,33514,6,0,P|292:32|352:36,1,120,4|4,0:0|0:0,0:0:0:0:
420,80,34343,1,0,1:0:0:0:
448,156,34675,5,4,0:0:0:0:
444,236,35006,2,0,P|400:304|336:348,1,160,0|0,1:0|1:0,0:0:0:0:
176,364,36332,1,0,1:0:0:0:
52,264,36995,6,0,L|0:328,2,80,0|4|0,1:0|0:0|1:0,0:0:0:0:
180,164,38321,2,0,B|204:128|188:88|188:88|260:48,1,160,0|0,1:0|1:0,0:0:0:0:
336,32,39316,5,2,0:0:0:0:
416,44,39647,1,0,1:0:0:0:
480,92,39979,2,0,L|488:180,1,80,4|0,0:0|1:0,0:0:0:0:
400,304,40973,1,0,1:0:0:0:
380,228,41304,2,0,P|456:248|476:324,2,160,2|2|2,0:0|0:0|0:0,0:0:0:0:
304,260,42962,5,0,1:0:0:0:
224,272,43293,2,0,L|152:232,1,80,2|0,0:0|1:0,0:0:0:0:
108,300,43956,2,0,P|84:192|188:160,1,240,2|0,0:0|1:0,0:0:0:0:
256,204,45282,6,0,P|264:128|196:76,1,160,4|2,0:0|0:0,0:0:0:0:
44,64,46608,2,0,P|36:140|104:192,1,160,2|2,0:0|0:0,0:0:0:0:
256,204,47934,5,4,0:0:0:0:
412,236,48597,1,2,0:0:0:0:
312,360,49260,1,0,0:0:0:0:
156,328,49923,1,2,0:0:0:0:
256,204,50586,5,4,0:0:0:0:
324,164,50918,2,0,P|380:164|428:204,1,120,0|0,0:0|0:0,0:0:0:0:
428,284,51746,1,0,0:0:0:0:
360,324,52078,2,0,P|304:324|256:284,1,120
188,164,53238,6,0,P|132:164|84:204,1,120,0|0,0:0|0:0,0:0:0:0:
72,284,54067,1,0,0:0:0:0:
120,348,54398,1,4,0:0:0:0:
196,368,54730,2,0,L|316:368,1,120,0|4,0:0|0:0,0:0:0:0:
452,288,55890,6,0,P|500:224|512:144,1,160,4|0,0:0|0:0,0:0:0:0:
392,44,57216,2,0,P|321:52|249:101,1,160,0|0,0:0|0:0,0:0:0:0:
204,168,58211,1,0,0:0:0:0:
165,97,58542,2,0,B|103:130|103:208|156:265|229:245|229:245|256:273,1,280,4|0,0:0|0:0,0:0:0:0:
432,368,60531,5,2,2:0:0:0:
485,308,60862,1,2,2:0:0:0:
499,229,61194,1,4,0:0:0:0:
256,24,62520,6,0,P|265:79|352:120,1,160
412,65,63514,1,0,0:0:0:0:
335,41,63846,2,0,L|266:188,1,160,4|4,0:0|0:0,0:0:0:0:
232,256,64840,1,0,0:0:0:0:
196,328,65172,2,0,P|152:264|180:192,1,160
328,132,66498,6,0,P|376:196|388:276,1,160,4|0,0:0|0:0,0:0:0:0:
256,368,67824,2,0,P|182:336|132:273,1,160,0|0,0:0|0:0,0:0:0:0:
111,197,68819,1,0,0:0:0:0:
56,255,69150,2,0,B|4:208|23:131|88:89|154:126|154:126|187:106,1,280,4|0,0:0|0:0,0:0:0:0:
456,192,71470,5,0,0:0:0:0:
428,268,71802,2,0,P|348:276|272:256,1,160,4|0,0:0|0:0,0:0:0:0:
204,112,73128,2,0,P|284:104|360:124,1,160,4|0,0:0|0:0,0:0:0:0:
272,256,74454,6,0,P|192:264|116:244,1,160,4|0,0:0|0:0,0:0:0:0:
56,192,75448,1,0,0:0:0:0:
40,112,75780,2,0,P|51:71|71:39,2,80
56,192,76774,1,0,0:0:0:0:
116,244,77106,6,0,P|88:297|49:343,2,120,4|0|0,0:0|0:0|0:0,0:0:0:0:
188,148,78598,2,0,P|248:136|304:148,1,120
368,200,79427,1,0,0:0:0:0:
424,260,79758,6,0,B|372:300|312:268|312:268|256:308|200:268|200:268|140:300|88:260,1,360,4|0,0:0|0:0,0:0:0:0:
40,148,81747,5,4,0:0:0:0:
64,64,82079,1,0,0:0:0:0:
256,192,82410,12,4,86387,0:0:0:0:
192,252,87050,6,0,L|124:296,2,80,0|0|4,0:0|0:0|0:0,0:0:0:0:
