osu file format v12

[General]
AudioFilename: CHOIR JAIL (TV Size).mp3
AudioLeadIn: 500
PreviewTime: 24067
Countdown: 0
SampleSet: Soft
StackLeniency: 0.7
Mode: 0
LetterboxInBreaks: 0

[Editor]
Bookmarks: 53238,66498,73128
DistanceSpacing: 1.2
BeatDivisor: 4
GridSize: 4

[Metadata]
Title:CHOIR JAIL (TV Size)
TitleUnicode:CHOIR JAIL (TV Size)
Artist:Suzuki Konomi
ArtistUnicode:鈴木このみ
Creator:DakeDekaane
Version:Dekaane
Source:Tasogare Otome x Amnesia
Tags:opening op Dusk Maiden of ReySHeL Gero ShiauKe Irreversible pkhg
BeatmapID:224303
BeatmapSetID:80650

[Difficulty]
HPDrainRate:7
CircleSize:4
OverallDifficulty:7
ApproachRate:8
SliderMultiplier:1.8
SliderTickRate:2

[Events]
//Background and Video events
0,0,"BG.jpg",0,0
//Break Periods
//Storyboard Layer 0 (Background)
//Storyboard Layer 1 (Fail)
//Storyboard Layer 2 (Pass)
//Storyboard Layer 3 (Foreground)
//Storyboard Sound Samples
//Background Colour Transformations
3,100,0,0,0

[TimingPoints]
200,331.491712707182,4,1,1,75,1,0
2851,-200,4,1,1,75,0,0
13459,-133.333333333333,4,1,1,75,0,0
16111,-100,4,1,1,80,0,0
24067,-100,4,2,1,60,0,0
34675,-100,4,2,1,65,0,0
45282,-133.333333333333,4,2,1,70,0,0
50586,-100,4,1,1,75,0,0
55890,-90.9090909090909,4,1,1,80,0,1
79758,-100,4,1,1,75,0,0
82409,-100,4,1,1,80,0,1
87713,-100,4,1,1,80,0,0

[Colours]
Combo1 : 250,27,27
Combo2 : 143,255,32
Combo3 : 23,255,255

[HitObjects]
100,132,2851,2,0,P|184:160|272:144,1,180,4|0,0:0|0:0,0:0:0:0:
416,252,4177,2,0,P|332:224|244:240,1,180,4|0,0:0|0:0,0:0:0:0:
96,344,5503,2,0,P|36:280|64:200,1,180,4|0,0:0|0:0,0:0:0:0:
132,144,6498,1,0,0:0:0:0:
132,144,6664,1,0,0:0:0:0:
328,32,7492,5,0,0:0:0:0:
372,40,7824,1,0,0:0:0:0:
416,48,8155,1,4,0:0:0:0:
256,352,9150,5,0,0:0:0:0:
300,272,9481,2,0,L|348:196,1,90
372,156,9979,2,0,P|304:136|264:88,1,135
220,12,10807,6,0,L|184:96,1,90,4|0,0:0|0:0,0:0:0:0:
52,128,11470,2,0,L|88:46,1,90,0|0,0:0|0:0,0:0:0:0:
152,168,12133,5,0,0:0:0:0:
116,252,12465,1,0,0:0:0:0:
140,340,12796,1,0,0:0:0:0:
224,368,13128,1,0,0:0:0:0:
308,332,13459,6,0,L|400:332,1,67.5000025749208,4|0,0:0|0:0,0:0:0:0:
488,188,13956,2,0,L|396:188,1,67.5000025749208
320,260,14454,2,0,L|412:260,1,67.5000025749208
476,116,14951,2,0,L|408:116,1,67.5000025749208
324,116,15282,1,0,0:0:0:0:
432,36,15448,1,0,0:0:0:0:
296,36,15614,1,0,0:0:0:0:
296,36,15697,1,0,0:0:0:0:
296,36,15780,1,0,0:0:0:0:
144,28,16111,5,4,0:0:0:0:
96,192,16277,1,0,0:0:0:0:
200,136,16443,1,0,0:0:0:0:
44,120,16608,2,0,P|96:192|180:228,1,180
316,228,17106,1,0,0:0:0:0:
285,94,17271,2,0,P|213:146|177:230,1,180,0|4,0:0|2:0,0:0:0:0:
200,336,17769,1,0,0:0:0:0:
468,352,18100,5,4,0:0:0:0:
400,292,18432,1,0,0:0:0:0:
256,192,18763,12,4,22741,0:0:0:0:
92,228,23072,5,0,0:0:0:0:
92,228,23404,2,0,L|172:188,1,90
352,204,23735,2,0,L|272:244,1,90
376,92,24067,1,4,0:0:0:0:
376,92,24398,6,0,L|468:104,1,90,0|0,1:0|1:0,0:0:0:0:
356,292,24896,1,0,0:0:0:0:
356,292,25061,2,0,L|444:312,2,90,0|0|0,1:0|0:0|0:0,0:0:0:0:
264,288,25559,1,0,0:0:0:0:
264,288,25724,2,0,L|296:376,2,90,0|0|0,1:0|0:0|0:0,0:0:0:0:
212,172,26387,1,0,1:0:0:0:
224,36,26719,5,4,0:0:0:0:
224,36,26885,1,0,0:0:0:0:
224,36,27050,2,0,L|313:32,1,90,0|0,1:0|0:0,0:0:0:0:
456,184,27548,2,0,L|492:96,2,90,0|0|0,0:0|1:0|0:0,0:0:0:0:
388,264,28045,5,0,0:0:0:0:
388,264,28211,1,0,0:0:0:0:
388,264,28376,2,0,L|312:208,1,90,0|0,1:0|0:0,0:0:0:0:
232,144,28708,1,0,0:0:0:0:
124,140,29039,5,4,0:0:0:0:
124,140,29371,2,0,P|140:224|224:248,1,180,4|0,0:0|1:0,0:0:0:0:
160,348,29868,1,0,0:0:0:0:
332,292,30199,1,0,0:0:0:0:
332,292,30365,2,0,L|416:260,1,90,0|0,1:0|0:0,0:0:0:0:
500,224,30697,1,0,0:0:0:0:
500,224,30862,1,0,0:0:0:0:
500,224,31028,2,0,L|468:140,1,90,0|0,1:0|0:0,0:0:0:0:
424,20,31359,5,0,0:0:0:0:
296,84,31691,1,4,0:0:0:0:
160,32,32023,1,4,0:0:0:0:
48,88,32354,6,0,L|48:180,1,90
152,204,32686,1,0,1:0:0:0:
152,184,32769,1,0,0:0:0:0:
152,164,32852,1,0,0:0:0:0:
152,144,32934,1,0,0:0:0:0:
152,124,33017,1,0,1:0:0:0:
48,88,33183,1,4,0:0:0:0:
48,88,33514,6,0,P|116:32|204:36,1,180,4|4,0:0|0:0,0:0:0:0:
312,116,34012,1,0,0:0:0:0:
476,40,34177,1,0,0:0:0:0:
476,48,34260,1,0,0:0:0:0:
476,56,34343,1,0,1:0:0:0:
452,308,34675,5,4,0:0:0:0:
472,128,35006,2,0,L|428:212,1,90,0|0,1:0|0:0,0:0:0:0:
328,356,35503,2,0,P|268:292|180:304,1,180,0|0,0:0|1:0,0:0:0:0:
16,360,36166,1,2,0:0:0:0:
16,352,36249,1,0,0:0:0:0:
16,344,36332,1,2,0:0:0:0:
12,256,36498,5,0,0:0:0:0:
12,164,36664,2,0,P|100:152|176:104,1,180,2|0,0:0|1:0,0:0:0:0:
348,40,37327,2,0,L|268:204,1,180,4|0,0:0|1:0,0:0:0:0:
360,188,37824,2,0,P|308:120|220:124,1,180,2|0,0:0|1:0,0:0:0:0:
112,192,38487,5,0,1:0:0:0:
68,364,38818,1,2,0:0:0:0:
76,360,38901,1,0,0:0:0:0:
84,356,38984,1,0,1:0:0:0:
252,288,39316,6,0,P|340:280|428:308,1,180,2|0,0:0|1:0,0:0:0:0:
188,264,39979,2,0,P|238:191|316:142,1,180,4|0,0:0|0:0,0:0:0:0:
128,296,40641,2,0,P|104:210|116:120,1,180,2|0,0:0|1:0,0:0:0:0:
160,44,41139,1,0,0:0:0:0:
204,120,41304,2,0,P|116:120|72:48,1,180,2|0,0:0|1:0,0:0:0:0:
160,44,41802,1,0,0:0:0:0:
248,40,41967,5,2,0:0:0:0:
256,44,42050,1,0,0:0:0:0:
264,48,42133,1,2,0:0:0:0:
272,52,42216,1,0,0:0:0:0:
280,56,42299,1,0,1:0:0:0:
444,132,42630,5,2,0:0:0:0:
276,200,42962,1,0,1:0:0:0:
208,368,43293,2,0,B|196:328|152:300|152:300|108:272|96:232,1,180,2|0,0:0|1:0,0:0:0:0:
108,52,43956,1,2,0:0:0:0:
84,140,44122,2,0,B|136:144|168:116|168:116|200:88|252:92,1,180,2|0,0:0|1:0,0:0:0:0:
344,100,44619,5,2,0:0:0:0:
388,180,44785,1,0,1:0:0:0:
392,188,44868,1,0,0:0:0:0:
396,196,44951,1,0,1:0:0:0:
400,204,45034,1,0,0:0:0:0:
404,212,45117,1,2,0:0:0:0:
440,284,45282,6,0,P|388:324|320:344,1,135.000005149842,4|0,0:0|1:0,0:0:0:0:
184,356,45945,1,0,1:0:0:0:
52,320,46277,1,0,1:0:0:0:
32,188,46608,2,0,P|88:152|127:97,1,135.000005149842,2|0,0:0|1:0,0:0:0:0:
51,97,47106,2,0,P|90:151|146:187,1,135.000005149842,2|0,0:0|1:0,0:0:0:0:
212,200,47603,1,0,1:0:0:0:
212,200,47934,5,4,0:0:0:0:
504,264,48266,1,0,1:0:0:0:
320,28,48597,1,0,1:0:0:0:
340,324,48929,1,0,1:0:0:0:
500,76,49260,6,0,L|472:140,1,67.5000025749208,2|0,0:0|0:0,0:0:0:0:
420,204,49592,2,0,L|352:192,1,67.5000025749208,2|2,0:0|0:0,0:0:0:0:
284,180,49923,1,0,0:0:0:0:
168,200,50089,1,0,0:0:0:0:
232,224,50255,1,2,0:0:0:0:
156,132,50420,1,0,0:0:0:0:
220,156,50586,5,4,0:0:0:0:
220,156,50752,2,0,L|292:96,2,90
424,64,51249,2,0,L|354:121,1,90,0|0,0:0|0:0,0:0:0:0:
312,240,51746,5,0,0:0:0:0:
312,240,52078,2,0,P|392:272|480:240,1,180,0|0,0:0|0:0,0:0:0:0:
512,112,52575,1,0,0:0:0:0:
512,112,52907,5,0,0:0:0:0:
336,80,53238,6,0,L|372:40,2,45
220,208,53570,1,0,0:0:0:0:
184,80,53735,1,0,0:0:0:0:
272,336,54067,1,0,0:0:0:0:
40,336,54398,5,4,0:0:0:0:
40,336,54730,2,0,P|24:256|104:244,1,180
128,328,55227,1,4,0:0:0:0:
324,328,55890,6,0,P|412:344|508:292,1,198.000006042481,4|0,0:0|0:0,0:0:0:0:
424,172,56387,1,0,0:0:0:0:
424,172,56553,2,0,P|336:140|240:172,1,198.000006042481,0|0,0:0|0:0,0:0:0:0:
324,328,57050,1,0,0:0:0:0:
324,328,57216,6,0,P|236:344|140:292,1,198.000006042481,4|0,0:0|0:0,0:0:0:0:
24,196,57713,1,0,0:0:0:0:
44,184,57796,1,0,0:0:0:0:
64,172,57879,2,0,B|104:140|104:140|96:128|96:108|108:96|108:96|120:84|136:84|152:100|152:100|192:68,1,198.000006042481
424,32,58542,6,0,L|356:108,1,99.0000030212403,4|0,0:0|0:0,0:0:0:0:
264,76,58874,2,0,P|296:156|287:265,1,198.000006042481
108,348,59537,1,0,0:0:0:0:
4,292,59702,1,0,0:0:0:0:
76,200,59868,5,2,2:0:0:0:
292,364,60199,1,2,2:0:0:0:
220,20,60531,1,2,2:0:0:0:
436,184,60862,1,2,2:0:0:0:
260,276,61194,5,4,0:0:0:0:
176,224,61360,1,0,0:0:0:0:
160,216,61443,1,0,0:0:0:0:
144,208,61525,2,0,P|104:180|76:136,1,99.0000030212403
100,36,61857,1,0,0:0:0:0:
208,24,62023,5,0,0:0:0:0:
228,24,62106,1,0,0:0:0:0:
248,24,62188,1,0,0:0:0:0:
356,36,62354,1,0,0:0:0:0:
436,120,62520,2,0,P|416:200|312:224,1,198.000006042481
348,140,63017,2,0,P|400:252|268:304,1,297.000009063721
104,28,63846,6,0,L|80:224,1,198.000006042481,4|0,0:0|0:0,0:0:0:0:
196,272,64343,1,0,0:0:0:0:
196,248,64426,1,0,0:0:0:0:
196,224,64509,2,0,L|196:24,1,198.000006042481,4|0,0:0|0:0,0:0:0:0:
288,28,65006,1,0,0:0:0:0:
292,52,65089,1,0,0:0:0:0:
296,76,65172,6,0,L|320:272,1,198.000006042481,4|0,0:0|0:0,0:0:0:0:
352,356,65669,2,0,L|400:372,2,49.5000015106202,0|0|4,0:0|0:0|0:0,0:0:0:0:
256,328,66001,2,0,L|208:316,5,49.5000015106202
188,328,66498,6,0,P|100:344|4:292,1,198.000006042481,4|0,0:0|0:0,0:0:0:0:
88,172,66995,1,0,0:0:0:0:
88,172,67161,2,0,P|176:140|272:172,1,198.000006042481,0|0,0:0|0:0,0:0:0:0:
188,328,67658,1,0,0:0:0:0:
188,328,67824,6,0,P|276:344|372:292,1,198.000006042481,4|0,0:0|0:0,0:0:0:0:
488,196,68321,1,0,0:0:0:0:
468,184,68404,1,0,0:0:0:0:
448,172,68487,2,0,B|408:140|408:140|416:128|416:108|404:96|404:96|392:84|376:84|360:100|360:100|320:68,1,198.000006042481
88,32,69150,6,0,L|156:108,1,99.0000030212403,4|0,0:0|0:0,0:0:0:0:
248,76,69482,2,0,P|216:156|224:265,1,198.000006042481
404,348,70144,1,0,0:0:0:0:
508,292,70309,1,0,0:0:0:0:
436,208,70476,5,2,2:0:0:0:
240,368,70807,1,2,2:0:0:0:
76,176,71139,1,2,2:0:0:0:
272,16,71470,5,0,0:0:0:0:
348,80,71636,2,0,P|312:108|248:112,1,99.0000030212403,0|4,0:0|0:0,0:0:0:0:
76,32,72133,1,0,0:0:0:0:
176,24,72299,2,0,B|180:76|144:120|92:132|92:132|40:148|4:188|8:240,1,297.000009063721
112,368,73128,2,0,P|100:280|8:240,1,198.000006042481,4|0,0:0|0:0,0:0:0:0:
16,340,73625,2,0,L|256:144,1,297.000009063721
400,368,74454,6,0,P|412:280|504:240,1,198.000006042481,4|0,0:0|0:0,0:0:0:0:
496,340,74951,2,0,L|256:144,1,297.000009063721
80,88,75780,6,0,L|2:26,2,99.0000030212403
160,176,76277,1,0,0:0:0:0:
32,232,76443,1,0,0:0:0:0:
112,320,76608,2,0,L|189:381,2,99.0000030212403
32,232,77106,6,0,L|0:136,1,99.0000030212403,4|0,0:0|0:0,0:0:0:0:
88,32,77603,2,0,L|184:56,1,99.0000030212403
424,32,78100,2,0,L|328:56,1,99.0000030212403
511,138,78597,2,0,L|480:232,1,99.0000030212403,4|0,0:0|0:0,0:0:0:0:
448,316,78929,1,0,0:0:0:0:
412,184,79095,1,0,0:0:0:0:
372,312,79260,1,0,0:0:0:0:
372,312,79343,1,0,0:0:0:0:
372,312,79427,1,0,0:0:0:0:
160,344,79758,5,4,0:0:0:0:
152,196,79924,1,0,0:0:0:0:
256,264,80090,1,0,0:0:0:0:
96,260,80255,2,0,P|148:200|240:164,1,180
380,164,80753,1,0,0:0:0:0:
240,164,80918,2,0,P|148:128|96:68,1,180
144,268,81747,5,4,0:0:0:0:
52,168,82079,1,0,0:0:0:0:
256,192,82410,12,4,86387,0:0:0:0:
348,280,86553,5,0,0:0:0:0:
432,192,86719,1,0,0:0:0:0:
256,64,87050,5,0,0:0:0:0:
348,280,87382,1,0,0:0:0:0:
116,256,87713,1,4,0:0:0:0:
