osu file format v12

[General]
AudioFilename: tasogare.mp3
AudioLeadIn: 0
PreviewTime: -1
Countdown: 1
SampleSet: Normal
StackLeniency: 0.7
Mode: 0
LetterboxInBreaks: 1
WidescreenStoryboard: 0

[Editor]
Bookmarks: 23488,86472,87798
DistanceSpacing: 2
BeatDivisor: 4
GridSize: 8

[Metadata]
Title:CHOIR JAIL
TitleUnicode:CHOIR JAIL
Artist:Suzuki Konomi
ArtistUnicode:Suzuki Konomi
Creator:SunBurn
Version:BURN!
Source:Tasogare Otomo x Amnesia
Tags:Tasogare Otomo x Amnesia Sunburn Anime Music Rocky Rock fast powerful
BeatmapID:330927
BeatmapSetID:131389

[Difficulty]
HPDrainRate:7
CircleSize:4
OverallDifficulty:7
ApproachRate:9
SliderMultiplier:2
SliderTickRate:1

[Events]
//Background and Video events
//Break Periods
//Storyboard Layer 0 (Background)
//Storyboard Layer 1 (Fail)
//Storyboard Layer 2 (Pass)
//Storyboard Layer 3 (Foreground)
//Storyboard Sound Samples
//Background Colour Transformations
3,100,163,162,255

[TimingPoints]
21500,331.491712707182,4,1,0,100,1,0
21500,-66.6666666666667,4,1,0,100,0,0
48019,-100,4,1,0,100,0,0
67908,-50,4,1,0,100,0,0

[HitObjects]
96,72,2936,1,0,0:0:0:0:
256,192,3102,1,0,0:0:0:0:
416,312,3267,1,0,0:0:0:0:
416,72,3433,2,0,B|248:208|256:192,1,200
256,312,3930,1,0,0:0:0:0:
96,72,4096,2,0,L|264:200,1,200
96,312,4593,1,0,0:0:0:0:
184,64,4925,5,0,0:0:0:0:
328,64,5091,1,0,0:0:0:0:
328,320,5256,1,0,0:0:0:0:
184,320,5422,1,0,0:0:0:0:
256,192,5588,6,0,B|312:160|344:248|344:248|408:112|296:80|456:24,2,400
232,144,7577,1,0,0:0:0:0:
112,192,8240,2,0,B|176:168|248:208|288:256|240:336|400:272|400:184|304:136,1,400
256,64,9234,1,0,0:0:0:0:
256,192,9400,12,0,10229,0:0:0:0:
384,304,10560,5,0,0:0:0:0:
368,280,10892,2,0,B|376:160|336:160|256:160,2,200
88,192,11886,1,0,0:0:0:0:
120,192,12218,1,0,0:0:0:0:
152,192,12549,2,0,L|256:192,1,100
400,192,13212,1,0,0:0:0:0:
304,64,13544,6,0,P|384:112|368:192,1,175
368,192,13875,2,0,P|376:240|272:280,1,175
264,280,14207,2,0,P|184:232|160:152,1,175
168,152,14538,2,0,P|248:104|232:24,1,175
248,24,14870,2,0,P|328:72|344:176,1,200
400,192,15533,5,0,0:0:0:0:
112,192,15864,1,0,0:0:0:0:
384,64,16196,1,0,0:0:0:0:
128,320,16361,1,0,0:0:0:0:
128,64,16693,1,0,0:0:0:0:
384,320,16859,1,0,0:0:0:0:
256,64,17190,5,0,0:0:0:0:
256,320,17356,1,0,0:0:0:0:
128,192,17687,1,0,0:0:0:0:
384,192,17853,1,0,0:0:0:0:
368,96,18185,5,0,0:0:0:0:
352,128,18267,1,0,0:0:0:0:
320,136,18350,1,0,0:0:0:0:
288,128,18433,1,0,0:0:0:0:
256,128,18516,1,0,0:0:0:0:
240,152,18599,1,0,0:0:0:0:
256,184,18682,2,0,L|336:288,1,100
176,288,19013,1,0,0:0:0:0:
176,184,19179,1,0,0:0:0:0:
160,64,19345,2,0,L|368:64,1,200
256,184,19842,1,0,0:0:0:0:
352,320,20008,2,0,L|144:320,1,200
256,192,20505,12,0,21168,0:0:0:0:
64,320,21499,5,0,0:0:0:0:
280,184,21665,1,0,0:0:0:0:
176,248,21831,2,0,L|344:360,1,150.000005722046
112,288,22162,5,0,0:0:0:0:
328,152,22328,1,0,0:0:0:0:
224,216,22494,2,0,L|392:328,1,150.000005722046
232,184,22825,5,0,0:0:0:0:
448,320,22991,1,0,0:0:0:0:
344,256,23157,2,0,L|512:144,1,150.000005722046
184,152,23488,5,0,0:0:0:0:
400,288,23654,1,0,0:0:0:0:
296,224,23820,2,0,L|464:112,1,150.000005722046
256,96,24151,5,0,0:0:0:0:
256,288,24317,1,0,0:0:0:0:
256,192,24483,1,0,0:0:0:0:
256,192,24566,1,0,0:0:0:0:
256,192,24649,1,0,0:0:0:0:
392,192,24814,5,0,0:0:0:0:
336,120,24980,1,0,0:0:0:0:
176,120,25146,1,0,0:0:0:0:
120,192,25312,1,0,0:0:0:0:
64,56,25477,5,0,0:0:0:0:
96,56,25560,1,0,0:0:0:0:
128,56,25643,1,0,0:0:0:0:
160,56,25726,1,0,0:0:0:0:
192,56,25809,1,0,0:0:0:0:
224,64,25892,1,0,0:0:0:0:
248,80,25975,1,0,0:0:0:0:
264,104,26058,1,0,0:0:0:0:
272,136,26140,5,0,0:0:0:0:
272,168,26223,1,0,0:0:0:0:
272,200,26306,1,0,0:0:0:0:
272,232,26389,1,0,0:0:0:0:
272,264,26472,1,0,0:0:0:0:
280,296,26555,1,0,0:0:0:0:
296,320,26638,1,0,0:0:0:0:
328,336,26720,1,0,0:0:0:0:
360,344,26803,6,0,B|432:296|440:216|336:168|456:72,1,300.000011444092
144,256,27301,1,0,0:0:0:0:
224,64,27466,1,0,0:0:0:0:
368,192,27632,1,0,0:0:0:0:
392,64,27798,1,0,0:0:0:0:
368,192,27964,2,0,B|368:336|248:384|160:368|192:224|80:168,1,450.000017166138
256,192,28627,1,0,0:0:0:0:
312,48,28792,1,0,0:0:0:0:
200,336,29124,1,0,0:0:0:0:
80,96,29455,5,0,0:0:0:0:
432,128,29787,1,0,0:0:0:0:
304,304,29953,1,0,0:0:0:0:
224,152,30284,1,0,0:0:0:0:
88,192,30616,2,0,B|88:48|208:0|296:16|264:160|376:216,1,450.000017166138
128,288,31279,5,0,0:0:0:0:
384,288,31444,1,0,0:0:0:0:
256,192,31776,1,0,0:0:0:0:
112,88,32107,1,0,0:0:0:0:
400,160,32439,1,0,0:0:0:0:
328,80,32604,2,0,L|112:288,2,300.000011444092
96,88,33930,5,0,0:0:0:0:
368,288,34096,1,0,0:0:0:0:
200,152,34262,2,0,P|272:160|272:248,1,150.000005722046
352,104,34759,5,0,0:0:0:0:
200,296,35091,1,0,0:0:0:0:
168,96,35256,1,0,0:0:0:0:
336,240,35588,1,0,0:0:0:0:
64,48,35919,5,0,0:0:0:0:
440,336,36251,1,0,0:0:0:0:
88,312,36582,1,0,0:0:0:0:
392,88,36748,1,0,0:0:0:0:
112,48,37411,5,0,0:0:0:0:
136,72,37494,1,0,0:0:0:0:
160,96,37577,1,0,0:0:0:0:
184,120,37660,1,0,0:0:0:0:
208,144,37743,1,0,0:0:0:0:
232,168,37825,1,0,0:0:0:0:
256,192,37908,2,0,L|368:296,1,150.000005722046
96,304,38240,5,0,0:0:0:0:
416,80,38571,1,0,0:0:0:0:
232,168,38903,1,0,0:0:0:0:
256,192,38986,1,0,0:0:0:0:
280,216,39069,1,0,0:0:0:0:
256,72,39234,6,0,L|144:192,1,150.000005722046
456,328,39732,1,0,0:0:0:0:
256,312,40063,6,0,L|368:192,1,150.000005722046
256,72,40395,2,0,L|144:192,1,150.000005722046
256,192,40892,1,0,0:0:0:0:
256,192,41223,1,0,0:0:0:0:
400,32,41555,5,0,0:0:0:0:
432,32,41638,1,0,0:0:0:0:
472,32,41720,1,0,0:0:0:0:
112,80,42052,5,0,0:0:0:0:
112,304,42383,1,0,0:0:0:0:
400,304,42715,1,0,0:0:0:0:
400,80,43046,1,0,0:0:0:0:
256,192,43378,5,0,0:0:0:0:
256,40,43709,1,0,0:0:0:0:
256,344,44041,2,0,L|256:24,1,300.000011444092
424,192,44538,1,0,0:0:0:0:
104,192,44704,1,0,0:0:0:0:
136,192,44787,1,0,0:0:0:0:
176,192,44870,1,0,0:0:0:0:
216,192,44953,1,0,0:0:0:0:
256,192,45035,1,0,0:0:0:0:
408,192,45367,5,0,0:0:0:0:
376,192,45450,1,0,0:0:0:0:
336,192,45533,1,0,0:0:0:0:
296,192,45616,1,0,0:0:0:0:
256,192,45698,2,0,B|256:328|80:328|64:192,2,300.000011444092
80,56,46693,5,0,0:0:0:0:
112,64,46776,1,0,0:0:0:0:
144,80,46859,1,0,0:0:0:0:
168,104,46941,1,0,0:0:0:0:
192,128,47024,1,0,0:0:0:0:
280,336,47356,5,2,0:0:0:0:
256,304,47439,1,0,0:0:0:0:
256,264,47522,1,0,0:0:0:0:
280,232,47604,1,0,0:0:0:0:
312,224,47687,1,0,0:0:0:0:
344,208,47770,1,0,0:0:0:0:
376,192,47853,1,0,0:0:0:0:
400,160,47936,1,0,0:0:0:0:
400,128,48019,6,0,B|296:96|192:152|168:232|24:272,2,400
136,96,49676,1,0,0:0:0:0:
376,288,49842,1,0,0:0:0:0:
256,192,50174,2,0,B|280:128|344:160|336:304|184:352,1,300
276,81,51002,2,0,L|96:200,2,200
384,88,51997,5,0,0:0:0:0:
256,192,52162,1,0,0:0:0:0:
368,288,52328,1,0,0:0:0:0:
112,208,52494,2,0,L|400:80,1,300
152,112,53323,5,0,0:0:0:0:
256,296,53488,1,0,0:0:0:0:
376,192,53654,1,0,0:0:0:0:
304,88,53820,2,0,L|240:208,2,100
112,320,54483,5,0,0:0:0:0:
168,40,54814,1,0,0:0:0:0:
328,264,55146,2,0,L|256:192,1,100
320,72,55975,5,0,0:0:0:0:
288,96,55975,1,0,0:0:0:0:
256,112,56057,1,0,0:0:0:0:
224,120,56140,1,0,0:0:0:0:
184,120,56223,1,0,0:0:0:0:
144,112,56306,1,0,0:0:0:0:
112,96,56389,1,0,0:0:0:0:
80,72,56472,2,0,L|168:24,1,100
40,32,56803,1,0,0:0:0:0:
256,192,56969,12,0,58295,0:0:0:0:
96,80,58627,5,0,0:0:0:0:
128,80,58709,1,0,0:0:0:0:
168,80,58792,1,0,0:0:0:0:
200,80,58875,1,0,0:0:0:0:
240,80,58958,1,0,0:0:0:0:
280,80,59041,1,0,0:0:0:0:
320,80,59124,1,0,0:0:0:0:
352,88,59207,1,0,0:0:0:0:
376,112,59290,6,0,L|400:160,3,50
400,192,59621,1,0,0:0:0:0:
400,232,59704,1,0,0:0:0:0:
400,264,59787,1,0,0:0:0:0:
392,304,59870,2,0,L|344:328,4,50
312,328,60284,1,0,0:0:0:0:
272,328,60367,1,0,0:0:0:0:
232,328,60450,1,0,0:0:0:0:
192,328,60533,1,0,0:0:0:0:
160,320,60616,6,0,L|120:280,3,50,0|0|0|0,0:0|0:0|0:0|0:0,0:0:0:0:
120,248,60947,1,0,0:0:0:0:
136,216,61030,1,0,0:0:0:0:
168,192,61113,1,0,0:0:0:0:
200,184,61196,1,0,0:0:0:0:
232,184,61279,5,0,0:0:0:0:
352,296,61444,1,0,0:0:0:0:
408,136,61610,1,0,0:0:0:0:
160,88,61776,1,0,0:0:0:0:
104,248,61941,1,0,0:0:0:0:
288,72,62107,1,0,0:0:0:0:
224,312,62273,1,0,0:0:0:0:
256,192,62439,1,0,0:0:0:0:
256,192,62604,12,0,63267,0:0:0:0:
88,72,63599,5,0,0:0:0:0:
416,80,63930,5,0,0:0:0:0:
384,80,64012,1,0,0:0:0:0:
344,80,64095,1,0,0:0:0:0:
312,80,64178,1,0,0:0:0:0:
272,80,64261,1,0,0:0:0:0:
232,80,64344,1,0,0:0:0:0:
192,80,64427,1,0,0:0:0:0:
160,88,64510,1,0,0:0:0:0:
136,112,64593,6,0,L|112:160,3,50
112,192,64924,1,0,0:0:0:0:
112,232,65007,1,0,0:0:0:0:
112,264,65090,1,0,0:0:0:0:
120,304,65173,2,0,L|168:328,4,50
200,328,65587,1,0,0:0:0:0:
240,328,65670,1,0,0:0:0:0:
280,328,65753,1,0,0:0:0:0:
320,328,65836,1,0,0:0:0:0:
352,320,65919,6,0,L|392:280,3,50,0|0|0|0,0:0|0:0|0:0|0:0,0:0:0:0:
392,248,66250,1,0,0:0:0:0:
376,216,66333,1,0,0:0:0:0:
344,192,66416,1,0,0:0:0:0:
312,184,66499,1,0,0:0:0:0:
272,184,66582,5,0,0:0:0:0:
400,64,66914,1,0,0:0:0:0:
120,304,67245,1,0,0:0:0:0:
144,64,67577,1,0,0:0:0:0:
256,88,67908,2,0,L|256:288,1,200
256,288,68157,1,0,0:0:0:0:
256,288,68240,1,0,0:0:0:0:
408,320,68406,5,0,0:0:0:0:
80,120,68571,1,0,0:0:0:0:
384,64,69234,5,0,0:0:0:0:
384,320,69400,1,0,0:0:0:0:
128,320,69566,1,0,0:0:0:0:
128,64,69732,1,0,0:0:0:0:
387,156,69897,5,0,0:0:0:0:
291,323,70063,1,0,0:0:0:0:
124,227,70229,1,0,0:0:0:0:
220,60,70395,1,0,0:0:0:0:
352,216,70560,5,0,0:0:0:0:
227,288,70726,1,0,0:0:0:0:
155,163,70892,1,0,0:0:0:0:
279,91,71058,1,0,0:0:0:0:
309,243,71223,5,0,0:0:0:0:
201,243,71389,1,0,0:0:0:0:
201,135,71555,1,0,0:0:0:0:
308,135,71721,1,0,0:0:0:0:
256,192,71886,5,0,0:0:0:0:
288,184,71969,1,0,0:0:0:0:
320,168,72052,1,0,0:0:0:0:
352,152,72135,1,0,0:0:0:0:
376,128,72218,1,0,0:0:0:0:
384,96,72301,1,0,0:0:0:0:
376,64,72383,1,0,0:0:0:0:
344,40,72466,1,0,0:0:0:0:
312,32,72549,1,0,0:0:0:0:
272,32,72632,1,0,0:0:0:0:
240,40,72715,1,0,0:0:0:0:
208,56,72798,1,0,0:0:0:0:
256,192,72881,12,0,73875,0:0:0:0:
96,304,74207,6,0,L|272:184,1,200
432,72,74538,1,0,0:0:0:0:
368,320,74704,1,0,0:0:0:0:
96,104,74870,1,0,0:0:0:0:
320,112,75035,5,0,0:0:0:0:
224,240,75201,2,0,L|48:344,1,200
192,64,75533,1,0,0:0:0:0:
392,240,75698,1,0,0:0:0:0:
272,208,75864,2,0,B|128:208|128:136|144:40|216:24|400:40|472:64|512:208|440:360|176:352|160:320,1,800
368,72,76859,5,0,0:0:0:0:
400,176,77190,2,0,L|144:344,1,300
96,272,77522,2,0,L|40:80,2,200
256,192,78185,1,0,0:0:0:0:
64,80,78516,5,0,0:0:0:0:
112,80,78682,1,0,0:0:0:0:
168,80,78848,1,0,0:0:0:0:
232,80,79013,1,0,0:0:0:0:
304,104,79179,1,0,0:0:0:0:
368,168,79345,1,0,0:0:0:0:
392,264,79511,1,0,0:0:0:0:
368,352,79676,1,0,0:0:0:0:
168,256,79842,1,0,0:0:0:0:
256,192,80174,1,0,0:0:0:0:
256,192,80339,12,0,82162,0:0:0:0:
104,72,82494,5,0,0:0:0:0:
336,280,82660,1,0,0:0:0:0:
136,288,82825,1,0,0:0:0:0:
352,136,82991,1,0,0:0:0:0:
144,192,83323,5,0,0:0:0:0:
256,328,83488,1,0,0:0:0:0:
368,192,83654,1,0,0:0:0:0:
256,48,83986,1,0,0:0:0:0:
88,72,84483,2,0,L|432:312,1,400
80,192,85146,5,0,0:0:0:0:
112,192,85229,1,0,0:0:0:0:
144,192,85312,1,0,0:0:0:0:
176,192,85395,1,0,0:0:0:0:
208,192,85477,1,0,0:0:0:0:
240,192,85560,1,0,0:0:0:0:
272,192,85643,1,0,0:0:0:0:
304,192,85726,1,0,0:0:0:0:
336,192,85809,1,0,0:0:0:0:
296,80,85975,5,0,0:0:0:0:
376,264,86140,1,0,0:0:0:0:
448,48,86306,1,0,0:0:0:0:
448,336,86472,1,0,0:0:0:0:
448,192,86638,1,0,0:0:0:0:
48,104,86803,1,0,0:0:0:0:
224,328,86969,1,0,0:0:0:0:
328,56,87135,1,0,0:0:0:0:
200,192,87301,5,0,0:0:0:0:
312,192,87466,1,0,0:0:0:0:
112,192,87632,1,0,0:0:0:0:
400,192,87798,1,0,0:0:0:0:
32,192,87964,5,0,0:0:0:0:
480,192,88129,1,0,0:0:0:0:
32,192,88295,1,0,0:0:0:0:
480,192,88461,1,0,0:0:0:0:
112,192,88627,1,0,0:0:0:0:
400,192,88792,1,0,0:0:0:0:
200,192,88958,1,0,0:0:0:0:
312,192,89124,6,0,L|232:272,3,100
224,264,89455,2,0,L|120:208,3,100
144,208,89787,2,0,L|224:128,3,100
224,144,90118,2,0,L|304:224,3,100
376,96,90450,5,0,0:0:0:0:
