osu file format v14

[General]
AudioFilename: Ao no Kanata.mp3
AudioLeadIn: 0
PreviewTime: 54249
Countdown: 0
SampleSet: Soft
StackLeniency: 0.7
Mode: 0
LetterboxInBreaks: 0
WidescreenStoryboard: 0

[Editor]
DistanceSpacing: 1.4
BeatDivisor: 4
GridSize: 32
TimelineZoom: 1

[Metadata]
Title:Ao no Kanata (TV Size)
TitleUnicode:蒼の彼方 (TV Size)
Artist:Suzuki Konomi
ArtistUnicode:鈴木このみ
Creator:C O N N E R
Version:Sora
Source:ソラとウミのアイダ
Tags:sora to umi no aida ending 15th album
BeatmapID:1806173
BeatmapSetID:863485

[Difficulty]
HPDrainRate:7
CircleSize:4
OverallDifficulty:8
ApproachRate:9.3
SliderMultiplier:1.91
SliderTickRate:1

[Events]
//Background and Video events
0,0,"BG.jpg",0,0
//Break Periods
//Storyboard Layer 0 (Background)
//Storyboard Layer 1 (Fail)
//Storyboard Layer 2 (Pass)
//Storyboard Layer 3 (Foreground)
//Storyboard Sound Samples

[TimingPoints]
1430,319.148936170213,4,2,1,50,1,0
1430,-121.951219512195,4,2,1,50,0,0
16669,-121.951219512195,4,2,1,5,0,0
16749,-121.951219512195,4,2,1,50,0,0
19302,-100,4,2,1,60,0,0
20658,-100,4,2,1,5,0,0
20738,-100,4,2,1,30,0,0
20898,-100,4,2,1,40,0,0
21057,-100,4,2,1,50,0,0
21217,-100,4,2,1,60,0,0
29435,-100,4,2,1,5,0,0
29515,-100,4,2,1,60,0,0
41084,-100,4,2,1,5,0,0
41164,-100,4,2,1,60,0,0
42520,-100,4,2,1,5,0,0
42600,-100,4,2,1,60,0,0
43637,-100,4,2,1,5,0,0
43717,-100,4,2,1,40,0,0
44036,-100,4,2,1,50,0,0
44355,-100,4,2,1,60,0,0
44834,-142.857142857143,4,2,1,60,0,0
47387,-100,4,2,1,60,0,0
47626,-100,4,2,1,5,0,0
47706,-100,4,2,1,60,0,0
48743,-100,4,2,1,5,0,0
48823,-100,4,2,1,60,0,0
52733,-100,4,2,1,5,0,0
52812,-100,4,2,1,40,0,0
53132,-100,4,2,1,50,0,0
53451,-100,4,2,1,60,0,0
53850,-100,4,2,1,5,0,0
53930,-100,4,2,1,60,0,0
54009,-100,4,2,1,5,0,0
54089,-100,4,2,1,60,0,0
54169,-100,4,2,1,5,0,0
54249,-100,4,2,1,60,0,0
54328,-100,4,2,1,5,0,0
54727,-71.4285714285714,4,2,1,55,0,0
54967,-71.4285714285714,4,2,1,5,0,0
55047,-83.3333333333333,4,2,1,80,0,1
64940,-62.5,4,2,1,80,0,1
65259,-83.3333333333333,4,2,1,80,0,1
75392,-83.3333333333333,4,2,1,80,0,0
75472,-76.9230769230769,4,2,1,80,0,1
75632,-76.9230769230769,4,2,1,5,0,1
75791,-76.9230769230769,4,2,1,80,0,1
75951,-76.9230769230769,4,2,1,5,0,1
76110,-76.9230769230769,4,2,1,80,0,1
76270,-76.9230769230769,4,2,1,5,0,1
76430,-76.9230769230769,4,2,1,80,0,1
76589,-76.9230769230769,4,2,1,5,0,1
76749,-76.9230769230769,4,2,1,80,0,1
76908,-76.9230769230769,4,2,1,5,0,1
77068,-76.9230769230769,4,2,1,80,0,1
77227,-76.9230769230769,4,2,1,5,0,1
77387,-76.9230769230769,4,2,1,80,0,1
77547,-76.9230769230769,4,2,1,5,0,1
77706,-76.9230769230769,4,2,1,80,0,1
77866,-76.9230769230769,4,2,1,5,0,1
78025,-76.9230769230769,4,2,1,80,0,1
80818,-76.9230769230769,4,2,1,5,0,1
80898,-76.9230769230769,4,2,1,50,0,1
81217,-76.9230769230769,4,2,1,60,0,1
81536,-76.9230769230769,4,2,1,70,0,1
81855,-76.9230769230769,4,2,1,80,0,1
82174,-100,4,2,1,80,0,0
83132,-100,4,2,1,50,0,1
83211,-100,4,2,1,50,0,0
86323,-100,4,2,1,60,0,0
86802,-100,4,2,1,70,0,0
87041,-100,4,2,1,5,0,0
87121,-100,4,2,1,70,0,0

[Colours]
Combo1 : 235,247,187
Combo2 : 0,128,255
Combo3 : 128,64,64
Combo4 : 255,196,196

[HitObjects]
74,180,1430,6,0,P|126:179|163:154,1,78.3100011949158
111,22,1749,2,0,P|104:64|99:106,1,78.3100011949158
220,202,2068,2,0,B|233:166|233:166|219:117,1,78.3100011949158
69,191,2387,2,0,P|73:229|80:268,1,78.3100011949158
152,351,2706,6,0,B|234:329|234:378|312:363,1,156.620002389832
360,269,3185,1,0,0:0:0:0:
439,343,3344,2,0,P|485:337|512:315,1,78.3100011949158
466,176,3664,2,0,P|459:223|456:262,1,78.3100011949158
279,285,3983,6,0,B|246:217|246:217|278:128,1,156.620002389832
343,56,4461,1,0,0:0:0:0:
239,18,4621,2,0,P|201:17|166:38,1,78.3100011949158
26,92,4940,2,0,P|71:100|116:111,1,78.3100011949158
181,193,5259,6,0,B|99:171|111:224|21:205,1,156.620002389832
3,313,5738,1,0,0:0:0:0:
96,370,5898,2,0,P|139:358|181:351,1,78.3100011949158
259,241,6217,2,0,B|244:280|244:280|257:332,1,78.3100011949158
352,361,6536,6,0,P|359:273|375:180,1,156.620002389832
449,130,7015,1,0,0:0:0:0:
369,205,7174,2,0,P|319:213|234:158,1,156.620002389832
228,48,7653,1,0,0:0:0:0:
333,21,7812,6,0,P|334:63|321:103,1,78.3100011949158
165,203,8132,2,0,P|154:165|155:126,1,78.3100011949158
372,290,8451,2,0,B|292:269|296:323|205:300,1,156.620002389832
150,217,8930,1,0,0:0:0:0:
101,314,9089,6,0,P|54:271|58:175,1,156.620002389832
128,102,9568,1,0,0:0:0:0:
233,130,9727,2,0,P|285:120|318:93,1,78.3100011949158
396,15,10047,2,0,B|381:54|381:54|396:97,1,78.3100011949158
470,166,10366,6,0,P|399:154|346:227,1,156.620002389832
389,313,10844,1,0,0:0:0:0:
290,360,11004,1,0,0:0:0:0:
408,302,11164,2,0,L|359:286,1,39.1550005974579
259,253,11323,2,0,L|273:164,1,78.3100011949158
174,331,11642,6,0,L|145:160,1,156.620002389832
52,116,12121,1,0,0:0:0:0:
199,94,12281,2,0,B|209:52|209:52|193:14,1,78.3100011949158
52,116,12600,2,0,P|61:160|68:200,1,78.3100011949158
24,291,12919,6,0,B|104:270|100:324|191:301,1,156.620002389832
263,235,13398,1,0,0:0:0:0:
363,278,13557,2,0,P|354:325|346:360,1,78.3100011949158
452,216,13876,2,0,P|443:177|436:139,1,78.3100011949158
474,36,14195,6,0,P|436:77|328:64,1,156.620002389832
252,8,14674,1,0,0:0:0:0:
158,65,14834,2,0,P|153:121|161:150,1,78.3100011949158
263,235,15153,2,0,P|268:179|260:150,1,78.3100011949158
81,156,15472,6,0,P|92:213|111:320,1,156.620002389832
26,382,15951,1,0,0:0:0:0:
109,310,16110,2,0,P|154:313|192:348,1,78.3100011949158
284,368,16430,2,0,B|359:349|359:349|387:364|413:366,1,117.465001792374
396,363,16749,6,0,P|412:322|410:272,1,78.3100011949158
271,212,17068,2,0,L|287:292,1,78.3100011949158
387,186,17387,2,0,L|403:106,1,78.3100011949158
219,121,17706,2,0,P|273:109|312:91,1,78.3100011949158
425,28,18025,6,0,B|352:-5|352:-5|264:21,1,156.620002389832
211,103,18504,1,0,0:0:0:0:
94,24,18664,1,0,0:0:0:0:
219,121,18823,2,0,L|211:177,1,39.1550005974579
49,218,18983,2,0,P|98:202|147:189,1,78.3100011949158
203,368,19302,6,0,P|139:322|209:256,1,191
296,346,19781,2,0,P|357:343|483:296,1,191
490,166,20259,1,0,0:0:0:0:
374,233,20419,6,0,P|362:164|342:77,1,143.25
294,31,20738,1,0,0:0:0:0:
490,166,20898,1,0,0:0:0:0:
241,144,21057,1,0,0:0:0:0:
494,22,21217,1,0,0:0:0:0:
494,22,21536,5,0,0:0:0:0:
478,46,21616,1,0,0:0:0:0:
453,61,21696,1,0,0:0:0:0:
426,71,21776,1,0,0:0:0:0:
398,77,21855,6,0,P|353:70|292:57,1,95.5
147,160,22174,2,0,P|193:150|240:143,1,95.5
281,271,22493,1,0,0:0:0:0:
208,24,22653,1,0,0:0:0:0:
208,24,22972,5,0,0:0:0:0:
281,271,23132,1,0,0:0:0:0:
126,167,23291,5,0,0:0:0:0:
302,75,23451,1,0,0:0:0:0:
117,296,23610,5,0,0:0:0:0:
31,13,23770,1,0,0:0:0:0:
59,9,23850,1,0,0:0:0:0:
86,14,23929,1,0,0:0:0:0:
111,26,24009,1,0,0:0:0:0:
130,47,24089,1,0,0:0:0:0:
145,71,24169,1,0,0:0:0:0:
146,99,24249,2,0,L|137:167,1,47.75
0,230,24408,6,0,B|39:193|39:193|66:191|93:195,1,95.5
281,271,24727,2,0,P|216:258|174:246,1,95.5
55,110,25047,1,0,0:0:0:0:
242,56,25206,1,0,0:0:0:0:
187,250,25366,2,0,P|175:196|169:152,1,95.5
41,107,25685,6,0,P|40:189|23:318,1,191
141,366,26164,1,0,0:0:0:0:
258,303,26323,2,0,B|307:290|307:290|356:324,1,95.5
512,364,26642,2,0,P|469:383|421:381,1,95.5
352,229,26961,6,0,B|407:186|477:219|477:219|512:198|513:171,1,191
421,76,27440,1,0,0:0:0:0:
336,213,27600,2,0,P|268:199|226:188,1,95.5
287,30,27919,2,0,L|305:129,1,95.5
158,238,28238,5,0,0:0:0:0:
304,123,28398,1,0,0:0:0:0:
158,238,28557,2,0,L|140:139,1,95.5
352,229,28876,2,0,B|364:275|364:275|349:325,1,95.5
217,343,29195,2,0,P|283:310|362:328,1,143.25
434,358,29515,6,0,L|451:163,1,191
376,73,29993,1,0,0:0:0:0:
258,136,30153,2,0,P|201:129|166:103,1,95.5
130,7,30472,1,0,0:0:0:0:
8,104,30632,1,0,0:0:0:0:
130,7,30791,6,0,L|153:111,1,95.5
24,213,31110,2,0,B|63:173|63:173|103:171|126:189,1,95.5
201,309,31430,2,0,P|156:296|97:286,1,95.5
342,205,31749,2,0,P|297:217|238:228,1,95.5
449,356,32068,6,0,P|495:281|445:189,1,191
341,122,32547,1,0,0:0:0:0:
249,226,32706,2,0,L|262:326,1,95.5
341,122,33025,2,0,B|354:75|354:75|343:22,1,95.5
166,167,33344,5,0,0:0:0:0:
389,277,33504,1,0,0:0:0:0:
220,51,33664,5,0,0:0:0:0:
113,325,33823,1,0,0:0:0:0:
341,122,33983,5,0,0:0:0:0:
86,18,34142,2,0,P|88:44|97:70,1,47.75
293,241,34302,2,0,P|269:229|242:224,1,47.75
0,324,34461,2,0,P|21:309|39:288,1,47.75
166,167,34621,6,0,P|156:233|154:277,1,95.5
0,105,34940,2,0,B|43:85|43:85|92:84,1,95.5
189,174,35259,1,0,0:0:0:0:
231,40,35419,1,0,0:0:0:0:
58,211,35578,1,0,0:0:0:0:
249,351,35738,6,0,P|324:358|401:268,1,191
269,148,36217,2,0,P|288:215|294:255,1,95.5
458,100,36536,2,0,P|414:129|385:166,1,95.5
231,40,36855,2,0,B|283:53|283:53|316:51|337:30,1,95.5
401,12,37094,1,0,0:0:0:0:
401,12,37174,6,0,B|312:-13|319:55|203:26,1,191
83,6,37653,1,0,0:0:0:0:
158,164,37812,2,0,P|213:158|249:132,1,95.5
71,26,38132,1,0,0:0:0:0:
9,235,38291,6,0,B|98:210|91:278|207:249,1,191
261,135,38770,5,0,0:0:0:0:
165,345,38930,1,0,0:0:0:0:
177,74,39089,5,0,0:0:0:0:
377,226,39249,1,0,0:0:0:0:
194,251,39408,6,0,P|183:208|175:157,1,95.5
261,135,39648,1,0,0:0:0:0:
282,142,39727,6,0,B|277:218|281:292|281:292|252:337,1,191
144,176,40206,1,0,0:0:0:0:
260,45,40366,2,0,P|311:45|358:74,1,95.5
392,211,40685,1,0,0:0:0:0:
280,326,40844,6,0,P|217:303|111:308,1,143.25
77,339,41164,1,0,0:0:0:0:
155,202,41323,2,0,L|139:103,1,95.5
257,210,41562,1,0,0:0:0:0:
257,210,41642,2,0,L|275:111,1,95.5
338,262,41961,2,0,L|389:175,1,95.5
374,352,42281,6,0,P|421:312|510:323,1,143.25
499,316,42600,1,0,0:0:0:0:
283,346,42759,2,0,P|232:346|185:324,1,95.5
226,122,43078,2,0,P|251:166|255:217,1,95.5
77,339,43398,6,0,B|39:289|39:289|57:200,1,143.25
77,137,43717,5,0,0:0:0:0:
256,209,43876,1,0,0:0:0:0:
50,143,44036,5,0,0:0:0:0:
279,43,44195,1,0,0:0:0:0:
146,243,44355,6,0,P|141:207|136:185,1,47.75
77,7,44515,2,0,P|141:28|176:34,1,95.5
381,16,44754,1,0,0:0:0:0:
381,16,44834,6,0,P|316:20|264:133,1,200.5499938797
368,239,45472,1,0,0:0:0:0:
368,239,45632,2,0,L|352:97,1,133.6999959198
263,131,46110,6,0,L|279:273,1,133.6999959198
345,328,46589,1,0,0:0:0:0:
258,365,46749,2,0,P|230:360|189:353,1,66.8499979599
133,258,47068,2,0,P|161:263|202:270,1,66.8499979599
55,329,47387,6,0,B|25:267|25:267|50:196,1,143.25
92,132,47706,1,0,0:0:0:0:
198,269,47866,2,0,P|245:262|292:254,1,95.5
169,91,48185,2,0,P|197:129|228:165,1,95.5
317,1,48504,6,0,B|305:50|302:114|302:114|338:155,1,143.25
386,185,48823,2,0,L|434:170,1,47.75
347,328,48983,1,0,0:0:0:0:
325,309,49062,1,0,0:0:0:0:
299,296,49142,1,0,0:0:0:0:
270,289,49222,1,0,0:0:0:0:
241,286,49302,5,0,0:0:0:0:
212,289,49382,1,0,0:0:0:0:
185,298,49461,1,0,0:0:0:0:
163,317,49541,1,0,0:0:0:0:
141,336,49621,2,0,P|121:352|88:362,1,47.75
0,260,49781,2,0,P|19:274|44:282,1,47.75
145,204,49940,6,0,B|156:75|156:75|132:100|102:112,1,191
241,286,50419,1,0,0:0:0:0:
241,286,50499,1,0,0:0:0:0:
241,286,50578,2,0,P|299:277|343:251,1,95.5
337,112,50898,2,0,P|279:121|235:147,1,95.5
448,349,51217,6,0,L|462:141,1,191
313,19,51695,1,0,0:0:0:0:
313,19,51775,1,0,0:0:0:0:
313,19,51855,2,0,P|327:66|339:124,1,95.5
483,173,52174,2,0,B|493:120|493:120|478:72,1,95.5
246,137,52493,6,0,P|228:231|257:273,1,143.25
314,321,52812,5,0,0:0:0:0:
141,229,52972,1,0,0:0:0:0:
341,197,53132,5,0,0:0:0:0:
185,380,53291,1,0,0:0:0:0:
197,42,53451,6,0,P|226:31|252:28,1,47.75
481,222,53610,6,0,P|445:212|326:196,1,143.25
238,266,53930,6,0,L|228:320,1,47.75
46,212,54089,2,0,L|56:266,1,47.75
224,130,54249,2,0,L|214:184,1,47.75
224,130,54727,6,0,B|147:139|103:65|103:65|117:96|118:135,1,200.5499938797
46,212,55047,6,0,B|161:193|156:270|279:252,1,229.199993005371
394,157,55525,1,0,0:0:0:0:
394,157,55605,1,0,0:0:0:0:
394,157,55685,2,0,P|373:209|386:273,1,114.599996502686
508,365,56004,1,0,0:0:0:0:
496,154,56164,6,0,P|476:73|467:33,1,114.599996502686
282,239,56483,2,0,P|269:294|255:350,1,114.599996502686
487,257,56802,1,0,0:0:0:0:
439,49,56961,2,0,B|383:39|383:39|326:64,1,114.599996502686
173,252,57281,2,0,B|229:262|229:262|286:237,1,114.599996502686
249,25,57600,6,0,P|150:8|54:90,1,229.199993005371
17,240,58078,1,0,0:0:0:0:
17,240,58158,1,0,0:0:0:0:
17,240,58238,2,0,P|30:308|41:362,1,114.599996502686
128,147,58557,1,0,0:0:0:0:
283,281,58717,6,0,P|208:256|161:251,1,114.599996502686
378,120,59036,2,0,P|303:145|256:150,1,114.599996502686
465,319,59355,1,0,0:0:0:0:
480,294,59435,1,0,0:0:0:0:
497,271,59515,2,0,B|512:212|512:212|490:151,1,114.599996502686
331,9,59834,1,0,0:0:0:0:
172,251,59993,1,0,0:0:0:0:
172,251,60073,1,0,0:0:0:0:
172,251,60153,6,0,B|287:232|282:309|405:291,1,229.199993005371
365,134,60632,1,0,0:0:0:0:
212,354,60791,2,0,P|150:357|93:322,1,114.599996502686
265,157,61110,2,0,P|276:236|285:290,1,114.599996502686
161,225,61430,5,0,0:0:0:0:
288,47,61589,1,0,0:0:0:0:
161,225,61749,2,0,P|98:216|48:200,1,114.599996502686
5,138,61988,1,0,0:0:0:0:
5,138,62068,2,0,B|-11:82|-11:82|9:18,1,114.599996502686
265,157,62387,2,0,B|281:213|281:213|261:277,1,114.599996502686
92,78,62706,6,0,P|146:61|203:53,1,114.599996502686
288,47,62945,1,0,0:0:0:0:
288,47,63025,5,0,0:0:0:0:
161,225,63185,1,0,0:0:0:0:
281,20,63344,5,0,0:0:0:0:
336,307,63504,1,0,0:0:0:0:
66,221,63664,5,0,0:0:0:0:
394,121,63823,1,0,0:0:0:0:
399,149,63903,1,0,0:0:0:0:
403,176,63983,5,0,0:0:0:0:
92,78,64142,1,0,0:0:0:0:
97,50,64222,1,0,0:0:0:0:
101,23,64302,5,0,0:0:0:0:
159,351,64461,1,0,0:0:0:0:
132,361,64541,1,0,0:0:0:0:
103,363,64621,5,0,0:0:0:0:
265,157,64781,1,0,0:0:0:0:
440,355,64940,6,0,P|398:338|362:335,1,76.4
265,157,65100,2,0,P|307:174|343:177,1,76.4
159,351,65259,6,0,P|87:294|116:164,1,229.199993005371
267,21,65738,1,0,0:0:0:0:
267,21,65818,1,0,0:0:0:0:
267,21,65898,2,0,P|258:105|254:142,1,114.599996502686
101,23,66217,1,0,0:0:0:0:
172,248,66376,6,0,P|235:231|292:224,1,114.599996502686
488,167,66695,2,0,P|431:158|376:143,1,114.599996502686
380,353,67015,1,0,0:0:0:0:
380,353,67094,1,0,0:0:0:0:
380,353,67174,2,0,B|393:299|393:299|376:235,1,114.599996502686
177,114,67493,1,0,0:0:0:0:
49,262,67653,1,0,0:0:0:0:
49,262,67733,1,0,0:0:0:0:
49,262,67812,6,0,B|164:243|159:320|282:302,1,229.199993005371
374,149,68291,1,0,0:0:0:0:
374,149,68371,1,0,0:0:0:0:
374,149,68451,2,0,P|305:149|257:191,1,114.599996502686
92,358,68770,1,0,0:0:0:0:
0,137,68930,6,0,B|-16:80|-16:80|4:14,1,114.599996502686
250,172,69249,2,0,B|266:229|266:229|246:295,1,114.599996502686
108,82,69568,1,0,0:0:0:0:
129,63,69648,1,0,0:0:0:0:
152,47,69727,2,0,P|212:35|284:40,1,114.599996502686
163,251,70047,2,0,P|105:252|49:240,1,114.599996502686
8,162,70286,1,0,0:0:0:0:
8,162,70366,6,0,P|43:150|160:271,1,229.199993005371
291,357,70844,1,0,0:0:0:0:
291,357,70924,1,0,0:0:0:0:
291,357,71004,2,0,P|361:344|396:313,1,114.599996502686
328,126,71323,2,0,P|319:194|314:241,1,114.599996502686
487,161,71642,6,0,B|500:102|500:102|480:46,1,114.599996502686
207,205,71961,2,0,B|194:264|194:264|214:320,1,114.599996502686
326,41,72281,1,0,0:0:0:0:
207,205,72440,1,0,0:0:0:0:
65,55,72600,2,0,P|125:54|186:89,1,114.599996502686
249,126,72839,1,0,0:0:0:0:
249,126,72919,6,0,P|330:142|434:39,1,229.199993005371
232,11,73398,1,0,0:0:0:0:
105,149,73557,2,0,B|86:207|86:207|118:284,1,114.599996502686
351,231,73876,2,0,P|296:220|238:213,1,114.599996502686
150,342,74195,6,0,B|265:323|260:400|383:382,1,229.199993005371
489,274,74674,1,0,0:0:0:0:
489,274,74754,1,0,0:0:0:0:
489,274,74834,2,0,B|508:216|508:216|476:139,1,114.599996502686
314,26,75153,2,0,P|300:88|323:143,1,114.599996502686
512,68,75472,6,0,P|459:53|381:37,1,124.149994316864
290,251,75791,2,0,P|350:238|410:221,1,124.149994316864
240,71,76110,5,0,0:0:0:0:
141,341,76270,1,0,0:0:0:0:
70,62,76430,5,0,0:0:0:0:
290,251,76589,1,0,0:0:0:0:
15,224,76749,6,0,P|75:175|144:165,1,124.149994316864
261,370,77068,2,0,P|200:357|140:340,1,124.149994316864
321,148,77387,5,0,0:0:0:0:
418,349,77547,1,0,0:0:0:0:
216,178,77706,5,0,0:0:0:0:
475,33,77866,1,0,0:0:0:0:
504,252,78025,6,0,P|443:239|383:222,1,124.149994316864
241,58,78344,1,0,0:0:0:0:
108,257,78504,2,0,B|234:213|244:311|368:243,1,248.299988633729
341,48,78983,2,0,P|317:112|307:169,1,124.149994316864
141,375,79302,6,0,P|129:314|107:256,1,124.149994316864
22,104,79621,1,0,0:0:0:0:
236,261,79781,2,0,P|328:266|410:137,1,248.299988633729
130,39,80259,2,0,L|139:104,1,62.0749971584321
249,119,80419,2,0,L|240:54,1,62.0749971584321
114,24,80578,6,0,L|144:222,1,186.224991475296
91,273,80898,5,0,0:0:0:0:
249,119,81057,1,0,0:0:0:0:
29,85,81217,5,0,0:0:0:0:
246,275,81376,1,0,0:0:0:0:
15,106,81536,5,0,0:0:0:0:
268,3,81695,1,0,0:0:0:0:
107,358,81855,5,0,0:0:0:0:
105,7,82015,1,0,0:0:0:0:
386,200,82174,5,0,0:0:0:0:
386,200,83132,6,0,P|333:189|286:190,1,95.5
232,298,83451,2,0,P|279:297|326:287,1,95.5
142,184,83770,2,0,P|127:247|116:285,1,95.5
245,126,84089,2,0,P|232:79|221:33,1,95.5
35,98,84408,6,0,P|92:84|139:71,1,95.5
316,231,84727,2,0,P|269:219|223:207,1,95.5
17,197,85047,2,0,L|63:185|109:173,1,95.5
340,331,85366,2,0,P|283:317|236:304,1,95.5
439,358,85685,5,0,0:0:0:0:
389,153,85844,1,0,0:0:0:0:
512,286,86004,5,0,0:0:0:0:
316,231,86164,1,0,0:0:0:0:
486,185,86323,5,0,0:0:0:0:
340,331,86483,1,0,0:0:0:0:
486,185,86642,5,0,0:0:0:0:
290,120,86802,2,0,P|357:117|417:49,1,143.25
323,30,87121,5,0,0:0:0:0:
418,255,87281,1,0,0:0:0:0:
