osu file format v14

[General]
AudioFilename: mp3pm33m3p3pm33.mp3
AudioLeadIn: 1500
PreviewTime: 63635
Countdown: 0
SampleSet: Soft
StackLeniency: 0.7
Mode: 0
LetterboxInBreaks: 0
WidescreenStoryboard: 0

[Editor]
DistanceSpacing: 1
BeatDivisor: 2
GridSize: 4
TimelineZoom: 1.2

[Metadata]
Title:Absolute Soul
TitleUnicode:Absolute Soul
Artist:Suzuki Konomi
ArtistUnicode:鈴木このみ
Creator:No Dap
Version:Normal
Source:Absolute Duo
Tags:アブソリュート・デュオ opening tv_size scanter
BeatmapID:613355
BeatmapSetID:269499

[Difficulty]
HPDrainRate:4
CircleSize:3.3
OverallDifficulty:4
ApproachRate:5.5
SliderMultiplier:1.05
SliderTickRate:2

[Events]
//Background and Video events
0,0,"bgbgbgbgbgbgb.jpg",0,0
Video,502,"AbsoluteDuoOP.avi"
//Break Periods
//Storyboard Layer 0 (Background)
//Storyboard Layer 1 (Fail)
//Storyboard Layer 2 (Pass)
//Storyboard Layer 3 (Foreground)
//Storyboard Sound Samples

[TimingPoints]
524,319.148936170213,4,2,1,50,1,0
2917,-100,4,2,1,60,0,0
13289,-100,4,2,1,55,0,0
33875,-100,4,2,1,65,0,0
38183,-100,4,2,1,70,0,0
38981,-100,4,2,1,65,0,0
43289,-100,4,2,1,70,0,0
44087,-100,4,2,1,5,0,0
46481,-100,4,2,1,40,0,0
51587,-100,4,2,1,60,0,0
54141,-100,4,2,1,50,0,0
59087,-100,4,2,1,60,0,0
61641,-100,4,2,1,70,0,0
64194,-100,4,2,1,70,0,1
74247,-100,4,2,1,70,0,0
74406,-100,4,2,1,70,0,1
87172,-100,4,2,1,70,0,0

[Colours]
Combo1 : 64,128,128
Combo2 : 213,0,106
Combo3 : 0,109,162
Combo4 : 179,179,0
Combo5 : 128,128,192

[HitObjects]
172,268,524,6,0,L|160:196,1,52.5,8|8,0:1|0:1,0:0:0:0:
180,168,843,2,0,P|260:172|356:160,2,157.5,12|12|4,0:1|0:1|0:3,0:0:0:0:
92,112,2119,1,8,0:3:0:0:
32,192,2438,2,0,L|48:260,1,52.5,8|8,0:0|0:0,0:0:0:0:
100,332,2917,6,0,P|156:324|248:320,1,105,12|0,0:1|0:0,0:0:0:0:
252,348,3396,1,8,0:0:0:0:
352,316,3715,2,0,P|356:272|360:211,1,105,8|8,0:1|0:0,0:0:0:0:
304,124,4353,2,0,P|232:94|158:118,2,157.5,8|0|8,0:1|0:0|0:0,0:0:0:0:
320,172,5470,6,0,P|372:171|424:166,1,105,12|0,0:1|0:0,0:0:0:0:
476,160,5949,1,8,0:0:0:0:
464,264,6268,2,0,P|411:264|359:269,1,105,8|8,0:1|0:0,0:0:0:0:
335,316,6747,2,0,P|284:312|231:312,1,105,0|0,0:0|0:0,0:0:0:0:
184,336,7226,1,8,0:0:0:0:
184,336,7385,2,0,P|172:252|160:152,1,157.5,0|8,0:0|0:0,0:0:0:0:
196,136,8024,6,0,P|120:124|72:40,1,157.5,12|8,0:1|0:0,0:0:0:0:
176,36,8821,2,0,P|232:40|280:76,1,105,8|8,0:1|0:0,0:0:0:0:
340,148,9460,2,0,P|412:112|492:104,2,157.5,8|0|8,0:1|0:0|0:0,0:0:0:0:
304,184,10577,6,0,P|252:175|199:172,1,105,12|0,0:1|0:0,0:0:0:0:
172,216,11055,2,0,P|139:206|104:200,1,52.5,8|0,0:0|0:0,0:0:0:0:
80,232,11375,2,0,P|45:163|74:92,1,157.5,8|12,0:1|0:0,0:0:0:0:
168,52,12172,1,12,0:0:0:0:
232,136,12492,1,12,0:0:0:0:
443,72,13289,6,0,P|429:122|421:174,1,105,12|8,0:1|0:1,0:0:0:0:
436,280,13928,2,0,P|380:272|324:272,1,105,8|8,0:1|0:1,0:0:0:0:
292,308,14406,1,0,0:0:0:0:
208,244,14726,2,0,L|192:172,1,52.5,0|8,0:0|0:1,0:0:0:0:
116,124,15204,2,0,L|120:71,2,52.5,8|0|8,0:1|0:0|0:1,0:0:0:0:
40,200,15843,6,0,P|48:256|53:303,1,105,8|8,0:1|0:1,0:0:0:0:
152,336,16481,2,0,P|216:328|284:332,1,105,8|8,0:1|0:1,0:0:0:0:
304,352,16960,2,0,P|376:328|416:288,1,105,0|0,0:0|0:0,0:0:0:0:
420,260,17438,1,8,0:1:0:0:
384,160,17758,2,0,L|392:108,2,52.5,8|0|8,0:1|0:0|0:1,0:0:0:0:
291,211,18396,6,0,P|240:208|184:208,1,105,8|8,0:1|0:1,0:0:0:0:
120,128,19034,2,0,P|192:112|240:88,1,105,8|8,0:1|0:1,0:0:0:0:
256,60,19513,2,0,L|368:72,1,105,0|0,0:0|0:0,0:0:0:0:
412,80,19992,1,8,0:1:0:0:
468,168,20311,2,0,L|480:248,1,52.5,8|0,0:1|0:0,0:0:0:0:
424,312,20789,6,0,P|364:308|296:316,1,105
272,336,21268,2,0,P|224:308|172:300,1,105,8|8,0:1|0:1,0:0:0:0:
76,332,21906,2,0,L|68:268,1,52.5,8|8,0:0|0:0,0:0:0:0:
16,188,22385,1,8,0:0:0:0:
96,120,22704,1,8,0:0:0:0:
176,188,23024,2,0,P|232:192|292:188,1,105,4|8,0:3|0:0,0:0:0:0:
320,220,23502,6,0,P|318:168|343:122,1,105,12|8,0:1|0:0,0:0:0:0:
419,195,24141,2,0,P|421:247|396:293,1,105,8|8,0:1|0:0,0:0:0:0:
347,315,24619,2,0,P|296:308|243:307,1,105,0|0,0:0|0:0,0:0:0:0:
192,312,25098,1,8,0:0:0:0:
120,236,25417,2,0,L|108:164,2,52.5,0|8|8,0:0|0:1|0:0,0:0:0:0:
216,191,26055,6,0,P|268:184|328:184,1,105,8|8,0:1|0:0,0:0:0:0:
408,239,26694,2,0,P|408:187|413:135,1,105,8|8,0:1|0:0,0:0:0:0:
451,100,27172,2,0,P|400:96|354:71,1,105,0|0,0:0|0:0,0:0:0:0:
328,24,27651,1,8,0:0:0:0:
264,108,27970,2,0,L|256:180,2,52.5,0|8|8,0:0|0:1|0:0,0:0:0:0:
168,64,28609,6,0,P|115:64|64:88,1,105,8|8,0:1|0:0,0:0:0:0:
44,188,29247,2,0,P|96:187|148:164,1,105,8|8,0:1|0:0,0:0:0:0:
192,148,29726,2,0,P|184:199|183:252,1,105,0|0,0:0|0:0,0:0:0:0:
188,304,30204,1,8,0:0:0:0:
292,328,30524,5,8,0:1:0:0:
292,327,30683,2,0,P|342:312|393:304,2,105,0|12|0,0:0|0:1|0:0,0:0:0:0:
250,359,31481,2,0,B|188:360|152:316|152:316|108:344|57:324,1,210,8|8,0:0|0:0,0:0:0:0:
96,228,32438,6,0,P|91:168|80:96,1,105,12|0,0:1|0:0,0:0:0:0:
20,40,33077,2,0,P|72:39|124:35,1,105,0|0,3:0|3:0,0:0:0:0:
176,24,33555,1,0,3:0:0:0:
252,100,33875,6,0,P|260:156|262:204,1,105
296,244,34353,2,0,L|384:228,2,78.75,8|8|8,0:1|0:1|0:1,0:0:0:0:
223,323,35151,2,0,P|168:328|120:300,1,105,0|0,0:0|0:0,0:0:0:0:
92,268,35630,2,0,L|79:190,2,78.75,8|8|8,0:1|0:1|0:1,0:0:0:0:
192,231,36428,6,0,P|243:224|296:222,1,105,0|0,0:0|0:0,0:0:0:0:
344,204,36906,2,0,P|332:166|315:130,2,78.75,8|0|8,0:1|0:0|0:1,0:0:0:0:
375,247,37545,2,0,P|413:256|452:259,2,78.75,8|8|8,0:1|0:1|0:1,0:0:0:0:
323,251,38183,2,0,P|295:279|273:311,2,78.75,8|8|8,0:0|0:0|0:0,0:0:0:0:
379,163,38981,6,0,P|328:154|278:137,1,105,0|0,0:0|0:0,0:0:0:0:
240,100,39460,2,0,L|232:16,2,78.75,8|8|8,0:1|0:1|0:1,0:0:0:0:
188,192,40258,2,0,P|136:184|83:183,1,105,0|0,0:0|0:0,0:0:0:0:
44,216,40736,2,0,L|16:120,2,78.75,8|8|8,0:1|0:1|0:1,0:0:0:0:
84,312,41534,6,0,P|136:310|188:303,1,105,0|0,0:0|0:0,0:0:0:0:
232,272,42013,2,0,P|220:234|203:198,2,78.75,8|8|8,0:1|0:1|0:1,0:0:0:0:
263,315,42652,2,0,P|301:324|340:327,2,78.75,8|8|0,0:1|0:1|0:0,0:0:0:0:
211,319,43290,2,0,P|183:347|161:379,2,78.75,8|8|8,0:0|0:0|0:0,0:0:0:0:
232,272,43928,5,12,0:1:0:0:
256,192,44087,12,2,46481,0:0:0:0:
140,260,49034,6,0,L|104:92,2,157.5,2|2|2,0:0|0:0|0:0,0:0:0:0:
372,260,51587,6,0,L|408:92,2,157.5,12|12|12,0:1|0:1|0:1,0:0:0:0:
248,40,53502,2,0,P|233:90|222:141,1,105,8|8,0:0|0:0,0:0:0:0:
172,232,54141,6,0,P|94:226|39:164,1,157.5,12|8,0:1|0:1,0:0:0:0:
28,120,54779,2,0,L|131:104,1,105,8|0,0:0|0:0,0:0:0:0:
228,144,55417,2,0,B|276:156|316:128|316:128|332:164|376:168,1,157.5,8|8,0:1|0:1,0:0:0:0:
412,188,56055,2,0,P|407:240|410:292,1,105,8|0,0:0|0:0,0:0:0:0:
324,352,56694,6,0,P|247:335|168:328,1,157.5,8|8,0:1|0:1,0:0:0:0:
124,355,57332,2,0,P|116:280|111:251,1,105,8|0,0:0|0:0,0:0:0:0:
64,232,57811,1,0,0:0:0:0:
63,231,57970,2,0,P|138:212|178:147,1,157.5,8|8,0:1|0:1,0:0:0:0:
268,92,58768,6,0,L|284:152,1,52.5,8|8,0:1|0:0,0:0:0:0:
292,196,59087,2,0,P|368:188|436:224,1,105,4|0,0:0|0:0,0:0:0:0:
432,232,59566,1,8,0:0:0:0:
432,232,59726,2,0,L|444:116,1,105,0|0,0:0|0:0,0:0:0:0:
464,80,60204,1,8,0:0:0:0:
464,80,60364,6,0,P|414:67|362:59,1,105,4|0,0:0|0:0,0:0:0:0:
316,88,60843,1,8,0:0:0:0:
316,88,61002,2,0,P|264:88|205:73,1,105,0|8,0:0|0:1,0:0:0:0:
176,112,61481,1,8,0:0:0:0:
176,112,61641,6,0,P|183:163|188:216,1,105,4|8,0:0|0:0,0:0:0:0:
176,268,62119,2,0,L|240:252,1,52.5,8|8,0:0|0:0,0:0:0:0:
280,252,62438,2,0,L|330:264,1,52.5,8|8,0:0|0:0,0:0:0:0:
384,276,62758,1,8,0:0:0:0:
384,276,62917,1,12,0:0:0:0:
323,160,64194,6,0,P|271:157|221:143,1,105,12|0,0:1|0:0,0:0:0:0:
176,120,64672,1,8,0:0:0:0:
116,208,64992,2,0,L|112:276,1,52.5,8|0,0:1|0:0,0:0:0:0:
20,212,65470,2,0,L|11:104,2,105,0|0|0,0:0|0:0|0:0,0:0:0:0:
56,312,66428,1,0,0:0:0:0:
148,260,66747,6,0,P|212:248|296:324,1,157.5,4|8,0:0|0:0,0:0:0:0:
368,360,67545,2,0,P|419:348|471:340,1,105,8|8,0:1|0:0,0:0:0:0:
496,296,68024,2,0,P|484:244|476:192,1,105,0|0,0:0|0:0,0:0:0:0:
396,128,68662,2,0,P|387:179|376:231,1,105,0|0,0:0|0:0,0:0:0:0:
280,276,69300,6,0,P|196:256|116:300,1,157.5,12|8,0:1|0:0,0:0:0:0:
92,316,69938,1,0,0:0:0:0:
92,316,70098,2,0,P|82:257|60:172,1,105,8|8,0:1|0:0,0:0:0:0:
44,168,70577,2,0,P|121:171|187:130,1,157.5,0|8,0:0|0:0,0:0:0:0:
216,84,71215,2,0,P|268:92|360:96,1,105,0|0,0:0|0:0,0:0:0:0:
388,168,71853,6,0,P|400:224|424:320,1,105,12|0,0:1|0:0,0:0:0:0:
384,316,72332,2,0,P|307:300|229:312,1,157.5,8|0,0:0|0:0,0:0:0:0:
132,352,73130,2,0,P|86:325|52:286,1,105,12|0,0:1|0:0,0:0:0:0:
44,236,73609,1,8,0:0:0:0:
44,236,73768,1,12,0:1:0:0:
164,64,74406,6,0,P|248:64|336:52,1,157.5,12|8,0:1|0:0,0:0:0:0:
424,67,75204,2,0,P|422:120|426:172,1,105,8|8,0:1|0:0,0:0:0:0:
464,208,75683,2,0,P|368:196|292:224,1,157.5,0|8,0:0|0:0,0:0:0:0:
275,252,76321,2,0,P|223:256|171:250,1,105,0|0,0:0|0:0,0:0:0:0:
128,220,76800,1,8,0:0:0:0:
128,220,76960,6,0,P|120:140|116:48,1,157.5,12|8,0:1|0:0,0:0:0:0:
164,40,77598,2,0,B|204:40|230:67|230:67|272:48|320:52,1,157.5,0|8,0:0|0:0,0:0:0:0:
360,76,78236,2,0,P|376:136|384:192,1,105,0|0,0:0|0:0,0:0:0:0:
336,200,78715,1,8,0:0:0:0:
336,200,78875,2,0,P|321:250|313:302,1,105,0|0,0:0|0:0,0:0:0:0:
216,340,79513,6,0,P|140:332|96:256,1,157.5,12|8,0:1|0:0,0:0:0:0:
196,236,80311,2,0,P|191:183|185:131,1,105,8|8,0:1|0:0,0:0:0:0:
216,92,80789,2,0,P|128:112|48:60,1,157.5,12|8,0:1|0:0,0:0:0:0:
31,184,81587,2,0,P|10:231|0:283,1,105,8|8,0:1|0:0,0:0:0:0:
35,324,82066,6,0,P|116:316|200:320,1,157.5,12|8,0:1|0:0,0:0:0:0:
244,332,82704,2,0,P|256:281|232:180,1,157.5,0|8,0:0|0:0,0:0:0:0:
208,136,83343,1,8,0:0:0:0:
208,136,83502,2,0,L|288:116,1,52.5,8|8,0:0|0:0,0:0:0:0:
332,48,83981,1,8,0:0:0:0:
416,112,84300,1,8,0:0:0:0:
357,198,84619,1,8,0:0:0:0:
388,298,84938,5,8,0:0:0:0:
388,298,85098,2,0,L|324:314,1,52.5,8|8,0:0|0:0,0:0:0:0:
291,337,85417,1,8,0:0:0:0:
291,337,85577,2,0,L|244:312,1,52.5,8|8,0:0|0:0,0:0:0:0:
200,283,85896,1,8,0:0:0:0:
256,192,86055,12,4,87651,0:3:0:0:
