osu file format v14

[General]
AudioFilename: Soul.mp3
AudioLeadIn: 1500
PreviewTime: 63294
Countdown: 0
SampleSet: Soft
StackLeniency: 0.7
Mode: 0
LetterboxInBreaks: 0
WidescreenStoryboard: 0

[Editor]
DistanceSpacing: 1.1
BeatDivisor: 4
GridSize: 4
TimelineZoom: 1

[Metadata]
Title:Absolute Soul
TitleUnicode:Absolute Soul
Artist:Suzuki Konomi
ArtistUnicode:鈴木このみ
Creator:[Sc4v4ng3r]
Version:Normal
Source:アブソリュート・デュオ
Tags:Absolute duo Opening tv_size walaowey Exa Julie Lilith Tomoe Miyabi Aoi Tooru
BeatmapID:682612
BeatmapSetID:302056

[Difficulty]
HPDrainRate:4
CircleSize:3
OverallDifficulty:4
ApproachRate:5
SliderMultiplier:1
SliderTickRate:1

[Events]
//Background and Video events
Video,0,"AbsoluteDuoOP.avi"
0,0,"BG.jpg",0,0
//Break Periods
//Storyboard Layer 0 (Background)
//Storyboard Layer 1 (Fail)
//Storyboard Layer 2 (Pass)
//Storyboard Layer 3 (Foreground)
//Storyboard Sound Samples

[TimingPoints]
103,319.148936170213,4,2,1,75,1,0
43507,-100,4,2,1,45,0,0
51166,-100,4,2,1,75,0,0
63294,-100,4,2,1,35,0,0
63773,-100,4,2,1,75,0,1
73826,-100,4,2,1,75,0,0
73985,-100,4,2,1,75,0,1
87230,-100,4,2,1,75,0,0

[Colours]
Combo1 : 0,0,160
Combo2 : 255,128,255
Combo3 : 255,255,0
Combo4 : 255,128,0

[HitObjects]
228,176,103,6,0,L|280:176,1,50
332,176,422,2,0,P|376:172|432:80,2,150,8|8|0,0:0|0:0|0:0,0:0:0:0:
280,272,1698,1,0,0:0:0:0:
172,272,2017,2,8,L|120:272,1,50
44,192,2496,6,0,P|76:168|112:68,1,150,4|8,0:0|0:0,0:0:0:0:
220,40,3294,2,0,P|272:48|320:40,1,100,0|8,0:0|0:0,0:0:0:0:
424,64,3932,2,0,L|468:32,2,50,0|0|8,0:0|0:0|0:0,0:0:0:0:
432,120,4411,2,0,L|312:224,1,150,0|8,0:0|0:0,0:0:0:0:
335,272,5049,6,0,P|266:296|196:273,1,150,4|8,0:0|0:0,0:0:0:0:
92,244,5847,2,0,P|116:194|174:167,1,100,0|8,0:0|0:0,0:0:0:0:
208,160,6326,2,0,L|324:160,1,100
316,212,6805,1,8,0:0:0:0:
316,212,6964,2,0,L|472:212,1,150,0|8,0:0|0:0,0:0:0:0:
484,264,7603,6,0,P|460:316|364:328,1,150,4|8,0:0|0:0,0:0:0:0:
267,303,8400,2,0,P|229:272|212:226,1,100,0|8,0:0|0:0,0:0:0:0:
128,156,9039,2,0,L|60:168,2,50,0|0|8,0:0|0:0|0:0,0:0:0:0:
160,112,9517,2,0,P|212:96|304:140,1,150,0|8,0:0|0:0,0:0:0:0:
300,188,10156,6,0,P|360:180|404:104,1,150,4|8,0:0|0:0,0:0:0:0:
488,36,10954,2,0,L|512:144,1,100,0|8,0:0|0:0,0:0:0:0:
484,180,11432,2,8,B|456:248|456:248|480:288,2,100,8|8|8,0:0|0:0|0:0,0:0:0:0:
228,80,12868,6,0,P|160:84|119:107,1,100
196,184,13507,2,0,P|257:185|304:158,1,100
324,124,13985,2,0,P|356:96|424:100,1,100
460,68,14464,2,0,L|460:180,1,100
432,276,15103,1,0,0:0:0:0:
336,220,15422,6,0,P|286:223|246:251,1,100
324,328,16060,2,0,P|278:357|220:358,1,100
124,344,16698,2,0,L|72:372,2,50
124,232,17337,2,0,P|116:176|128:112,1,100
100,24,17975,6,0,L|208:20,1,100
307,15,18613,2,0,P|345:46|349:95,1,100
299,195,19251,2,0,P|348:208|396:198,1,100
504,184,19890,2,0,L|488:248,1,50
444,331,20368,6,0,P|376:360|306:337,1,150
196,348,21166,2,0,P|210:279|236:252,1,100
272,224,21645,2,8,L|272:116,2,100
380,212,22603,1,8,0:0:0:0:
448,60,23081,6,0,P|376:44|340:44,1,100,4|8,0:0|0:0,0:0:0:0:
308,144,23720,2,0,P|240:140|204:128,1,100,0|8,0:0|0:0,0:0:0:0:
100,112,24358,2,0,L|76:56,2,50,0|0|8,0:0|0:0|0:0,0:0:0:0:
108,220,24996,2,0,P|148:240|221:246,1,100,0|8,0:0|0:0,0:0:0:0:
296,308,25634,6,0,L|396:308,1,100,0|8,0:0|0:0,0:0:0:0:
496,352,26273,2,0,P|498:284|484:242,1,100,0|8,0:0|0:0,0:0:0:0:
440,232,26751,2,0,P|428:164|436:124,1,100
464,84,27230,2,0,L|352:84,1,100,8|0,0:0|0:0,0:0:0:0:
256,92,27868,1,8,0:0:0:0:
148,108,28188,6,0,P|164:152|204:188,1,100,0|8,0:0|0:0,0:0:0:0:
312,200,28826,2,0,L|428:204,1,100,0|8,0:0|0:0,0:0:0:0:
460,176,29305,2,0,P|464:252|456:288,1,100
424,316,29783,1,8,0:0:0:0:
312,316,30103,2,0,L|262:316,1,50
164,368,30581,6,0,P|150:302|194:227,1,150,4|8,0:0|0:0,0:0:0:0:
291,199,31379,2,0,P|341:207|390:203,1,100,0|8,0:0|0:0,0:0:0:0:
484,144,32017,2,0,P|439:100|384:92,1,100,4|8,0:0|0:0,0:0:0:0:
296,84,32656,2,0,L|136:84,1,150,8|8,0:0|0:0,0:0:0:0:
92,84,33294,6,0,P|96:156|124:184,1,100,4|8,0:0|0:0,0:0:0:0:
220,176,33932,2,0,L|320:176,1,100,8|8,0:0|0:0,0:0:0:0:
428,196,34571,2,0,P|400:257|360:280,1,100,0|8,0:0|0:0,0:0:0:0:
264,288,35209,2,8,L|164:288,1,100
52,276,35847,6,0,P|62:233|103:191,1,100,0|8,0:0|0:0,0:0:0:0:
204,160,36485,2,8,P|264:136|280:92,1,100
368,40,37124,2,8,L|384:156,1,100
412,244,37762,2,8,B|488:220|488:220|488:220,2,75
360,267,38400,6,0,P|313:283|264:274,1,100,4|8,0:0|0:0,0:0:0:0:
156,264,39039,2,8,P|171:213|213:175,1,100
312,168,39677,2,0,P|344:140|352:76,1,100,0|8,0:0|0:0,0:0:0:0:
248,60,40315,2,8,P|188:56|132:68,1,100
40,84,40954,6,0,L|28:184,1,100,0|8,0:0|0:0,0:0:0:0:
16,292,41592,2,8,P|64:288|106:257,1,100
160,164,42230,2,8,P|200:132|264:116,1,100
352,144,42868,2,8,L|448:144,2,75
256,192,43507,12,0,44783,0:0:0:0:
68,64,46060,6,0,L|224:72,1,150
380,92,47017,1,0,0:0:0:0:
488,100,47337,2,0,P|423:193|338:193,1,200
124,196,48613,6,0,P|68:240|64:276,1,100,8|0,0:0|0:0,0:0:0:0:
44,316,49092,2,0,L|160:312,1,100,8|0,0:0|0:0,0:0:0:0:
176,268,49571,2,0,L|340:264,1,150,8|0,0:0|0:0,0:0:0:0:
432,136,50528,2,0,L|368:136,1,50
344,96,50847,2,0,L|280:96,1,50
240,92,51166,6,8,P|180:88|100:44,2,150
284,192,52443,1,0,0:0:0:0:
472,308,53081,2,8,L|472:200,1,100
480,96,53720,6,0,P|420:64|328:64,1,150,4|0,0:0|0:0,0:0:0:0:
284,64,54358,1,0,0:0:0:0:
64,80,54996,2,0,L|64:244,1,150
64,284,55634,1,0,0:0:0:0:
168,316,55954,1,0,0:0:0:0:
276,316,56273,6,0,P|316:304|380:204,1,150
380,164,56911,1,0,0:0:0:0:
204,36,57549,2,0,P|164:48|100:148,1,150
88,184,58188,1,0,0:0:0:0:
88,184,58347,2,0,L|88:240,1,50
104,288,58666,6,0,P|160:300|216:288,1,100,4|0,0:0|0:0,0:0:0:0:
248,320,59144,2,0,L|312:320,1,50,8|0,0:0|0:0,0:0:0:0:
408,324,59623,2,0,L|408:260,1,50,0|8,0:0|0:0,0:0:0:0:
456,244,59943,6,0,P|460:192|444:132,1,100,4|0,0:0|0:0,0:0:0:0:
472,96,60422,1,8,0:0:0:0:
472,96,60581,2,0,L|360:96,1,100
272,100,61219,6,0,P|208:100|144:164,1,150,4|12,0:0|0:0,0:0:0:0:
136,264,62016,2,0,L|80:264,2,50,4|0|8,0:0|0:0|0:0,0:0:0:0:
192,264,62496,1,4,0:0:0:0:
428,120,63294,2,0,L|376:92,1,50
288,44,63773,6,0,P|216:60|173:120,1,150,4|8,0:0|0:0,0:0:0:0:
220,220,64571,2,0,P|163:229|115:213,1,100,0|8,0:0|0:0,0:0:0:0:
80,184,65049,2,0,L|80:296,1,100
84,340,65528,1,8,0:0:0:0:
84,340,65688,2,0,P|156:348|204:336,1,100
284,296,66326,6,0,P|320:220|288:148,1,150,4|8,0:0|0:0,0:0:0:0:
204,112,67124,2,0,P|260:64|296:64,1,100,0|8,0:0|0:0,0:0:0:0:
332,88,67603,2,0,P|372:76|416:36,1,100
468,28,68081,1,8,0:0:0:0:
468,28,68241,2,8,L|468:136,1,100
472,235,68879,6,0,P|404:264|336:237,1,150,4|8,0:0|0:0,0:0:0:0:
304,132,69677,2,0,P|256:160|232:218,1,100,0|8,0:0|0:0,0:0:0:0:
252,248,70156,2,0,L|132:248,1,100
104,275,70634,1,8,0:0:0:0:
104,275,70794,2,8,P|112:226|103:177,1,100,0|8,0:0|0:0,0:0:0:0:
32,96,71432,6,0,P|104:68|179:99,1,150,4|8,0:0|0:0,0:0:0:0:
220,116,72071,2,0,P|264:128|320:108,1,100,8|8,0:0|0:0,0:0:0:0:
416,72,72709,2,0,L|416:240,1,150,4|8,0:0|0:0,0:0:0:0:
412,272,73347,1,8,0:0:0:0:
256,324,73826,1,0,0:0:0:0:
256,324,73985,6,0,P|184:332|116:292,1,150,4|8,0:0|0:0,0:0:0:0:
44,212,74783,2,0,L|96:172,1,50
128,148,75103,1,8,0:0:0:0:
128,148,75262,2,0,P|192:172|268:140,1,150,0|8,0:0|0:0,0:0:0:0:
300,100,75900,2,0,P|348:80|400:96,1,100
444,108,76379,1,8,0:0:0:0:
444,108,76539,6,0,L|444:258,1,150,4|8,0:0|0:0,0:0:0:0:
492,356,77337,2,0,P|424:366|388:352,1,100,0|8,0:0|0:0,0:0:0:0:
352,324,77815,2,0,P|284:288|208:300,1,150,0|8,0:0|0:0,0:0:0:0:
160,304,78454,2,0,L|160:188,1,100
164,148,78932,1,8,0:0:0:0:
164,148,79092,6,0,P|204:112|304:124,1,150,4|8,0:0|0:0,0:0:0:0:
396,160,79890,1,0,0:0:0:0:
396,160,80049,2,0,L|396:232,1,50,0|8,0:0|0:0,0:0:0:0:
392,264,80368,2,0,P|352:288|256:260,1,150,4|8,0:0|0:0,0:0:0:0:
168,200,81166,2,0,L|118:200,1,50
64,200,81485,1,8,0:0:0:0:
36,248,81645,6,0,P|68:284|128:296,1,100,4|0,0:0|0:0,0:0:0:0:
172,300,82124,1,8,0:0:0:0:
172,300,82283,2,0,L|332:300,1,150,4|8,0:0|0:0,0:0:0:0:
375,300,82922,1,8,0:0:0:0:
375,300,83081,6,8,L|412:264,1,50
488,188,83560,1,8,0:0:0:0:
412,108,83879,1,8,0:0:0:0:
336,188,84198,1,8,0:0:0:0:
244,128,84517,6,0,L|284:88,2,50,8|8|8,0:0|0:0|0:0,0:0:0:0:
208,168,84996,2,8,L|168:204,2,50
256,192,85475,12,0,87230,0:0:0:0:
