osu file format v14

[General]
AudioFilename: Soul.mp3
AudioLeadIn: 1500
PreviewTime: 63294
Countdown: 0
SampleSet: Soft
StackLeniency: 0.7
Mode: 0
LetterboxInBreaks: 0
WidescreenStoryboard: 0

[Editor]
DistanceSpacing: 1.1
BeatDivisor: 4
GridSize: 4
TimelineZoom: 2.6

[Metadata]
Title:Absolute Soul
TitleUnicode:Absolute Soul
Artist:Suzuki Konomi
ArtistUnicode:鈴木このみ
Creator:[Sc4v4ng3r]
Version:Insane
Source:アブソリュート・デュオ
Tags:Absolute duo Opening tv_size walaowey Exa Julie Lilith Tomoe Miyabi Aoi Tooru
BeatmapID:734872
BeatmapSetID:302056

[Difficulty]
HPDrainRate:7
CircleSize:4
OverallDifficulty:7
ApproachRate:9
SliderMultiplier:1.6
SliderTickRate:1

[Events]
//Background and Video events
Video,0,"AbsoluteDuoOP.avi"
0,0,"BG.jpg",0,0
//Break Periods
//Storyboard Layer 0 (Background)
//Storyboard Layer 1 (Fail)
//Storyboard Layer 2 (Pass)
//Storyboard Layer 3 (Foreground)
//Storyboard Sound Samples

[TimingPoints]
103,319.148936170213,4,2,1,75,1,0
33294,-100,4,2,1,65,0,0
37762,-71.4285714285714,4,2,1,75,0,0
38400,-100,4,2,1,75,0,0
42868,-71.4285714285714,4,2,1,75,0,0
44783,-200,4,2,1,45,0,0
50528,-100,4,2,1,75,0,0
53720,-142.857142857143,4,2,1,75,0,0
58347,-100,4,2,1,75,0,0
63294,-100,4,2,1,45,0,0
63773,-90.9090909090909,4,2,1,75,0,1
73826,-90.9090909090909,4,2,1,75,0,0
73985,-90.9090909090909,4,2,1,75,0,1
87230,-90.9090909090909,4,2,1,80,0,0

[Colours]
Combo1 : 0,0,160
Combo2 : 255,128,255
Combo3 : 255,255,0
Combo4 : 255,128,0

[HitObjects]
64,120,103,6,0,L|156:120,1,80
348,136,422,1,8,0:0:0:0:
208,256,581,1,0,0:0:0:0:
232,56,741,1,0,0:0:0:0:
232,56,900,2,0,L|312:16,2,80,8|0|0,0:0|0:0|0:0,0:0:0:0:
144,96,1379,6,0,L|124:76,6,20
180,128,1698,1,0,0:0:0:0:
180,128,2017,5,8,0:0:0:0:
324,248,2177,1,8,0:0:0:0:
324,248,2496,6,0,L|404:316,1,80,4|0,0:0|0:0,0:0:0:0:
424,204,2815,1,0,0:0:0:0:
348,136,2975,2,0,L|268:68,1,80,8|0,0:0|0:0,0:0:0:0:
248,180,3294,2,0,P|212:208|168:208,1,80
76,208,3613,2,0,L|40:296,1,80,8|0,0:0|0:0,0:0:0:0:
148,284,3932,6,0,L|232:284|232:284,2,80,0|0|8,0:0|0:0|0:0,0:0:0:0:
76,208,4411,2,0,P|72:120|144:60,1,160
212,28,4890,1,8,0:0:0:0:
248,180,5049,6,0,L|420:180,1,160,4|0,0:0|0:0,0:0:0:0:
464,92,5528,2,0,L|360:92,1,80,8|0,0:0|0:0,0:0:0:0:
384,284,5847,2,0,L|476:284,2,80,0|0|8,0:0|0:0|0:0,0:0:0:0:
280,284,6326,6,0,P|192:264|152:196,1,160
228,68,6805,1,8,0:0:0:0:
228,68,6964,2,0,L|152:216,1,160
56,188,7443,1,8,0:0:0:0:
276,188,7603,6,0,P|328:176|379:80,1,160,4|0,0:0|0:0,0:0:0:0:
240,88,8081,2,0,P|205:106|184:139,1,80,8|0,0:0|0:0,0:0:0:0:
219,239,8400,2,0,P|254:220|274:188,1,80
112,268,8720,2,0,P|139:305|169:324,1,80,8|0,0:0|0:0,0:0:0:0:
272,332,9039,6,0,L|364:332,1,80
456,312,9358,1,8,0:0:0:0:
476,212,9517,2,0,P|455:132|355:107,1,160
229,102,9996,1,8,0:0:0:0:
229,102,10156,6,0,L|389:102,1,160,4|0,0:0|0:0,0:0:0:0:
444,192,10634,2,0,L|348:192,1,80,8|0,0:0|0:0,0:0:0:0:
260,200,10954,2,0,P|236:252|208:272,2,80,0|0|8,0:0|0:0|0:0,0:0:0:0:
268,96,11432,5,8,0:0:0:0:
272,68,11751,1,8,0:0:0:0:
276,40,12071,1,8,0:0:0:0:
275,39,12868,6,0,P|236:41|201:60,1,80,4|0,0:0|0:0,0:0:0:0:
259,148,13188,2,0,P|222:161|182:161,1,80
80,160,13507,2,0,P|92:104|132:72,2,80
116,256,13985,2,0,P|72:294|24:301,2,80
339,185,14464,2,0,L|167:185,1,160
76,160,14943,2,0,P|59:117|58:77,2,80
164,100,15422,6,0,L|256:64,1,80
328,124,15741,2,0,L|432:168,1,80
496,196,16060,2,0,P|468:228|464:268,2,80
464,96,16539,2,0,P|492:64|496:24,2,80
250,206,17017,2,0,L|416:152,1,160
496,196,17496,2,0,P|484:256|460:284,2,80
464,96,17975,6,0,P|416:88|384:72,1,80
400,180,18294,2,0,P|352:180|316:192,1,80
220,216,18613,2,0,P|146:233|60:176,1,160
36,40,19092,2,0,L|76:204,1,160
160,112,19571,2,0,L|240:112,1,80
344,112,19890,2,0,P|332:56|312:32,2,80
348,216,20368,6,0,P|344:268|320:296,1,80
228,324,20688,1,0,0:0:0:0:
200,336,20767,1,0,0:0:0:0:
168,336,20847,1,0,0:0:0:0:
140,320,20927,1,0,0:0:0:0:
120,300,21007,1,0,0:0:0:0:
108,276,21087,1,0,0:0:0:0:
108,248,21166,5,0,0:0:0:0:
116,220,21246,1,0,0:0:0:0:
136,200,21326,1,0,0:0:0:0:
164,192,21406,1,0,0:0:0:0:
192,192,21485,1,0,0:0:0:0:
415,319,21645,5,8,0:0:0:0:
180,264,21964,1,8,0:0:0:0:
427,75,22283,1,8,0:0:0:0:
180,264,22603,1,8,0:0:0:0:
488,240,22922,5,0,0:0:0:0:
488,240,23001,1,0,0:0:0:0:
488,240,23081,2,0,L|488:152,2,80,4|0|8,0:0|0:0|0:0,0:0:0:0:
484,344,23560,1,0,0:0:0:0:
324,352,23720,2,0,P|360:308|372:192,1,160,0|8,0:0|0:0,0:0:0:0:
216,208,24198,2,0,L|400:208,1,160
323,64,24677,2,0,P|359:107|371:223,1,160,8|0,0:0|0:0,0:0:0:0:
272,280,25156,2,0,L|192:336,2,80,0|8|0,0:0|0:0|0:0,0:0:0:0:
340,204,25634,5,0,0:0:0:0:
340,204,25794,2,0,L|420:140,2,80,0|8|0,0:0|0:0|0:0,0:0:0:0:
136,76,26273,2,0,L|256:196,1,160,0|8,0:0|0:0,0:0:0:0:
88,148,26751,2,0,L|156:216,1,80
220,276,27071,1,0,0:0:0:0:
376,120,27230,2,0,P|416:156|400:268,1,160,8|0,0:0|0:0,0:0:0:0:
384,356,27709,2,0,L|464:356,2,80,0|8|0,0:0|0:0|0:0,0:0:0:0:
292,312,28188,5,0,0:0:0:0:
292,312,28347,2,0,L|200:264,2,80,0|8|0,0:0|0:0|0:0,0:0:0:0:
376,120,28826,2,0,P|396:216|364:268,1,160,0|8,0:0|0:0,0:0:0:0:
300,188,29305,2,0,L|232:128,1,80
168,60,29624,1,0,0:0:0:0:
216,256,29783,2,0,L|76:128,1,160,8|0,0:0|0:0,0:0:0:0:
97,148,30262,1,0,0:0:0:0:
184,336,30581,6,0,P|260:336|299:249,1,160,4|0,0:0|0:0,0:0:0:0:
300,168,31060,2,0,L|344:96,1,80,8|0,0:0|0:0,0:0:0:0:
188,168,31379,2,0,L|132:84,2,80,0|0|8,0:0|0:0|0:0,0:0:0:0:
244,256,31858,1,0,0:0:0:0:
348,256,32017,6,0,P|392:208|370:99,1,160,4|0,0:0|0:0,0:0:0:0:
320,36,32496,1,0,0:0:0:0:
216,32,32656,6,8,L|148:32,1,40
190,102,32815,2,8,L|126:102,1,40
120,168,32975,2,8,L|184:168,1,40
140,236,33134,2,8,L|180:236,1,40
224,236,33294,6,0,P|224:308|240:332,1,80,4|0,0:0|0:0,0:0:0:0:
316,329,33613,2,0,L|348:253,1,80,8|0,0:0|0:0,0:0:0:0:
412,152,33932,2,0,L|356:152,1,40,8|0,0:0|0:0,0:0:0:0:
252,128,34172,2,0,L|312:88,1,40,0|8,0:0|0:0,0:0:0:0:
372,44,34411,1,0,0:0:0:0:
472,72,34571,6,0,P|496:108|496:168,2,80,0|0|8,0:0|0:0|0:0,0:0:0:0:
372,44,35049,1,0,0:0:0:0:
268,28,35209,2,0,L|200:28,1,40,8|0,0:0|0:0,0:0:0:0:
116,88,35448,2,0,L|188:88,1,40,8|8,0:0|0:0,0:0:0:0:
252,128,35688,1,0,0:0:0:0:
368,136,35847,6,0,P|404:168|416:212,1,80
412,300,36166,2,0,L|308:300,1,80,8|0,0:0|0:0,0:0:0:0:
220,260,36485,2,0,L|148:260,1,40,8|0,0:0|0:0,0:0:0:0:
80,328,36725,2,0,L|144:328,1,40,0|8,0:0|0:0,0:0:0:0:
104,224,36964,1,0,0:0:0:0:
76,124,37124,6,0,L|52:80,1,40,8|0,0:0|0:0,0:0:0:0:
184,80,37363,2,0,L|208:36,1,40,0|8,0:0|0:0,0:0:0:0:
308,32,37603,1,0,0:0:0:0:
444,84,37762,6,8,B|432:208|432:208|448:260,2,167.999994873047
348,128,38400,6,0,L|336:224,2,80,4|0|8,0:0|0:0|0:0,0:0:0:0:
308,32,38879,1,0,0:0:0:0:
208,100,39039,2,0,L|192:168,1,40,8|0,0:0|0:0,0:0:0:0:
232,256,39278,2,0,L|248:204,1,40,0|8,0:0|0:0,0:0:0:0:
140,220,39517,1,8,0:0:0:0:
64,148,39677,6,0,P|88:88|124:68,2,80,0|0|8,0:0|0:0|0:0,0:0:0:0:
64,252,40156,1,0,0:0:0:0:
72,350,40315,2,0,L|112:344,1,40,8|0,0:0|0:0,0:0:0:0:
208,268,40555,2,0,L|272:276,1,40,0|8,0:0|0:0,0:0:0:0:
348,296,40794,1,8,0:0:0:0:
440,244,40954,6,0,P|488:264|512:296,2,80,0|0|8,0:0|0:0|0:0,0:0:0:0:
344,204,41432,1,0,0:0:0:0:
240,144,41592,2,0,L|196:120,1,40,8|0,0:0|0:0,0:0:0:0:
96,176,41831,2,0,L|148:212,1,40,0|8,0:0|0:0,0:0:0:80:soft-hitclap.wav
207,267,42071,1,8,0:0:0:0:
328,288,42230,6,0,L|340:336,1,40,8|0,0:0|0:0,0:0:0:0:
214,307,42470,2,0,L|206:259,1,40,0|8,0:0|0:0,0:0:0:0:
188,164,42709,1,8,0:0:0:0:
80,68,42868,6,12,B|124:48|124:48|256:48,2,167.999994873047,8|8|8,0:0|0:0|0:0,0:0:0:0:
256,192,43507,12,0,44464,0:0:0:0:
236,188,44783,6,0,L|184:116,2,80
304,264,45741,1,0,0:0:0:0:
384,328,46060,2,0,P|406:272|392:213,1,120
393,215,47017,5,0,0:0:0:0:
352,192,47177,1,0,0:0:0:0:
308,176,47337,2,0,L|184:48,1,160
88,236,48613,6,8,P|64:256|38:352,2,120
88,236,50528,5,0,0:0:0:0:
224,240,50688,1,0,0:0:0:0:
160,120,50847,1,0,0:0:0:0:
296,124,51007,1,0,0:0:0:0:
368,240,51166,6,0,B|400:216|400:216|400:156,2,80,8|0|0,0:0|0:0|0:0,0:0:0:0:
224,240,51645,2,0,B|192:264|192:264|192:308,2,80,8|0|0,0:0|0:0|0:0,0:0:0:0:
296,124,52124,2,0,P|237:87|156:128,1,160,8|0,0:0|0:0,0:0:0:0:
100,208,52603,1,0,0:0:0:0:
280,340,52762,1,0,0:0:0:0:
80,308,52922,1,0,0:0:0:0:
296,240,53081,5,8,0:0:0:0:
204,112,53241,1,0,0:0:0:0:
376,100,53400,1,8,0:0:0:0:
296,240,53560,1,0,0:0:0:0:
204,112,53720,6,0,P|152:116|104:228,1,167.999994873047,4|0,0:0|0:0,0:0:0:0:
98,208,54358,1,0,0:0:0:0:
413,208,54996,2,0,P|386:132|308:112,1,167.999994873047
308,111,55634,1,0,0:0:0:0:
256,248,55954,1,0,0:0:0:0:
136,332,56273,6,0,L|316:332,1,167.999994873047
304,332,56911,1,0,0:0:0:0:
304,40,57549,2,0,L|305:217,1,167.999994873047
304,207,58188,1,0,0:0:0:0:
212,156,58347,5,0,0:0:0:0:
212,260,58507,1,0,0:0:0:0:
124,204,58666,2,0,B|124:80|124:80|152:56,1,160,4|0,0:0|0:0,0:0:0:0:
256,40,59145,1,8,0:0:0:0:
360,56,59305,2,0,B|388:80|388:80|388:204,1,160
320,280,59783,1,8,0:0:0:0:
177,351,59943,6,0,L|324:277,1,160,4|0,0:0|0:0,0:0:0:80:soft-hitfinish.wav
348,180,60422,1,8,0:0:0:0:
248,200,60581,2,0,L|101:274,1,160
8,308,61060,1,8,0:0:0:0:
8,204,61220,6,0,P|12:148|96:84,1,160,4|0,0:0|0:0,0:0:0:0:
192,80,61698,1,12,0:0:0:0:
312,100,61858,1,0,0:0:0:0:
236,192,62017,1,4,0:0:0:0:
132,320,62177,5,0,0:0:0:0:
288,344,62337,1,8,0:0:0:0:
236,192,62496,1,4,0:0:0:0:
236,192,63294,5,0,0:0:0:0:
236,192,63454,1,0,0:0:0:0:
60,44,63773,6,0,P|56:96|40:140,1,88.000002685547,4|0,0:0|0:0,0:0:0:0:
20,240,64092,1,0,0:0:0:0:
128,204,64251,1,8,0:0:0:0:
44,129,64411,1,0,0:0:0:0:
220,92,64571,5,0,0:0:0:0:
308,168,64730,1,0,0:0:0:0:
328,56,64890,1,8,0:0:0:0:
264,272,65049,2,0,P|303:282|356:268,2,88.000002685547
168,208,65528,1,8,0:0:0:0:
133,102,65688,2,0,P|197:90|237:94,1,88.000002685547
52,160,66007,2,0,L|52:264,1,88.000002685547,0|8,0:0|0:0,0:0:0:0:
170,359,66326,6,0,P|82:316|50:215,1,176.000005371094,4|0,0:0|0:0,0:0:0:0:
235,255,66805,2,0,P|224:214|231:170,1,88.000002685547,8|0,0:0|0:0,0:0:0:0:
336,204,67124,2,0,P|340:152|312:92,2,88.000002685547,0|0|8,0:0|0:0|0:0,0:0:0:0:
344,316,67603,2,0,P|399:295|447:193,1,176.000005371094
448,80,68081,1,8,0:0:0:0:
336,60,68241,6,0,P|276:56|228:72,1,88.000002685547
172,116,68560,2,0,L|172:204,1,88.000002685547,0|8,0:0|0:0,0:0:0:0:
336,204,68879,2,0,P|336:260|232:316,1,176.000005371094,4|0,0:0|0:0,0:0:0:0:
242,317,69278,1,0,0:0:0:0:
242,317,69358,5,8,0:0:0:0:
128,324,69517,1,0,0:0:0:0:
40,252,69677,2,0,P|16:296|20:352,2,88.000002685547,0|0|8,0:0|0:0|0:0,0:0:0:0:
206,194,70156,2,0,L|34:254,1,176.000005371094
32,140,70634,1,8,0:0:0:0:
140,100,70794,2,0,L|232:64,1,88.000002685547
314,62,71113,2,0,P|344:104|344:152,1,88.000002685547,0|8,0:0|0:0,0:0:0:0:
176,204,71432,6,0,P|188:300|248:364,1,176.000005371094,4|0,0:0|0:0,0:0:0:0:
352,332,71911,2,0,L|304:240,1,88.000002685547,8|0,0:0|0:0,0:0:0:0:
260,151,72230,2,0,P|305:140|357:140,2,88.000002685547,0|0|8,0:0|0:0|0:0,0:0:0:0:
152,108,72709,6,0,P|109:97|65:95,2,88.000002685547,4|0|8,0:0|0:0|0:0,0:0:0:0:
260,151,73188,1,0,0:0:0:0:
168,220,73347,2,0,B|142:252|115:272|115:272|111:296|86:300|86:300|30:348,1,176.000005371094,8|0,0:0|0:0,0:0:0:0:
42,337,73826,1,0,0:0:0:0:
24,164,73985,6,0,B|24:16|24:16|68:40,1,176.000005371094,4|0,0:0|0:0,0:0:0:0:
144,92,74464,2,0,P|192:111|241:102,1,88.000002685547,8|0,0:0|0:0,0:0:0:0:
340,100,74783,2,0,L|332:12,2,88.000002685547,0|0|8,0:0|0:0|0:0,0:0:0:0:
356,212,75262,2,0,P|384:280|492:288,1,176.000005371094
496,184,75741,1,8,0:0:0:0:
312,136,75900,2,0,P|276:180|272:238,2,88.000002685547
396,60,76379,1,8,0:0:0:0:
512,60,76539,6,0,B|505:144|434:169|434:169|460:212,1,176.000005371094,4|0,0:0|0:0,0:0:0:0:
488,304,77017,2,0,P|444:309|401:302,1,88.000002685547,8|0,0:0|0:0,0:0:0:0:
292,268,77337,2,0,P|248:266|204:270,2,88.000002685547,0|0|8,0:0|0:0|0:0,0:0:0:0:
368,184,77815,2,0,P|340:116|248:40,1,176.000005371094
152,32,78294,1,8,0:0:0:0:
40,64,78454,2,0,L|16:168,1,88.000002685547
132,172,78773,2,0,L|151:257,1,88.000002685547,0|8,0:0|0:0,0:0:0:0:
164,372,79092,6,0,P|222:349|266:249,1,176.000005371094,4|0,0:0|0:0,0:0:0:0:
314,147,79571,2,0,L|202:127,1,88.000002685547,8|0,0:0|0:0,0:0:0:0:
116,112,79890,2,0,L|156:20,2,88.000002685547,0|0|8,0:0|0:0|0:0,0:0:0:0:
68,216,80368,2,0,P|163:218|223:155,1,176.000005371094,4|0,0:0|0:0,0:0:0:0:
244,52,80847,2,0,P|292:44|356:72,1,88.000002685547,8|0,0:0|0:0,0:0:0:0:
408,136,81166,2,0,P|456:144|512:120,2,88.000002685547,0|0|8,0:0|0:0|0:0,0:0:0:0:
296,164,81645,6,0,P|276:241|168:260,1,176.000005371094,4|0,0:0|0:0,0:0:0:0:
76,260,82124,1,8,0:0:0:0:
208,176,82283,2,0,L|352:316,1,176.000005371094,4|0,0:0|0:0,0:0:0:0:
436,352,82762,2,0,P|476:336|496:292,1,88.000002685547,8|0,0:0|0:0,0:0:0:0:
495,182,83081,6,8,L|495:78,1,88.000002685547
495,94,83560,1,8,0:0:0:0:
268,72,83879,1,8,0:0:0:0:
364,280,84198,1,8,0:0:0:0:
268,72,84517,6,0,L|176:60,1,88.000002685547,12|0,0:0|0:0,0:0:0:0:
180,60,84837,1,8,0:0:0:0:
244,152,84996,2,0,P|297:151|332:127,1,88.000002685547,12|8,0:0|0:0,0:0:0:0:
325,133,85315,1,8,0:0:0:0:
432,92,85475,6,0,P|448:216|412:272,1,176.000005371094,4|8,0:0|0:0,0:0:0:0:
328,316,85954,2,8,L|220:316,1,88.000002685547
124,316,86273,1,8,0:0:0:0:
32,252,86432,2,8,P|16:184|24:144,1,88.000002685547
12,52,86751,6,0,B|68:40|100:56|100:56|132:40|132:40|164:64|296:48,1,264.000008056641,12|0,0:0|0:0,0:0:0:0:
