osu file format v14

[General]
AudioFilename: Soul.mp3
AudioLeadIn: 1500
PreviewTime: 63294
Countdown: 0
SampleSet: Soft
StackLeniency: 0.7
Mode: 0
LetterboxInBreaks: 0
WidescreenStoryboard: 0

[Editor]
DistanceSpacing: 0.9
BeatDivisor: 4
GridSize: 4
TimelineZoom: 2.7

[Metadata]
Title:Absolute Soul
TitleUnicode:Absolute Soul
Artist:Suzuki Konomi
ArtistUnicode:鈴木このみ
Creator:[Sc4v4ng3r]
Version:Easy
Source:アブソリュート・デュオ
Tags:Absolute duo Opening tv_size walaowey Exa Julie Lilith Tomoe Miyabi Aoi Tooru
BeatmapID:680870
BeatmapSetID:302056

[Difficulty]
HPDrainRate:3
CircleSize:2.5
OverallDifficulty:3
ApproachRate:3
SliderMultiplier:1
SliderTickRate:1

[Events]
//Background and Video events
Video,0,"AbsoluteDuoOP.avi"
0,0,"BG.jpg",0,0
//Break Periods
//Storyboard Layer 0 (Background)
//Storyboard Layer 1 (Fail)
//Storyboard Layer 2 (Pass)
//Storyboard Layer 3 (Foreground)
//Storyboard Sound Samples

[TimingPoints]
103,319.148936170213,4,2,1,70,1,0
43507,-100,4,2,1,45,0,0
51166,-100,4,2,1,70,0,0
63773,-100,4,2,1,80,0,1
73826,-100,4,2,1,80,0,0
73985,-100,4,2,1,80,0,1
87230,-100,4,2,1,70,0,0

[Colours]
Combo1 : 0,0,160
Combo2 : 255,128,255
Combo3 : 255,255,0
Combo4 : 255,128,0

[HitObjects]
168,108,103,5,0,0:0:0:0:
220,184,422,2,0,P|252:144|238:49,2,150,8|8|0,0:0|0:0|0:0,0:0:0:0:
132,200,1698,2,0,P|168:256|224:272,1,100,0|8,0:0|0:0,0:0:0:0:
331,269,2496,6,0,P|390:247|424:170,1,150,4|8,0:0|0:0,0:0:0:0:
332,176,3294,2,0,L|232:176,1,100,0|8,0:0|0:0,0:0:0:0:
144,180,3932,2,0,P|152:136|196:96,2,100,0|8|0,0:0|0:0|0:0,0:0:0:0:
148,316,5049,6,0,P|220:300|293:317,1,150,4|8,0:0|0:0,0:0:0:0:
384,327,5847,2,0,P|394:279|379:233,1,100,0|8,0:0|0:0,0:0:0:0:
308,180,6485,2,0,P|343:151|401:146,2,100,0|8|0,0:0|0:0|0:0,0:0:0:0:
175,208,7603,6,0,P|213:144|205:71,1,150,4|8,0:0|0:0,0:0:0:0:
116,80,8400,2,0,P|90:122|84:171,1,100,0|8,0:0|0:0,0:0:0:0:
96,260,9039,2,0,P|129:291|188:304,1,100,0|8,0:0|0:0,0:0:0:0:
264,300,9677,1,0,0:0:0:0:
392,348,10156,6,0,P|401:276|368:208,1,150,4|8,0:0|0:0,0:0:0:0:
288,168,10954,2,0,P|322:130|384:124,1,100,0|8,0:0|0:0,0:0:0:0:
412,116,11432,2,8,P|468:112|520:96,2,100
188,96,12868,6,0,B|88:144|88:144|88:256,2,200,4|0|0,0:0|0:0|0:0,0:0:0:0:
256,264,14783,1,0,0:0:0:0:
324,96,15422,2,0,B|424:144|424:144|424:256,2,200
256,264,17337,1,0,0:0:0:0:
80,260,17975,6,0,B|48:180|92:116|92:116|44:72,2,200
256,260,19890,1,0,0:0:0:0:
392,268,20368,2,0,P|384:208|304:128,1,150
244,108,21166,2,0,L|132:108,1,100
104,128,21645,5,8,0:0:0:0:
56,300,22283,1,8,0:0:0:0:
279,331,23081,6,0,P|329:335|374:316,1,100,4|8,0:0|0:0,0:0:0:0:
316,248,23720,2,0,P|376:226|440:256,1,100,0|8,0:0|0:0,0:0:0:0:
476,172,24358,2,0,P|488:118|416:32,2,150,0|0|8,0:0|0:0|0:0,0:0:0:0:
400,124,25634,6,0,L|284:92,1,100,0|8,0:0|0:0,0:0:0:0:
216,76,26273,2,0,B|168:96|168:96|168:152,1,100,0|8,0:0|0:0,0:0:0:0:
172,232,26911,2,0,P|244:244|356:224,2,150,0|0|8,0:0|0:0|0:0,0:0:0:0:
96,284,28188,6,0,P|80:236|89:188,1,100,0|8,0:0|0:0,0:0:0:0:
56,104,28826,2,0,P|100:96|156:132,1,100,0|8,0:0|0:0,0:0:0:0:
232,148,29464,2,0,P|304:152|348:148,2,100,0|8|0,0:0|0:0|0:0,0:0:0:0:
120,220,30581,6,0,P|138:292|200:326,1,150,4|8,0:0|0:0,0:0:0:0:
208,236,31379,2,0,L|308:236,1,100,0|8,0:0|0:0,0:0:0:0:
324,324,32017,2,0,P|381:284|360:164,2,200,0|8|4,0:0|0:0|0:0,0:0:0:0:
232,324,33613,5,8,0:0:0:0:
144,324,33932,2,0,P|96:322|59:289,1,100,8|8,0:0|0:0,0:0:0:0:
92,204,34570,2,0,P|48:168|0:168,1,100,0|8,0:0|0:0,0:0:0:0:
8,76,35209,2,0,L|120:48,1,100,8|8,0:0|0:0,0:0:0:0:
192,72,35847,6,0,P|224:120|228:180,1,100,0|8,0:0|0:0,0:0:0:0:
240,252,36485,2,0,P|300:252|348:228,1,100,8|8,0:0|0:0,0:0:0:0:
340,148,37123,2,0,P|412:136|452:156,1,100,8|8,0:0|0:0,0:0:0:0:
472,228,37762,2,8,P|472:300|384:344,1,150
372,356,38400,6,0,P|316:360|236:348,1,100,4|0,0:0|0:0,0:0:0:0:
184,348,39038,2,0,B|160:300|160:300|184:244,1,100,8|8,0:0|0:0,0:0:0:0:
248,200,39676,2,0,P|256:116|240:84,1,100,0|8,0:0|0:0,0:0:0:0:
168,64,40315,2,0,B|120:80|120:80|68:64,1,100,8|8,0:0|0:0,0:0:0:0:
56,152,40954,6,0,L|151:180,1,100,0|8,0:0|0:0,0:0:0:0:
236,140,41592,2,0,P|248:187|230:233,1,100,8|8,0:0|0:0,0:0:0:0:
160,288,42229,2,0,P|220:322|272:312,1,100,8|8,0:0|0:0,0:0:0:0:
340,328,42868,2,8,L|432:328,2,75
256,192,43507,12,0,44783,0:0:0:0:
136,128,46060,6,0,B|188:132|230:93|230:93|272:132|324:124,1,200
488,68,47337,2,0,P|508:152|484:272,1,200
316,312,48613,2,8,P|244:336|168:308,2,150
328,52,51166,6,8,P|256:28|180:56,2,150,8|8|8,0:0|0:0|0:0,0:0:0:0:
340,320,53081,2,8,L|228:320,1,100
148,320,53720,6,0,B|104:224|104:224|104:96,2,200,4|0|0,0:0|0:0|0:0,0:0:0:0:
256,176,55634,1,0,0:0:0:0:
384,48,56273,2,0,B|428:144|428:144|428:272,2,200
256,176,58188,1,0,0:0:0:0:
120,180,58666,6,0,P|104:280|132:344,2,150,4|8|0,0:0|0:0|0:0,0:0:0:0:
152,96,59943,2,0,P|224:78|296:96,2,150,4|8|0,0:0|0:0|0:0,0:0:0:0:
120,180,61220,6,0,L|270:180,1,150,4|12,0:0|0:0,0:0:0:0:
356,156,62017,2,0,P|323:250|281:268,1,150,4|4,0:0|0:0,0:0:0:0:
8,32,63773,6,0,L|158:32,1,150,4|8,0:0|0:0,0:0:0:0:
247,28,64571,2,0,P|233:75|198:110,1,100,0|8,0:0|0:0,0:0:0:0:
116,140,65209,2,0,P|176:195|241:188,2,150,0|0|8,0:0|0:0|0:0,0:0:0:0:
28,144,66485,6,0,L|28:256,1,100,4|8,0:0|0:0,0:0:0:0:
104,292,67124,2,0,L|220:328,1,100,0|8,0:0|0:0,0:0:0:0:
268,260,67762,2,0,L|366:243,1,100,0|8,0:0|0:0,0:0:0:0:
456,256,68400,2,0,P|435:181|368:152,1,150,0|4,0:0|0:0,0:0:0:0:
240,140,69358,5,8,0:0:0:0:
152,132,69677,2,0,P|176:74|212:52,1,100,0|8,0:0|0:0,0:0:0:0:
296,48,70315,2,0,L|456:48,2,150,0|0|8,0:0|0:0|0:0,0:0:0:0:
320,136,71592,2,0,L|420:136,1,100,0|8,0:0|0:0,0:0:0:0:
508,140,72230,2,0,P|475:206|432:224,1,100,0|8,0:0|0:0,0:0:0:0:
420,244,72709,6,0,B|384:268|344:272|344:272|336:292|336:292|288:284|242:321,1,200,4|8,0:0|0:0,0:0:0:0:
88,228,73985,6,0,P|93:155|149:108,1,150,4|8,0:0|0:0,0:0:0:0:
176,196,74783,2,0,P|222:164|240:120,1,100,0|8,0:0|0:0,0:0:0:0:
256,36,75422,2,0,L|456:60,1,200
476,148,76379,1,8,0:0:0:0:
487,195,76539,6,0,P|478:266|411:292,1,150,4|8,0:0|0:0,0:0:0:0:
332,340,77337,2,0,P|320:292|333:244,1,100,0|8,0:0|0:0,0:0:0:0:
392,176,77975,2,0,P|325:155|257:200,2,150,0|0|8,0:0|0:0|0:0,0:0:0:0:
428,204,79092,6,0,L|428:52,1,150,4|8,0:0|0:0,0:0:0:0:
336,56,79890,2,0,P|268:60|236:52,1,100,0|8,0:0|0:0,0:0:0:0:
192,43,80368,2,0,P|165:113|106:157,1,150,4|8,0:0|0:0,0:0:0:0:
16,140,81166,2,0,P|35:215|64:238,1,100,0|8,0:0|0:0,0:0:0:0:
83,259,81645,6,0,P|154:283|228:275,1,150,4|8,0:0|0:0,0:0:0:0:
276,200,82443,2,0,P|310:241|316:289,1,100,0|8,0:0|0:0,0:0:0:0:
324,376,83081,1,8,0:0:0:0:
424,284,83560,6,8,P|460:248|468:189,2,100
380,204,84517,2,0,L|256:92,2,150,12|12|12,0:0|0:0|0:0,0:0:0:0:
256,192,85634,12,0,87230,0:0:0:0:
