osu file format v13

[General]
AudioFilename: TV size.mp3
AudioLeadIn: 0
PreviewTime: -1
Countdown: 1
SampleSet: Normal
StackLeniency: 0.7
Mode: 0
LetterboxInBreaks: 1
WidescreenStoryboard: 1

[Editor]
Bookmarks: 22361,35659
DistanceSpacing: 1.2
BeatDivisor: 4
GridSize: 8
TimelineZoom: 1

[Metadata]
Title:AVENGE WORLD (TV size)
TitleUnicode:AVENGE WORLD (TV size)
Artist:Suzuki Konomi
ArtistUnicode:Suzuki Konomi
Creator:beeboy123
Version:Hard
Source:
Tags:
BeatmapID:458355
BeatmapSetID:192794

[Difficulty]
HPDrainRate:5
CircleSize:4
OverallDifficulty:6
ApproachRate:8
SliderMultiplier:1.39999990463257
SliderTickRate:1

[Events]
//Background and Video events
0,0,"Background Image.jpg",0,0
//Break Periods
//Storyboard Layer 0 (Background)
//Storyboard Layer 1 (Fail)
//Storyboard Layer 2 (Pass)
//Storyboard Layer 3 (Foreground)
//Storyboard Sound Samples
//Background Colour Transformations
3,100,163,162,255

[TimingPoints]
630,324.324324324324,4,1,0,100,1,0

[HitObjects]
48,232,630,6,0,P|96:176|176:160,1,139.999990463257
152,240,1116,2,0,P|216:224|264:152,1,139.999990463257,0|0,0:0|0:0,0:0:0:0:
104,96,1765,2,0,P|176:160|216:152,1,139.999990463257
336,264,2413,2,0,P|272:320|96:280,1,279.999980926514,0|0,0:0|0:0,0:0:0:0:
128,200,3224,2,0,P|200:160|280:160,1,139.999990463257
344,168,3711,2,0,B|400:168|480:216,2,139.999990463257,0|0|0,0:0|0:0|0:0,0:0:0:0:
256,192,5170,5,8,0:0:0:0:
208,48,5332,1,8,0:0:0:0:
336,128,5494,1,8,0:0:0:0:
176,128,5657,1,8,0:0:0:0:
304,48,5819,1,12,0:0:0:0:
432,80,6305,5,0,0:0:0:0:
456,112,6386,1,0,0:0:0:0:
464,144,6467,1,0,0:0:0:0:
456,176,6548,1,0,0:0:0:0:
432,208,6629,1,0,0:0:0:0:
256,192,6954,12,0,8251,0:0:0:0:
128,96,8413,5,8,0:0:0:0:
128,176,8575,1,8,0:0:0:0:
256,288,8900,5,8,0:0:0:0:
288,128,9224,1,8,0:0:0:0:
352,280,9548,1,8,0:0:0:0:
216,184,9873,2,0,B|248:208|248:208|264:208,8,34.9999976158143,0|0|0|0|0|0|0|0|0,0:0|0:0|0:0|0:0|0:0|0:0|0:0|0:0|0:0,0:0:0:0:
296,72,11008,5,8,0:0:0:0:
136,112,11332,1,8,0:0:0:0:
296,152,11657,1,8,0:0:0:0:
376,144,11819,1,8,0:0:0:0:
456,120,11981,1,8,0:0:0:0:
448,200,12143,2,0,P|384:224|304:224,2,139.999990463257,0|0|0,0:0|0:0|0:0,0:0:0:0:
184,216,12954,5,8,0:0:0:0:
120,160,13116,1,8,0:0:0:0:
160,88,13278,1,8,0:0:0:0:
328,56,13602,5,4,0:0:0:0:
160,88,13927,1,0,0:0:0:0:
120,160,14089,1,0,0:0:0:0:
184,216,14251,1,0,0:0:0:0:
224,144,14413,1,0,0:0:0:0:
264,216,14575,1,0,0:0:0:0:
304,288,14738,6,0,P|376:264|424:184,1,139.999990463257
414,215,15224,1,8,0:0:0:0:
384,48,15548,2,0,P|320:64|272:144,1,139.999990463257
224,56,16197,6,8,P|192:128|120:176,1,139.999990463257
272,56,16846,2,8,P|288:120|368:160,1,139.999990463257
312,192,17494,2,8,P|240:208|160:184,1,139.999990463257,8|0,0:0|0:0,0:0:0:0:
104,224,17981,5,8,0:0:0:0:
104,304,18143,1,8,0:0:0:0:
184,304,18305,1,8,0:0:0:0:
184,224,18467,1,12,0:0:0:0:
320,120,18792,2,0,B|352:104|392:120|392:120,2,69.9999952316285,0|4|0,0:0|0:0|0:0,0:0:0:0:
388,118,19278,5,0,0:0:0:0:
248,280,19602,1,0,0:0:0:0:
248,280,19765,2,0,B|248:200|248:200|184:200,2,139.999990463257,0|0|0,0:0|0:0|0:0,0:0:0:0:
328,256,20575,1,0,0:0:0:0:
392,208,20738,1,0,0:0:0:0:
392,128,20900,1,0,0:0:0:0:
328,80,21062,1,0,0:0:0:0:
248,64,21224,1,0,0:0:0:0:
304,240,21711,5,8,0:0:0:0:
304,240,21873,2,0,P|336:264|384:240,2,69.9999952316285,0|0|0,0:0|0:0|0:0,0:0:0:0:
224,240,22359,1,8,0:0:0:0:
224,240,22521,2,0,P|192:256|152:240,2,69.9999952316285,0|0|0,0:0|0:0|0:0,0:0:0:0:
264,168,23008,2,8,P|240:136|320:104,1,139.999990463257,0|8,0:0|0:0,0:0:0:0:
384,120,23494,1,0,0:0:0:0:
424,192,23657,1,0,0:0:0:0:
392,272,23819,1,4,0:0:0:0:
144,280,24305,5,8,0:0:0:0:
144,280,24467,2,4,L|216:280,2,69.9999952316285,0|0|0,0:0|0:0|0:0,0:0:0:0:
176,200,24953,1,8,0:0:0:0:
176,200,25115,2,4,L|96:200,2,69.9999952316285,0|0|0,0:0|0:0|0:0,0:0:0:0:
264,200,25602,2,0,P|296:152|336:168,2,104.999992847443,0|0|0,0:0|0:0|0:0,0:0:0:0:
272,280,26251,5,0,0:0:0:0:
312,288,26332,1,0,0:0:0:0:
352,288,26413,1,0,0:0:0:0:
408,232,26575,2,0,P|392:112|248:72,1,279.999980926514
254,69,27386,1,0,0:0:0:0:
408,232,27548,2,0,P|264:176|256:64,1,279.999980926514
172,80,28359,5,0,0:0:0:0:
140,108,28440,1,0,0:0:0:0:
136,148,28521,1,0,0:0:0:0:
220,144,28684,1,0,0:0:0:0:
300,120,28846,1,0,0:0:0:0:
308,160,28927,1,0,0:0:0:0:
288,196,29008,1,0,0:0:0:0:
264,276,29170,2,0,P|308:280|332:252,4,69.9999952316285,0|0|0|0|0,0:0|0:0|0:0|0:0|0:0,0:0:0:0:
244,196,29981,6,4,P|272:180|324:196,2,69.9999952316285,0|0|0,0:0|0:0|0:0,0:0:0:0:
216,116,30467,1,0,0:0:0:0:
244,196,30629,2,0,P|204:204|172:196,1,69.9999952316285,0|0,0:0|0:0,0:0:0:0:
116,140,30954,5,0,0:0:0:0:
72,240,31116,1,0,0:0:0:0:
168,184,31278,1,0,0:0:0:0:
56,176,31440,1,0,0:0:0:0:
144,248,31602,1,4,0:0:0:0:
216,272,31765,2,4,P|272:296|376:272,2,139.999990463257,0|0|0,0:0|0:0|0:0,0:0:0:0:
284,224,32575,5,8,0:0:0:0:
340,184,32738,1,8,0:0:0:0:
388,136,32900,1,8,0:0:0:0:
388,136,33062,2,8,P|316:104|236:104,1,139.999990463257,8|4,0:0|0:0,0:0:0:0:
108,180,33711,2,0,L|132:268,1,69.9999952316285,0|0,0:0|0:0,0:0:0:0:
188,192,34035,2,0,L|212:264,1,69.9999952316285,0|0,0:0|0:0,0:0:0:0:
268,200,34359,1,4,0:0:0:0:
400,144,34684,6,8,P|432:216|400:264,2,139.999990463257,8|0|8,0:0|0:0|0:0,0:0:0:0:
336,144,35494,1,0,0:0:0:0:
336,144,35657,2,0,P|304:232|336:272,2,139.999990463257,0|0|0,0:0|0:0|0:0,0:0:0:0:
72,248,36792,6,0,P|168:296|376:288,1,314.999978542328
288,96,37927,1,0,0:0:0:0:
216,52,38089,1,0,0:0:0:0:
200,136,38251,1,4,0:0:0:0:
168,280,38575,1,0,0:0:0:0:
252,280,38738,2,0,P|316:248|356:296,1,139.999990463257
355,291,39224,1,0,0:0:0:0:
440,276,39386,2,0,P|392:204|336:204,1,139.999990463257
344,201,39873,1,4,0:0:0:0:
392,40,40197,6,0,P|384:112|304:152,1,139.999990463257
248,160,40684,1,0,0:0:0:0:
168,184,40846,1,0,0:0:0:0:
96,136,41008,1,0,0:0:0:0:
168,96,41170,2,0,P|240:88|304:24,1,139.999990463257
168,96,41819,1,0,0:0:0:0:
208,232,42143,6,0,P|352:256|408:128,1,279.999980926514
392,88,42954,1,0,0:0:0:0:
368,64,43035,1,0,0:0:0:0:
336,56,43116,1,0,0:0:0:0:
304,56,43197,1,0,0:0:0:0:
272,72,43278,1,0,0:0:0:0:
216,112,43440,5,0,0:0:0:0:
136,192,43602,1,0,0:0:0:0:
248,208,43765,1,0,0:0:0:0:
464,248,44089,5,0,0:0:0:0:
352,224,44251,1,0,0:0:0:0:
392,328,44413,1,0,0:0:0:0:
144,80,44900,5,0,0:0:0:0:
144,160,45062,1,0,0:0:0:0:
224,160,45224,1,0,0:0:0:0:
224,80,45386,1,4,0:0:0:0:
296,120,45548,2,0,P|304:160|304:200,2,69.9999952316285,0|0|0,0:0|0:0|0:0,0:0:0:0:
368,168,46035,5,8,0:0:0:0:
424,232,46197,1,8,0:0:0:0:
344,248,46359,1,8,0:0:0:0:
264,256,46521,2,0,P|184:272|184:232,2,139.999990463257,4|0|4,0:0|0:0|0:0,0:0:0:0:
288,176,47332,1,8,0:0:0:0:
336,104,47494,1,8,0:0:0:0:
416,248,47819,1,8,0:0:0:0:
456,176,47981,1,8,0:0:0:0:
304,256,48305,5,0,0:0:0:0:
224,240,48467,1,0,0:0:0:0:
272,176,48629,2,0,B|352:144|312:96|240:64|264:48,2,139.999990463257,0|0|0,0:0|0:0|0:0,0:0:0:0:
269,71,49440,1,4,0:0:0:0:
416,160,49765,5,8,0:0:0:0:
336,184,49927,1,8,0:0:0:0:
400,240,50089,1,8,0:0:0:0:
240,288,50413,5,8,0:0:0:0:
160,272,50575,1,8,0:0:0:0:
120,200,50738,1,8,0:0:0:0:
176,136,50900,1,8,0:0:0:0:
256,152,51062,1,8,0:0:0:0:
296,224,51224,1,8,0:0:0:0:
408,144,51548,6,0,P|272:280|240:248,1,279.999980926514
296,208,52359,1,8,0:0:0:0:
336,144,52521,2,0,P|208:104|160:224,1,279.999980926514
160,72,53494,2,0,L|144:168,1,69.9999952316285
148,141,53819,1,0,0:0:0:0:
240,152,53981,2,0,L|224:232,1,69.9999952316285
226,220,54305,1,0,0:0:0:0:
320,248,54467,2,0,L|304:328,1,69.9999952316285
306,316,54792,1,0,0:0:0:0:
192,240,55116,5,8,0:0:0:0:
344,312,55440,1,8,0:0:0:0:
280,152,55765,1,8,0:0:0:0:
432,224,56089,1,8,0:0:0:0:
376,64,56413,1,8,0:0:0:0:
240,48,56738,2,0,P|168:104|88:192,1,209.999985694886
88,192,57548,6,0,P|136:152|280:152,1,209.999985694886,0|0,0:0|0:0,0:0:0:0:
208,184,58197,1,0,0:0:0:0:
160,232,58359,2,0,P|256:256|336:184,1,209.999985694886,0|0,0:0|0:0,0:0:0:0:
416,208,59008,1,0,0:0:0:0:
408,288,59170,2,0,P|360:304|336:304,1,69.9999952316285
256,304,59494,1,0,0:0:0:0:
176,272,59657,1,0,0:0:0:0:
120,208,59819,1,4,0:0:0:0:
216,72,60143,6,0,P|288:64|376:104,1,139.999990463257
392,160,60629,1,4,0:0:0:0:
304,168,60792,1,4,0:0:0:0:
352,240,60954,1,4,0:0:0:0:
272,248,61116,2,0,P|200:288|144:232,1,139.999990463257
112,192,61602,1,0,0:0:0:0:
184,144,61765,1,0,0:0:0:0:
344,104,62089,1,12,0:0:0:0:
456,232,62413,1,0,0:0:0:0:
376,264,62575,1,0,0:0:0:0:
208,272,62900,1,8,0:0:0:0:
296,128,63224,1,8,0:0:0:0:
152,208,63548,1,8,0:0:0:0:
240,64,63873,1,8,0:0:0:0:
408,72,64197,6,0,P|440:152|408:224,2,139.999990463257,0|0|0,0:0|0:0|0:0,0:0:0:0:
320,64,65008,1,0,0:0:0:0:
248,112,65170,1,0,0:0:0:0:
248,280,65494,2,0,P|296:328|376:320,2,139.999990463257,0|0|0,0:0|0:0|0:0,0:0:0:0:
328,248,66305,1,0,0:0:0:0:
408,248,66467,1,0,0:0:0:0:
472,192,66629,1,0,0:0:0:0:
408,144,66792,1,0,0:0:0:0:
328,144,66954,2,0,P|304:224|232:256,2,139.999990463257,0|0|0,0:0|0:0|0:0,0:0:0:0:
160,136,67927,6,0,P|200:72|288:64,1,139.999990463257
280,136,68413,1,0,0:0:0:0:
360,104,68575,1,0,0:0:0:0:
440,88,68738,2,0,P|448:168|392:216,1,139.999990463257
248,232,69386,1,0,0:0:0:0:
168,264,69548,2,0,P|232:312|312:304,2,139.999990463257,4|0|4,0:0|0:0|0:0,0:0:0:0:
120,104,70521,6,0,P|168:64|256:64,2,139.999990463257,0|0|0,0:0|0:0|0:0,0:0:0:0:
176,168,71332,1,0,0:0:0:0:
256,160,71494,1,0,0:0:0:0:
336,152,71657,1,0,0:0:0:0:
408,192,71819,2,0,P|400:240|360:264,2,69.9999952316285,0|0|0,0:0|0:0|0:0,0:0:0:0:
336,152,72305,1,0,0:0:0:0:
256,160,72467,1,0,0:0:0:0:
168,304,72792,6,0,P|88:256|80:192,1,139.999990463257
72,176,73197,1,0,0:0:0:0:
80,128,73278,2,0,P|136:72|216:64,1,139.999990463257
360,96,73927,2,0,P|416:144|416:224,1,139.999990463257
344,176,74413,1,8,0:0:0:0:
272,128,74575,2,0,P|272:208|336:264,1,139.999990463257,0|0,0:0|0:0,0:0:0:0:
192,280,75224,6,0,P|176:200|120:152,1,139.999990463257
280,88,75873,2,0,P|344:184|376:192,1,139.999990463257
200,144,76521,2,0,P|272:224|280:256,1,139.999990463257
320,328,77008,1,0,0:0:0:0:
360,312,77089,1,0,0:0:0:0:
400,288,77170,1,0,0:0:0:0:
424,256,77251,1,0,0:0:0:0:
440,216,77332,1,0,0:0:0:0:
464,136,77494,2,0,P|368:80|192:64,1,279.999980926514,0|0,0:0|0:0,0:0:0:0:
64,160,78467,6,0,L|224:104,1,139.999990463257
280,136,78954,1,8,0:0:0:0:
248,216,79116,2,0,L|120:272,1,139.999990463257,0|4,0:0|0:0,0:0:0:0:
320,320,79765,6,0,P|384:280|424:208,2,139.999990463257,0|0|0,0:0|0:0|0:0,0:0:0:0:
264,264,80575,1,0,0:0:0:0:
304,192,80738,1,0,0:0:0:0:
232,240,80900,1,0,0:0:0:0:
168,184,81062,2,0,P|224:136|312:104,1,139.999990463257,0|4,0:0|0:0,0:0:0:0:
408,224,81711,1,8,0:0:0:0:
256,144,82035,1,8,0:0:0:0:
112,224,82359,1,8,0:0:0:0:
256,192,82765,12,0,87548,0:0:0:0:
