osu file format v9

[General]
AudioFilename: derivara.mp3
AudioLeadIn: 2000
PreviewTime: 61931
Countdown: 0
SampleSet: Soft
StackLeniency: 0.7
Mode: 0
LetterboxInBreaks: 0

[Editor]
DistanceSpacing: 1.5
BeatDivisor: 4
GridSize: 4

[Metadata]
Title:TRUST (Short Ver.)
Artist:Suzuhara Chika
Creator:DarknessAngel
Version:Insane
Source:Derivara! -deliverance of strays-
Tags:opening parasol hentai eroge galgame [Kirisame-Marisa] yia

[Difficulty]
HPDrainRate:7
CircleSize:4
OverallDifficulty:7
ApproachRate:8
SliderMultiplier:1.6
SliderTickRate:1

[Events]
//Background and Video events
0,0,"BG.jpg"
Video,0,"Vedio.avi"
//Break Periods
//Storyboard Layer 0 (Background)
//Storyboard Layer 1 (Fail)
//Storyboard Layer 2 (Pass)
//Storyboard Layer 3 (Foreground)
//Storyboard Sound Samples
//Background Colour Transformations
3,100,163,162,255

[TimingPoints]
507,368.098159509202,4,2,1,60,1,0
10261,-100,4,1,1,50,0,0
10629,-100,4,2,1,60,0,0
11549,-100,4,1,1,40,0,0
12286,-100,4,2,1,70,0,0
23697,-100,4,1,1,45,0,0
24065,-100,4,2,1,70,0,0
47623,-100,4,2,1,60,0,0
59034,-100,4,1,1,45,0,0
59402,-100,4,2,1,70,0,0
61979,-100,4,2,1,50,0,0
62347,-100,4,2,1,80,0,1
72654,-100,4,2,1,80,0,0
74494,-100,4,2,1,80,0,1
85169,-100,4,1,1,50,0,1
85905,-100,4,2,1,70,0,0

[Colours]
Combo1 : 145,236,232
Combo2 : 64,0,128
Combo3 : 255,255,162
Combo4 : 255,128,192

[HitObjects]
288,60,322,1,0
288,60,414,1,0
288,60,507,2,0,B|371:60|435:112,2,160,2|2|0
284,208,1427,2,0,B|320:192|340:152,1,80,0|2
128,68,1795,2,0,B|88:56|52:80,1,80,2|0
112,268,2163,5,2
172,168,2347,1,0
60,168,2531,1,0
224,280,2715,2,0,B|300:304|384:284,1,160,2|2
444,64,3451,6,0,B|368:40|284:60,1,160,2|2
286,59,4187,1,2
128,132,4372,1,0
224,132,4556,1,0
72,56,4740,1,2
72,56,5108,6,0,B|40:80|36:124,1,80,0|2
148,308,5476,2,0,B|180:284|184:240,1,80,2|0
64,248,5844,2,0,B|32:272|28:316,1,80,2|0
300,244,6212,1,2
300,244,6396,6,0,B|284:164|212:116,2,160,2|2|0
156,172,7316,1,2
292,84,7500,1,0
300,244,7684,2,0,B|280:280|236:288,1,80,2|0
44,184,8053,6,0,B|52:228|84:252,1,80,2|0
176,64,8421,2,0,B|136:48|96:56,1,80,2|2
252,156,8789,2,0,B|292:172|332:164,1,80,0|2
176,64,9157,1,0
144,232,9341,6,0,B|168:308|252:344,1,160,2|2
444,76,10077,1,0
252,156,10261,2,0,B|272:196|308:208,1,80
176,64,10629,2,0,B|108:108,1,80,4|0
176,320,10997,2,0,B|108:276,1,80,0|2
256,192,11365,5,2
432,116,11549,1,0
452,152,11641,1,0
460,192,11733,1,0
452,232,11826,1,0
432,268,11918,1,0
176,192,12286,6,0,B|256:192,1,80,4|0
164,88,12654,2,0,B|84:88,1,80,8|2
84,296,13022,2,0,B|164:296,1,80,2|0
408,192,13390,1,8
296,116,13574,2,0,B|260:192|300:272,1,160,2|2
464,104,14126,6,0,B|432:80|388:76,1,80,8|2
390,307,14494,2,0,B|432:304|464:280,1,80,2|0
292,192,14862,2,0,B|208:192,1,80,8|0
72,116,15230,6,0,B|36:192|76:272,2,160,2|10|0
292,192,16151,1,2
372,104,16335,1,8
256,80,16519,2,0,B|216:80|184:108|168:148|180:200,1,160,2|0
392,320,17071,6,0,B|432:304|448:264,1,80,8|2
292,192,17439,1,2
184,352,17623,1,0
348,252,17807,1,8
156,272,17991,1,2
348,252,18175,6,0,B|384:224|396:188,1,80,4|0
476,40,18543,2,0,B|440:68|428:104,1,80,8|0
232,88,18911,2,0,B|272:108|308:96,1,80,2|0
144,56,19280,2,0,B|104:36|68:48,2,80,8|2|0
256,192,19832,6,0,B|256:232|228:268,1,80,2|10
76,272,20200,1,0
76,272,20292,1,0
76,272,20384,2,0,B|80:320|112:344,1,80,2|0
256,192,20752,2,0,B|285:169|289:121,1,80,10|0
192,276,21120,6,0,B|256:328|340:328,1,160,2|10
464,168,21672,1,2
464,168,21764,1,0
464,168,21856,2,0,B|464:212|440:244,1,80,0|2
224,108,22224,1,8
224,108,22408,6,0,B|260:184|352:192,1,160,4|0
288,44,22960,1,8
136,92,23145,2,0,B|60:120|32:208,1,160,4|0
116,292,23697,1,0
148,316,23789,1,0
184,328,23881,1,0
224,332,23973,1,0
264,324,24065,1,4
464,72,24433,6,0,B|424:56|384:64,1,80,8|0
296,100,24801,1,0
372,156,24985,1,0
284,196,25169,2,0,B|248:220|208:208,2,80,8|0|0
372,156,25721,2,0,B|408:180|420:220,1,80,0|8
352,284,26089,5,0
440,316,26273,1,0
160,100,26641,1,8
80,44,26826,1,0
80,44,26918,1,0
80,44,27010,2,0,B|56:76|64:120,1,80
128,192,27378,1,8
180,272,27562,1,0
224,184,27746,1,0
128,192,27930,6,0,B|96:216|84:260,1,80,0|8
328,192,28298,2,0,B|304:112|224:76,1,160,0|2
276,268,28850,1,8
308,292,28942,1,0
348,304,29034,2,0,B|388:320|428:304,1,80,2|0
468,128,29402,2,0,B|464:168|432:196,1,80,2|10
268,80,29770,5,0
268,80,29862,1,0
268,80,29954,2,0,B|188:56|108:76,1,160,0|8
28,272,30506,1,0
28,272,30691,2,0,B|108:296|188:276,1,160,0|8
356,180,31243,1,0
356,180,31427,2,0,B|276:156|196:176,1,160,0|8
312,288,31979,5,0
312,288,32071,1,0
312,288,32163,2,0,B|392:312|472:292,1,160,0|8
472,92,32715,2,0,B|392:72|312:96,1,160
64,200,33267,2,0,B|144:220|224:196,1,160,8|0
208,100,33819,1,0
116,72,34003,1,8
32,28,34187,2,0,B|16:68|28:112,1,80,4|0
176,288,34556,6,0,B|144:320|104:316,1,80,2|8
256,192,34924,1,2
336,288,35108,2,0,B|368:320|408:316,1,80,2|0
296,60,35476,2,0,B|256:48|216:60,1,80,8|2
180,76,35752,1,0
164,112,35844,2,0,B|144:148|160:188,1,80,4|0
256,192,36212,5,8
336,140,36396,1,0
392,60,36580,2,0,B|432:44|472:56,2,80,0|0|8
432,148,37132,2,0,B|440:192|468:216,1,80
428,304,37500,1,0
336,336,37684,2,0,B|296:344|256:328,1,80,8|0
60,240,38053,6,0,B|64:280|100:312,1,80
152,88,38421,2,0,B|112:72|72:88,1,80,8|0
216,196,38789,2,0,B|300:212|372:176,1,160,0|8
448,56,39341,1,0
448,56,39433,1,0
448,56,39525,2,0,B|364:40|292:76,1,160,0|8
216,196,40077,2,0,B|240:276|312:320,1,160,0|2
392,264,40629,1,8
472,208,40813,1,2
472,208,40905,1,0
472,208,40997,2,0,B|492:244|484:284,1,80,2|0
392,264,41365,5,8
288,164,41549,1,0
156,80,41733,2,0,B|72:92|32:172,2,160,0|8|0
196,168,42654,5,0
160,256,42838,1,8
92,324,43022,2,0,B|48:312|36:272,2,80
252,220,43574,2,0,B|240:180|196:168,1,80,8|0
148,164,43850,1,0
110,198,43942,2,0,B|122:242|162:258,1,80
300,100,44310,2,0,B|288:56|248:40,1,80,8|0
332,196,44678,6,0,B|412:160|440:76,1,160,4|8
300,100,45230,1,0
396,268,45414,2,0,B|428:296|468:300,2,80,0|2|8
220,216,45967,2,0,B|136:192|60:228,1,160,4|2
212,308,46519,5,10
212,308,46611,1,0
212,308,46703,1,2
64,226,46887,1,0
220,216,47071,1,2
72,132,47255,1,10
72,132,47347,1,0
72,132,47439,1,0
212,56,47623,5,4
212,56,47991,2,0,B|296:32|376:56,1,160,8|0
412,140,48543,2,0,B|448:116|460:76,1,80,0|8
304,148,48911,2,0,B|264:220|300:304,1,160,0|2
376,228,49464,5,10
376,228,49556,1,0
376,228,49648,1,0
212,140,49832,2,0,B|176:120|136:120,1,80,2|0
20,184,50200,2,0,B|56:204|96:204,1,80,8|0
44,68,50568,5,0
44,68,50936,1,8
220,252,51120,2,0,B|212:296|184:324,1,80
32,292,51488,2,0,B|56:332|100:336,1,80,0|8
208,128,51856,2,0,B|128:100|56:148,1,160
220,252,52408,2,0,B|300:280|372:232,1,160,8|0
428,152,52960,1,2
428,152,53053,1,0
428,152,53145,1,10
460,60,53329,6,0,B|424:36|384:44,1,80,0|0
296,80,53697,1,0
204,56,53881,1,8
100,216,54065,1,0
100,216,54157,1,0
100,216,54249,2,0,B|136:244|180:240,1,80,2|2
204,56,54617,1,8
52,84,54801,1,4
52,84,55169,5,2
100,216,55353,1,8
196,312,55537,2,0,B|236:332|272:324,1,80,2|0
364,292,55905,1,0
456,312,56089,1,8
164,116,56457,5,4
396,80,56641,2,0,B|324:44,1,80,0|8
416,192,57010,2,0,B|472:136,1,80,4|0
296,132,57378,1,0
208,244,57562,1,8
320,348,57746,6,0,B|356:324|356:280,1,80,2|0
68,280,58114,2,0,B|68:324|104:348,1,80,0|8
208,244,58482,2,0,B|240:164|208:88,1,160,4|0
33,31,59034,2,0,B|68:52,3,40,0|0|0|0
80,92,59402,6,0,B|76:136|44:164,1,80,4|0
208,88,59770,1,10
208,88,60138,5,2
388,96,60322,1,0
220,172,60507,1,10
408,172,60691,2,0,B|448:156|472:120|472:80|442:42,1,160,6|0
304,132,61243,1,10
304,272,61427,5,0
324,308,61519,1,0
356,332,61611,1,0
392,344,61703,1,0
432,340,61795,2,0,B|476:328|492:288,1,80,0|8
400,256,62163,1,0
164,248,62347,6,0,B|80:264|40:344,1,160,4|8
136,348,62899,2,0,B|180:360|220:344,1,80,2|0
260,264,63267,1,2
224,176,63451,1,8
160,104,63635,2,0,B|92:60|8:68,1,160,2|0
40,156,64187,1,8
252,88,64372,5,0
252,88,64464,1,0
252,88,64556,2,0,B|324:48|408:68,1,160,2|8
260,296,65292,2,0,B|188:336|104:316,1,160,2|8
60,232,65844,1,2
116,156,66028,1,0
168,76,66212,2,0,B|132:52|92:64,1,80,2|8
116,156,66580,2,0,B|180:204|268:192,1,160,2|0
464,72,67132,6,0,B|428:48|388:48,1,80,8|2
352,56,67408,1,0
348,96,67500,2,0,B|356:138|384:166,1,80,0|2
452,236,67868,1,10
384,304,68053,1,0
288,312,68237,6,0,B|204:312|144:252,1,160,2|8
112,164,68789,1,2
168,88,68973,1,0
88,36,69157,1,0
32,112,69341,1,10
112,164,69525,2,0,B|188:204|268:176,1,160,2|0
340,116,70077,2,0,B|364:76|400:64,1,80,8|0
428,156,70445,5,2
376,236,70629,2,0,B|352:276|316:288,1,80,0|10
220,296,70997,1,0
124,292,71181,2,0,B|84:284|60:248,2,80,2|0|8
172,208,71733,1,0
176,56,71918,6,0,B|100:28|20:56,1,160,2|8
188,132,72470,2,0,B|264:160|344:132,1,160,4|0
420,72,73022,1,8
328,44,73206,2,0,B|288:32|248:48,1,80,0|2
248,236,73574,5,0
268,272,73666,1,0
300,296,73758,1,8
336,312,73850,1,0
376,316,73942,1,0
416,308,74034,1,0
448,288,74126,6,0,B|480:264|496:220,1,80,2|0
408,184,74494,2,0,B|368:168|332:188,1,80,12|0
248,236,74862,1,2
152,248,75046,1,0
68,204,75230,1,10
152,248,75414,2,0,B|192:168|172:92,1,160,2|0
88,48,75967,1,8
272,116,76151,5,0
272,116,76243,1,0
272,116,76335,2,0,B|356:128|424:76,1,160,2|8
240,268,77071,2,0,B|156:256|88:308,1,160,2|8
452,308,77807,6,0,B|411:233|328:210,1,160,2|8
181,173,78359,2,0,B|101:151|60:76,1,160,2|0
152,56,78911,1,8
248,68,79095,1,2
248,68,79187,1,0
248,68,79280,2,0,B|288:92|328:80,1,80,0|2
412,40,79648,2,0,B|448:28|488:52,1,80,10|0
436,132,80016,6,0,B|400:208|424:288,1,160,4|8
120,320,80752,1,0
184,248,80936,1,2
180,152,81120,1,8
120,76,81304,6,0,B|40:100|8:184,1,160,2|0
276,144,81856,2,0,B|272:100|236:76,1,80,10|2
184,248,82224,2,0,B|204:284|248:288,1,80
356,132,82592,2,0,B|365:88|338:54,1,80,10|0
340,220,82960,6,0,B|392:292|476:292,1,160,0|8
424,168,83513,1,2
276,144,83697,2,0,B|196:120|120:152,1,160,2|8
104,312,84249,1,4
104,312,84617,5,2
304,276,84801,1,10
216,344,84985,1,0
308,164,85169,1,0
300,124,85261,1,0
276,92,85353,1,0
244,72,85445,1,0
204,64,85537,1,0
420,300,85905,5,4
420,300,86273,2,0,B|440:260|432:220,1,80,8|2
164,268,86641,1,2
248,316,86826,1,0
132,116,87010,1,8
52,172,87194,2,0,B|44:216|64:248,1,80,8|0
176,32,87562,6,0,B|136:16|96:28,1,80,2|8
256,192,87930,1,2
414,27,88114,2,0,B|376:16|336:32,1,80,2|8
352,228,88482,2,0,B|380:256|420:272,1,80,8|0
452,252,88758,1,0
472,216,88850,6,0,B|416:152|332:144,1,160,6|8
333,144,89586,1,0
156,232,89770,1,2
260,88,89954,1,8
332,256,90138,2,0,B|284:184|204:168,1,160,10|0
60,192,90691,5,10
136,320,90875,1,2
136,320,90967,1,0
136,320,91059,2,0,B|180:332|216:304,1,80,0|8
212,77,91427,2,0,B|180:52|136:64,1,80,8|2
256,192,91795,6,0,B|416:192,1,160,4|8
164,156,92347,1,2
164,156,92439,1,0
164,156,92531,2,0,B|136:188|160:232,1,80,0|8
256,192,92899,1,8
80,120,93083,2,0,B|40:192|80:276,1,160,2|2
256,192,93635,5,8
404,112,93819,1,0
404,112,93911,1,0
404,112,94003,2,0,B|380:80|336:68,1,80,2|8
108,112,94372,2,0,B|132:80|176:68,1,80,8|0
328,296,94740,6,0,B|256:336|172:296,1,160,4|8
80,192,95292,1,0
80,192,95384,1,0
80,192,95476,2,0,B|64:232|84:272,1,80,2|8
256,112,95844,1,8
432,192,96028,2,0,B|448:232|429:269,1,80,2|0
140,96,96396,6,0,B|136:136|160:176,1,80,2|8
353,172,96764,1,8
353,172,96856,1,0
353,172,96948,2,0,B|376:136|372:96,1,80,0|2
256,112,97316,1,8
256,328,97500,1,4
