osu file format v9

[General]
AudioFilename: derivara.mp3
AudioLeadIn: 2000
PreviewTime: 61931
Countdown: 0
SampleSet: Soft
StackLeniency: 0.7
Mode: 0
LetterboxInBreaks: 0

[Editor]
DistanceSpacing: 1.1
BeatDivisor: 4
GridSize: 4

[Metadata]
Title:TRUST (Short Ver.)
Artist:Suzuhara Chika
Creator:DarknessAngel
Version:Hard
Source:Derivara! -deliverance of strays-
Tags:opening parasol hentai eroge galgame [Kirisame-Marisa] yia

[Difficulty]
HPDrainRate:5
CircleSize:4
OverallDifficulty:6
ApproachRate:7
SliderMultiplier:1.5
SliderTickRate:1

[Events]
//Background and Video events
0,0,"BG.jpg"
Video,0,"Vedio.avi"
//Break Periods
//Storyboard Layer 0 (Background)
//Storyboard Layer 1 (Fail)
//Storyboard Layer 2 (Pass)
//Storyboard Layer 3 (Foreground)
//Storyboard Sound Samples
//Background Colour Transformations
3,100,163,162,255

[TimingPoints]
507,368.098159509202,4,2,1,60,1,0
10261,-100,4,1,1,40,0,0
10629,-100,4,2,1,60,0,0
11549,-100,4,1,1,40,0,0
11918,-100,4,1,1,50,0,0
12286,-100,4,2,1,70,0,0
47623,-100,4,2,1,60,0,0
62347,-100,4,2,1,80,0,1
72654,-100,4,2,1,80,0,0
74494,-100,4,2,1,80,0,1
85537,-100,4,2,1,50,0,1
85905,-100,4,2,1,70,0,0

[Colours]
Combo1 : 145,236,232
Combo2 : 64,0,128
Combo3 : 255,255,162
Combo4 : 255,128,192

[HitObjects]
372,88,322,2,0,B|408:68,2,37.5,0|0|2
140,88,875,1,2
140,88,1243,1,0
104,164,1427,1,2
108,248,1611,1,0
156,316,1795,2,0,B|228:344|304:324,1,150,2|2
384,236,2347,6,0,B|348:220|312:232,1,75,2|0
392,324,2715,2,0,B|428:340|464:328,1,75,2|0
496,220,3083,1,2
308,56,3451,6,0,B|232:36|160:64,1,150,2|2
96,280,4187,1,0
160,228,4372,2,0,B|128:200|92:200,1,75,2|0
96,280,4740,2,0,B|156:328|240:308,1,150,2|0
184,140,5292,5,2
56,100,5476,2,0,B|52:136|80:172,1,75,2|0
280,80,5844,2,0,B|272:44|234:18,1,75,2|2
128,28,6212,1,0
184,140,6396,6,0,B|216:212|300:228,1,150,2|2
464,48,7132,1,2
444,128,7316,2,0,B|432:164|396:184,1,75,2|0
368,108,7684,2,0,B|316:48|236:44,1,150,2|0
104,132,8237,5,2
188,128,8421,1,2
136,52,8605,2,0,B|96:40|60:60,1,75,0|2
72,212,8973,2,0,B|112:224|148:204,1,75,2|0
104,132,9341,5,2
296,320,9709,1,2
296,320,10077,2,0,B|336:316|364:288,2,75,0|0|0
236,264,10629,2,0,B|168:220|88:244,1,150,4|2
120,320,11181,6,0,B|156:336|196:332,1,75,0|2
252,180,11549,2,0,B|184:136|104:160,1,150
448,64,12286,6,0,B|408:128|448:208,1,150,4|8
280,56,13022,1,2
196,60,13206,2,0,B|160:76|152:116,1,75,2|8
168,196,13574,2,0,B|136:268|68:304,1,150,2|0
88,168,14126,5,8
212,276,14310,1,2
296,164,14494,2,0,B|264:140|228:136,1,75,2|0
296,308,14862,2,0,B|328:332|364:336,1,75,10|0
444,308,15230,5,2
444,308,15599,2,0,B|480:236|456:160,1,150,8|2
424,88,16151,2,0,B|392:64|356:60,1,75,2|8
296,116,16519,2,0,B|236:164|152:152,1,150,2|0
304,204,17071,5,8
200,76,17255,1,2
12,152,17439,2,0,B|40:180|84:180,1,75,0|2
232,280,17807,2,0,B|204:308|160:308,1,75,10|0
72,276,18175,5,4
304,204,18543,1,8
304,204,18911,1,0
376,168,19095,2,0,B|412:148|428:116,1,75,2|8
368,56,19464,2,0,B|296:28|220:52,1,150,2|0
48,64,20016,2,0,B|44:104|64:136,1,75,10|0
184,204,20384,2,0,B|215:178|223:141,1,75,0|2
92,232,20752,2,0,B|136:300|224:296,1,150,10|2
388,144,21488,6,0,B|352:212|388:288,1,150,8|2
468,264,22040,1,0
468,180,22224,1,10
456,100,22408,2,0,B|396:48|316:48,1,150,4|0
240,68,22960,5,8
184,128,23145,2,0,B|164:204|212:272,1,150,4|0
288,304,23697,2,0,B|364:324|432:268,1,150,8|4
184,128,24433,5,8
104,104,24617,2,0,B|64:92|48:56,2,75
184,128,25169,2,0,B|168:164|132:184,1,75,8|0
360,44,25721,5,0
440,56,25905,1,8
484,124,26089,1,0
460,204,26273,2,0,B|412:268|332:272,1,150,0|8
52,204,27010,6,0,B|100:268|180:272,1,150,0|8
256,240,27562,1,0
292,164,27746,2,0,B|284:120|252:104,1,75
208,176,28114,1,8
256,240,28298,6,0,B|316:292|396:292,1,150,0|2
456,240,28850,1,8
452,156,29034,2,0,B|432:120|396:108,2,75,2|0|0
376,188,29586,1,10
188,92,29954,6,0,B|112:68|40:96,1,150,0|8
40,288,30691,2,0,B|112:316|188:292,1,150,0|8
292,128,31427,5,0
344,64,31611,2,0,B|384:56|420:68,1,75,0|8
380,140,31979,1,0
340,212,32163,2,0,B|374:223|414:215,1,75
380,140,32531,5,8
292,128,32715,2,0,B|216:112|148:152,1,150
96,216,33267,2,0,B|100:296|152:352|240:368|320:316,1,300,8|8
284,244,34187,6,0,B|356:208|432:224,1,150,4|2
468,296,34740,2,0,B|432:320|388:304,1,75,8|2
432,140,35108,2,0,B|475:142|495:174,1,75,2|0
352,128,35476,2,0,B|312:124|280:100,1,75,8|2
348,48,35844,1,4
208,224,36212,6,0,B|188:256|152:272,1,75,8|0
68,268,36580,2,0,B|40:296|40:336,2,75,0|0|8
112,200,37132,2,0,B|136:124|104:52,1,150
188,52,37684,6,0,B|228:64|268:52,1,75,8|0
344,56,38053,2,0,B|312:128|336:204,1,150,0|8
136,308,38789,2,0,B|208:348|280:328,1,150,0|8
460,196,39525,2,0,B|424:268|356:300,1,150,0|8
292,248,40077,6,0,B|220:208|148:228,1,150,0|2
68,252,40629,1,10
256,52,40997,1,2
336,76,41181,1,0
396,132,41365,2,0,B|424:96|416:60,1,75,8|0
336,76,41733,6,0,B|288:140|312:220,1,150,0|8
368,280,42286,2,0,B|409:290|429:324,2,75
288,296,42838,1,8
216,332,43022,6,0,B|140:360|68:340,1,150
92,260,43574,2,0,B|116:180|92:112,1,150,8|0
312,68,44310,1,8
312,68,44678,6,0,B|388:48|464:76,1,150,4|8
459,309,45414,2,0,B|388:336|312:316,1,150,0|10
236,280,45967,6,0,B|196:276|164:296,1,75,4|0
84,308,46335,2,0,B|44:296|32:256,2,75,2|8|2
112,232,46887,1,0
112,232,47255,1,8
248,52,47623,6,0,B|172:24|96:52,1,150,4|8
204,248,48359,2,0,B|280:276|356:248,1,150,0|8
376,172,48911,2,0,B|334:127|274:115|215:124|173:175,1,225,0|10
328,336,49832,1,2
468,160,50200,5,8
432,232,50384,1,0
376,172,50568,2,0,B|376:96|444:44,1,150,0|8
368,16,51120,2,0,B|288:4|224:48,1,150
172,112,51672,1,8
252,124,51856,6,0,B|276:196|236:268,1,150
168,312,52408,2,0,B|92:332|24:288,1,150,8|2
100,76,53145,2,0,B|64:56|28:64,1,75,10|0
52,144,53513,6,0,B|108:204|188:200,1,150,0|8
432,60,54249,1,2
376,172,54433,2,0,B|416:192|452:184,1,75,2|8
340,84,54801,6,0,B|264:60|192:80,1,150,4|2
72,136,55353,1,8
168,224,55537,2,0,B|244:248|316:228,1,150,2|0
376,172,56089,1,8
376,172,56457,5,4
448,212,56641,1,0
460,296,56826,1,8
400,352,57010,2,0,B|320:360|256:312,1,150,4|0
200,256,57562,1,8
132,208,57746,6,0,B|60:244|56:328,1,150,2|0
136,308,58298,1,8
200,256,58482,2,0,B|240:188|220:112,1,150,4|0
152,64,59034,1,8
420,44,59402,5,4
304,288,59770,1,8
304,288,60138,2,0,B|344:276|372:252,1,75,2|2
272,144,60507,1,8
96,188,60691,2,0,B|124:260|208:284,1,150,4|2
256,192,61243,12,4,62347
440,96,62715,6,0,B|372:64|292:76,1,150,8|0
216,100,63267,1,2
244,176,63451,1,8
172,216,63635,1,2
172,216,64003,6,0,B|136:240|96:232,1,75,0|10
52,168,64372,1,0
84,92,64556,2,0,B|136:32|216:28,1,150,2|8
256,100,65108,1,0
296,28,65292,6,0,B|376:32|428:92,1,150,2|8
416,172,65844,1,2
376,244,66028,1,0
340,320,66212,2,0,B|384:332|416:320,1,75,0|8
376,244,66580,6,0,B|300:216|228:244,1,150,2|2
156,284,67132,1,8
76,296,67316,2,0,B|36:288|8:260,2,75,2|0|2
104,220,67868,1,10
152,152,68053,1,0
218,102,68237,6,0,B|190:74|150:62|114:74|82:102,1,150,2|8
152,152,68789,2,0,B|180:180|220:184,1,75,2|0
292,144,69157,1,0
364,108,69341,1,10
440,80,69525,6,0,B|420:40|380:24|344:24|308:48,1,150,2|0
364,108,70077,2,0,B|384:144|420:156,1,75,8|0
492,196,70445,2,0,B|468:272|400:312,1,150,2|8
324,340,70997,1,0
244,324,71181,6,0,B|176:284|152:208,1,150,2|8
128,132,71733,1,0
192,80,71918,2,0,B|164:56|128:44|88:56|56:88,1,150,2|8
128,132,72470,2,0,B|156:156|192:168|232:156|264:124,1,150,4|0
332,80,73022,5,8
412,68,73206,1,0
464,132,73390,1,0
432,208,73574,2,0,B|412:244|424:280,1,75,0|10
468,348,73942,1,0
384,348,74126,6,0,B|308:320|236:336,1,150,2|12
156,332,74678,1,0
80,296,74862,2,0,B|68:336|84:372,1,75,0|2
156,332,75230,1,8
148,248,75414,6,0,B|120:168|48:140,1,150,2|0
40,224,75967,1,8
80,296,76151,1,0
148,248,76335,2,0,B|216:200|296:208,1,150,2|8
360,252,76887,1,0
356,168,77071,6,0,B|316:100|236:84,1,150,2|8
156,68,77623,1,0
84,28,77807,2,0,B|51:99|84:174,1,150,2|8
164,152,78359,2,0,B|196:223|163:298,1,150,2|2
92,336,78911,6,0,B|56:344|24:316,2,75,10|0|2
164,296,79464,1,0
248,312,79648,1,8
316,264,79832,1,2
364,196,80016,6,0,B|328:180|292:184,1,75,4|0
316,264,80384,1,8
396,272,80568,2,0,B|432:252|448:212|444:172|424:140,1,150,0|2
364,84,81120,1,8
288,52,81304,1,4
212,84,81488,6,0,B|180:108|140:104,1,75
20,180,81856,2,0,B|20:219|47:249,1,75,10|0
216,296,82224,2,0,B|184:320|144:316,1,75,2|0
256,192,82592,1,10
256,192,82960,6,0,B|336:196|400:148,1,150,2|8
264,72,83513,1,2
172,192,83697,2,0,B|152:268|192:336,1,150,2|8
352,272,84249,2,0,B|312:256|280:264,1,75,4|0
396,352,84617,6,0,B|436:368|468:360,1,75,2|10
456,232,84985,1,0
368,136,85169,2,0,B|308:80|232:80,1,150,2|8
36,192,85905,5,4
36,192,86273,1,8
232,304,86641,1,2
184,236,86826,2,0,B|156:264|148:304,1,75,8|8
276,208,87194,6,0,B|224:148|144:144,1,150,2|0
232,304,87746,2,0,B|260:336|296:344,1,75,8|8
416,224,88114,2,0,B|404:264|368:280,2,75,2|0|10
412,140,88666,1,0
356,80,88850,5,4
356,80,89218,1,8
132,64,89586,1,2
80,128,89770,1,8
160,140,89954,1,8
48,52,90138,6,0,B|12:68|0:108,1,75,2|0
212,76,90507,2,0,B|243:100|245:141,1,75,2|8
112,208,90875,2,0,B|72:216|32:200,1,75,8|0
192,216,91243,2,0,B|232:208|272:224,2,75,2|10|0
144,284,91795,5,4
144,284,92163,1,8
360,340,92531,1,2
300,280,92715,2,0,B|276:312|276:352,1,75,8|8
444,348,93083,6,0,B|444:310|420:278,1,75,2|0
276,120,93451,2,0,B|275:157|299:189,1,75,2|8
444,120,93819,2,0,B|444:157|420:189,1,75,8|0
436,36,94187,2,0,B|473:35|505:59,2,75,2|8|2
360,72,94740,5,4
360,72,95108,1,8
160,172,95476,1,2
224,120,95660,2,0,B|191:92|155:89,1,75,8|8
220,272,96028,6,0,B|256:256|272:220,1,75,2|0
48,134,96396,2,0,B|33:171|48:208,1,75,0|8
252,136,96764,2,0,B|196:80|116:80,1,150,8|2
152,188,97316,1,8
152,188,97500,1,4
