osu file format v9

[General]
AudioFilename: derivara.mp3
AudioLeadIn: 2000
PreviewTime: 61931
Countdown: 0
SampleSet: Soft
StackLeniency: 0.7
Mode: 0
LetterboxInBreaks: 0

[Editor]
DistanceSpacing: 1
BeatDivisor: 4
GridSize: 4

[Metadata]
Title:TRUST (Short Ver.)
Artist:Suzuhara Chika
Creator:DarknessAngel
Version:Easy
Source:Derivara! -deliverance of strays-
Tags:opening parasol hentai eroge galgame [Kirisame-Marisa] yia

[Difficulty]
HPDrainRate:2
CircleSize:3
OverallDifficulty:2
ApproachRate:3
SliderMultiplier:1.1
SliderTickRate:1

[Events]
//Background and Video events
0,0,"BG.jpg"
Video,0,"Vedio.avi"
//Break Periods
//Storyboard Layer 0 (Background)
//Storyboard Layer 1 (Fail)
//Storyboard Layer 2 (Pass)
//Storyboard Layer 3 (Foreground)
//Storyboard Sound Samples
//Background Colour Transformations
3,100,163,162,255

[TimingPoints]
507,368.098159509202,4,2,1,60,1,0
12286,-100,4,2,1,70,0,0
47255,-100,4,2,1,55,0,0
47623,-100,4,2,1,60,0,0
62347,-100,4,2,2,80,0,1
69341,-100,4,2,1,80,0,1
72654,-100,4,2,2,80,0,0
74494,-100,4,2,1,80,0,1
77807,-100,4,2,2,80,0,1
80384,-100,4,2,1,80,0,1
82960,-100,4,2,2,80,0,1
84065,-100,4,2,1,80,0,1
85169,-100,4,1,1,50,0,1
85905,-100,4,2,1,70,0,0

[Colours]
Combo1 : 145,236,232
Combo2 : 64,0,128
Combo3 : 255,255,162
Combo4 : 255,128,192

[HitObjects]
444,104,507,2,0,B|400:140|344:152|284:140|240:104,1,220,2|0
84,52,1795,2,0,B|39:64|13:102|20:153|58:182,1,165,2|0
148,244,2715,2,0,B|120:296|72:320,2,110,2|0|2
364,284,4187,6,0,B|420:272|456:224|464:164,1,165,0|2
408,72,5108,2,0,B|364:32|304:28|256:68,1,165,2|2
80,196,6396,6,0,B|64:248|24:292,2,110,2|0|2
224,116,7684,2,0,B|192:64|136:40|80:40|28:64|0:124,1,275,2|2
164,272,9341,5,2
256,332,9709,1,0
348,272,10077,1,2
408,120,10629,2,0,B|360:148|304:152|248:136|200:96|180:40,1,275,4|8
52,220,12286,5,4
108,124,12654,1,0
164,220,13022,1,8
308,292,13574,2,0,B|368:304|420:288|452:236,1,165,2|2
460,128,14494,1,8
256,48,15230,5,2
156,96,15599,2,0,B|108:128|52:128,1,110,2|8
44,292,16519,2,0,B|80:340|128:368|184:368|240:344|272:284,1,275,2|8
368,88,18175,6,0,B|324:52|268:48,2,110,4|0|8
468,220,19464,1,2
376,280,19832,2,0,B|320:296|264:280|228:232,1,165,2|8
92,60,21120,6,0,B|52:100|52:160,1,110,2|2
96,260,21856,1,8
256,192,22408,12,4,24065
352,72,24801,6,0,B|312:32|256:16|196:28|156:76,1,220,8|0
156,296,26273,2,0,B|196:344|256:356|312:340|352:300,1,220,8|0
167,179,27746,6,0,B|115:159|55:175|23:227|35:299,2,220,8|0|8
392,180,29954,6,0,B|412:128|396:68|344:36|272:48,2,220,0|8|0
184,112,32163,1,8
60,296,32899,5,4
276,340,33635,2,0,B|336:332|374:288|378:229,2,165,8|4|2
176,292,35108,1,8
112,200,35476,1,2
220,192,35844,5,4
396,324,36580,2,0,B|448:292|468:236|456:176|408:136,1,220,8|0
204,56,38053,1,8
312,72,38421,1,0
244,160,38789,6,0,B|200:192|144:200|88:176|52:124,2,220,0|8|0
440,56,40997,1,8
384,268,41733,6,0,B|344:304|288:324|232:320|176:300,1,220,0|8
64,112,43206,2,0,B|104:76|160:56|216:60|272:80,1,220,0|8
384,268,44678,6,0,B|404:212|408:156|388:100|352:60,1,220,4|8
292,152,45783,2,0,B|248:188|192:196,1,110,2|0
84,184,46519,2,0,B|56:236|64:296,1,110,2|8
168,320,47255,1,8
276,340,47623,6,0,B|336:348|384:332|424:280|428:220,1,220,4|8
228,128,49095,2,0,B|172:140|116:132|68:100|48:40,1,220,0|8
268,40,50568,6,0,B|324:28|380:36|428:68|448:128,1,220,0|8
328,312,52040,1,0
108,284,52776,1,8
244,112,53513,6,0,B|204:76|148:52|88:52|36:72,1,220,0|8
204,216,54985,2,0,B|244:252|300:276|360:276|412:256,1,220,0|8
464,44,56457,6,0,B|428:88|372:104|312:88,1,165,4|4
204,76,57378,2,0,B|148:60|96:84,1,110,2|2
44,180,58114,2,0,B|44:240|84:280,1,110,0|4
244,244,59034,1,8
256,192,59402,12,0,61243
424,96,62347,6,0,B|376:64|320:52|264:64|224:112,1,220,4|2
144,184,63451,1,8
52,248,63819,2,0,B|72:300|132:328|196:312|232:260,1,220,0|2
296,172,64924,1,8
376,96,65292,6,0,B|344:48|288:24|228:24|176:56,2,220,2|2|0
368,204,67132,1,8
284,276,67500,2,0,B|236:312|180:308,1,110,0|8
88,252,68237,6,0,B|52:204|48:148|72:96|132:68,1,220,2|0
200,156,69341,2,0,B|256:180|312:172|360:128|368:68,1,220,8|8
476,76,70445,2,0,B|468:132|436:180,1,110,2|8
360,256,71181,6,0,B|384:312|436:332,2,110,2|8|0
328,148,72286,1,8
228,100,72654,2,0,B|180:72|120:72|68:108|60:176,1,220,2|0
112,272,73758,1,8
208,324,74126,6,0,B|264:344|316:324,1,110,2|12
400,256,74862,1,2
392,148,75230,2,0,B|360:96|312:72|252:72|204:116,2,220,8|8|8
288,188,77071,6,0,B|248:228|192:236,1,110,2|8
108,164,77807,2,0,B|44:156|-4:200|-4:268|44:312,1,220,2|2
152,324,78911,1,8
260,308,79280,2,0,B|316:288|368:304,1,110,0|8
452,232,80016,5,4
408,132,80384,2,0,B|376:80|324:56|264:56|216:92,1,220,8|8
128,156,81488,2,0,B|104:208|48:232,2,110,2|8|2
236,176,82592,1,8
316,252,82960,6,0,B|360:292|420:296|468:260|472:184,1,220,2|2
404,100,84065,2,0,B|356:68|300:56|240:68|200:108,1,220,8|8
144,200,85169,1,0
352,268,85905,5,4
328,160,86273,1,2
248,236,86641,1,8
408,196,87194,2,0,B|456:160|468:100|448:48,1,165,2|10
340,44,88114,2,0,B|284:64|232:48,1,110,8|0
124,76,88850,6,0,B|76:108|64:168,1,110,4|2
84,272,89586,1,8
248,300,90138,2,0,B|304:324|360:316|400:276,1,165,2|8
436,172,91059,1,8
372,84,91427,1,0
264,64,91795,6,0,B|204:48|152:68,2,110,4|0|8
144,176,93083,2,0,B|128:232|84:268|24:276,1,165,2|8
116,340,94003,1,8
224,320,94372,1,0
320,264,94740,6,0,B|284:208|224:208,2,110,4|2|8
256,192,96028,12,4,97500
