osu file format v9

[General]
AudioFilename: derivara.mp3
AudioLeadIn: 2000
PreviewTime: 61931
Countdown: 0
SampleSet: Soft
StackLeniency: 0.7
Mode: 0
LetterboxInBreaks: 0

[Editor]
DistanceSpacing: 0.8
BeatDivisor: 4
GridSize: 4

[Metadata]
Title:TRUST (Short Ver.)
Artist:Suzuhara Chika
Creator:DarknessAngel
Version:D.N.Angel
Source:Derivara! -deliverance of strays-
Tags:opening parasol hentai eroge galgame [Kirisame-Marisa] yia

[Difficulty]
HPDrainRate:7
CircleSize:3
OverallDifficulty:7
ApproachRate:8
SliderMultiplier:1.6
SliderTickRate:1

[Events]
//Background and Video events
0,0,"BG.jpg"
Video,0,"Vedio.avi"
//Break Periods
//Storyboard Layer 0 (Background)
//Storyboard Layer 1 (Fail)
//Storyboard Layer 2 (Pass)
//Storyboard Layer 3 (Foreground)
//Storyboard Sound Samples
//Background Colour Transformations
3,100,163,162,255

[TimingPoints]
507,368.098159509202,4,2,1,60,1,0
10261,-100,4,1,1,50,0,0
10629,-100,4,2,1,60,0,0
11549,-100,4,1,1,40,0,0
12286,-100,4,2,1,70,0,0
23513,-100,4,1,1,45,0,0
24065,-100,4,2,1,60,0,0
59034,-100,4,1,1,45,0,0
59402,-100,4,2,1,80,0,0
61427,-100,4,2,1,60,0,0
62347,-100,4,2,1,80,0,1
72654,-100,4,2,1,80,0,0
74494,-100,4,2,1,80,0,1
85169,-100,4,1,1,50,0,1
85905,-100,4,2,1,70,0,0

[Colours]
Combo1 : 145,236,232
Combo2 : 64,0,128
Combo3 : 255,255,162
Combo4 : 255,128,192

[HitObjects]
144,96,322,1,0
144,96,414,1,0
144,96,507,2,0,B|92:160|92:244,2,160,2|2|0
352,84,1427,2,0,B|320:56|280:52,1,80,2|0
336,248,1795,2,0,B|372:272|412:256,1,80,2|0
200,196,2163,5,2
240,300,2347,1,2
188,80,2531,1,0
96,140,2715,1,0
292,132,2899,1,2
288,20,3083,1,2
200,196,3267,1,0
404,176,3451,1,2
404,176,3819,6,0,B|432:144|444:108|444:64|424:28,1,160,2|0
292,132,4372,2,0,B|264:164|252:200|252:244|272:280,2,160,2|2|0
408,268,5292,6,0,B|396:308|364:332,1,80,2|2
104,268,5660,2,0,B|116:308|148:332,1,80,0|2
116,76,6028,2,0,B|72:64|32:76,1,80,0|2
212,176,6396,1,2
212,176,6764,6,0,B|292:196|368:160,1,160,2|0
448,60,7316,2,0,B|412:40|372:56,1,80,2|0
256,296,7684,1,2
256,296,8053,5,2
408,244,8237,1,0
284,140,8421,1,2
256,296,8605,1,2
360,176,8789,1,0
204,148,8973,1,0
92,280,9157,2,0,B|100:320|136:348,1,80,2|2
136,88,9525,6,0,B|96:68|60:80,2,80,0|2|0
360,176,10077,1,0
112,184,10261,1,0
328,84,10445,1,0
244,256,10629,6,0,B|252:296|284:324,1,80,4|0
468,120,10997,2,0,B|464:164|444:196,2,80,2|2|0
256,40,11549,1,0
216,36,11641,1,0
176,40,11733,1,0
140,60,11826,1,0
116,92,11918,2,0,B|72:160|72:244,1,160,0|4
396,292,12654,6,0,B|440:224|440:140,1,160,10|0
184,264,13206,2,0,B|212:300|256:304,1,80,2|8
260,104,13574,2,0,B|184:84|100:112,1,160,2|0
248,180,14126,5,10
212,20,14310,1,0
84,196,14494,2,0,B|64:236|72:272,1,80,2|0
428,196,14862,2,0,B|448:236|439:273,1,80,10|0
256,276,15230,1,2
256,276,15599,6,0,B|192:324,1,80,10|0
256,108,15967,2,0,B|192:60,1,80,0|2
320,208,16335,2,0,B|396:184,1,80,10|0
460,60,16703,6,0,B|384:92,1,80,0|2
80,152,17071,2,0,B|88:196|124:216,1,80,10|0
116,56,17439,1,0
36,248,17623,1,2
320,208,17807,2,0,B|308:248|280:276,1,80,10|0
36,248,18175,1,4
476,248,18543,5,10
476,248,18911,1,2
260,120,19095,2,0,B|264:168|300:192,1,80,2|8
432,104,19464,2,0,B|420:60|388:40,1,80,2|0
80,104,19832,6,0,B|92:60|124:40,1,80,2|8
392,324,20200,1,0
144,232,20384,1,2
368,232,20568,1,2
120,324,20752,1,8
256,152,20936,1,0
332,68,21120,6,0,B|256:36|176:68,2,160,2|10|0
216,325,22040,2,0,B|260:341|296:325,1,80,2|8
112,160,22408,6,0,B|78:185|63:224,1,80,4|0
400,160,22776,2,0,B|434:185|449:224,1,80,2|10
256,92,23145,2,0,B|256:172,1,80,4|0
256,204,23421,1,0
256,240,23513,1,0
264,280,23605,1,0
288,312,23697,1,0
320,336,23789,1,0
360,344,23881,1,0
400,340,23973,1,0
436,320,24065,6,0,B|484:256|480:164,1,160,4|8
412,80,24617,1,0
304,100,24801,2,0,B|316:140|352:160,2,80,0|0|8
212,40,25353,2,0,B|172:28|132:44,1,80
60,128,25721,1,0
100,232,25905,1,8
208,208,26089,6,0,B|196:168|164:144,1,80
100,232,26457,1,0
176,312,26641,1,8
284,288,26826,1,0
380,232,27010,2,0,B|436:168|444:88,1,160,0|8
340,52,27562,1,0
340,52,27654,1,0
340,52,27746,2,0,B|300:36|260:48,1,80
88,144,28114,6,0,B|128:160|168:148,1,80,8|0
116,48,28482,2,0,B|76:32|36:44,2,80,2|0|10
216,100,29034,1,2
268,200,29218,1,0
200,288,29402,2,0,B|232:316|276:312,1,80,2|10
268,200,29770,1,0
88,236,29954,6,0,B|60:268|60:308,2,80,0|0|8
256,112,30506,1,0
424,236,30691,2,0,B|452:268|452:308,2,80,0|0|8
256,112,31243,1,0
180,316,31427,2,0,B|256:344|336:316,1,160,0|8
160,60,32163,6,0,B|80:88|48:172,1,160,0|8
352,60,32715,2,0,B|432:88|464:172,1,160
352,340,33267,2,0,B|380:319|396:275,1,80,8|0
180,204,33635,2,0,B|108:236|72:316,1,160,0|8
192,96,34187,2,0,B|128:48|40:52,1,160,4|0
276,36,34740,5,10
80,144,34924,1,0
80,144,35016,1,0
80,144,35108,1,2
272,160,35292,1,2
192,96,35476,1,8
80,276,35660,5,2
80,276,35752,1,0
80,276,35844,2,0,B|156:312|236:300,1,160,4|8
332,244,36396,1,0
432,296,36580,2,0,B|408:336|372:348,1,80
332,244,36948,1,8
268,152,37132,2,0,B|228:144|188:164,2,80
380,152,37684,2,0,B|416:124|424:88,1,80,8|0
320,48,38053,6,0,B|240:36|160:64,1,160,0|8
88,148,38605,1,0
88,148,38697,1,0
88,148,38789,2,0,B|64:224|88:308,1,160,0|8
196,328,39341,1,0
280,252,39525,5,0
384,296,39709,1,0
428,192,39893,1,8
324,148,40077,1,0
212,152,40261,2,0,B|184:120|184:80,2,80,2|0|10
272,56,40813,1,2
272,56,40905,1,0
272,56,40997,2,0,B|312:36|352:40,1,80
280,252,41365,6,0,B|240:272|200:268,1,80,8|0
428,120,41733,2,0,B|464:196|448:276,2,160,0|8|0
200,72,42654,1,0
360,180,42838,1,8
180,156,43022,2,0,B|104:132|52:64,1,160
276,140,43574,2,0,B|268:220|216:288,1,160,8|0
104,292,44126,6,0,B|120:332|156:352,2,80,0|8|0
104,180,44678,2,0,B|60:180|28:208,2,80,4|0|8
184,104,45230,1,0
84,52,45414,1,0
184,104,45599,2,0,B|228:88|248:56,1,80,2|8
360,52,45967,2,0,B|432:88|468:168,1,160,2|0
252,260,46519,5,10
308,156,46703,1,2
308,156,46795,1,0
308,156,46887,1,0
140,300,47071,1,2
352,316,47255,1,10
172,180,47439,1,0
172,180,47531,1,0
172,180,47623,6,0,B|128:172|92:184,1,80,4|0
44,284,47991,2,0,B|88:292|124:280,1,80,8|0
236,276,48359,1,0
172,180,48543,1,0
248,96,48727,1,8
144,56,48911,2,0,B|64:60|8:132,1,160,0|2
236,276,49464,6,0,B|276:292|316:276,1,80,8|2
432,72,49832,2,0,B|392:56|352:72,1,80,2|0
432,268,50200,5,10
488,172,50384,1,0
376,164,50568,2,0,B|296:148|220:184,1,160,0|8
60,280,51120,2,0,B|80:320|116:336,1,80
336,256,51488,2,0,B|308:288|272:300,1,80,0|8
240,56,51856,2,0,B|160:40|84:76,1,160
288,148,52408,1,8
468,68,52592,5,2
468,68,52684,1,0
468,68,52776,2,0,B|432:44|392:48,1,80,2|0
288,148,53145,2,0,B|324:172|364:168,1,80,10|0
448,244,53513,6,0,B|384:296|296:280,1,160,0|8
192,244,54065,1,0
92,80,54249,1,2
76,272,54433,1,2
204,128,54617,1,8
16,172,54801,1,4
76,272,54985,2,0,B|52:308|12:320,2,80,2|0|8
204,128,55537,2,0,B|272:84|356:88,1,160,2|0
440,164,56089,1,8
440,164,56457,5,4
256,308,56641,1,0
400,296,56826,1,8
149,227,57010,2,0,B|120:252|112:296,1,80,4|0
400,296,57378,2,0,B|392:252|362:227,1,80,0|8
152,68,57746,1,2
152,68,58114,6,0,B|112:80|92:120,1,80,0|8
360,68,58482,2,0,B|400:80|420:120,1,80,4|0
256,192,58850,1,0
80,292,59034,1,0
112,316,59126,1,0
152,328,59218,1,0
192,328,59310,1,0
232,320,59402,6,0,B|272:312|296:272,1,80,4|0
136,88,59770,2,0,B|96:96|72:136,1,80,10|0
256,192,60138,2,0,B|336:168,1,80,2|0
448,52,60507,2,0,B|368:72,1,80,10|6
112,316,61059,1,2
304,320,61243,1,10
256,192,61427,5,0
224,168,61519,1,0
188,152,61611,1,0
148,152,61703,1,0
108,164,61795,2,0,B|72:188|68:232,1,80,0|8
168,256,62163,1,0
380,240,62347,6,0,B|436:180|444:96,1,160,4|8
336,64,62899,1,2
224,52,63083,2,0,B|184:52|152:88,2,80,0|0|8
256,160,63635,2,0,B|200:216|108:224,1,160,2|0
72,120,64187,1,8
276,296,64372,5,0
276,296,64464,1,0
276,296,64556,2,0,B|348:340|428:336,1,160,2|8
444,224,65108,1,0
372,136,65292,2,0,B|312:84|224:80,1,160,2|8
112,84,65844,1,0
104,196,66028,2,0,B|84:272|8:320,1,160,2|8
192,256,66580,2,0,B|268:232|352:252,1,160,2|0
244,332,67132,6,0,B|208:352|168:344,1,80,8|2
344,136,67500,2,0,B|384:116|420:124,1,80,2|0
168,136,67868,2,0,B|128:116|92:124,1,80,8|0
180,244,68237,6,0,B|256:276|336:240,1,160,2|8
444,256,68789,2,0,B|432:300|404:324,2,80,2|0|2
396,156,69341,1,8
312,80,69525,2,0,B|236:48|156:72,1,160,2|0
88,160,70077,1,8
176,228,70261,1,0
104,312,70445,6,0,B|72:340|28:332,2,80,2|0|8
176,228,70997,1,0
276,176,71181,2,0,B|352:144|432:152,1,160,2|8
396,288,71733,1,0
396,288,71826,1,0
396,288,71918,2,0,B|320:320|240:312,1,160,2|8
116,96,72470,2,0,B|192:64|272:72,1,160,4|0
376,116,73022,5,8
288,188,73206,1,0
252,204,73298,1,0
212,212,73390,1,0
172,208,73482,1,0
136,188,73574,1,0
96,188,73666,1,0
68,216,73758,1,8
68,256,73850,1,0
92,288,73942,1,0
132,292,74034,1,0
172,284,74126,6,0,B|216:280|248:300,1,80,2|0
356,328,74494,2,0,B|396:312|416:276,1,80,12|0
368,176,74862,1,2
428,80,75046,2,0,B|392:60|352:64,1,80,2|8
264,136,75414,2,0,B|184:136|112:92,1,160,2|0
252,280,75967,6,0,B|296:272|320:244,1,80,8|0
164,224,76335,2,0,B|88:256|64:344,1,160,2|8
348,160,77071,2,0,B|424:128|448:40,1,160,2|8
447,42,77623,1,0
267,212,77807,2,0,B|320:276|400:296,1,160,2|8
220,104,78359,2,0,B|148:68|64:76,1,160,2|0
128,168,78911,5,8
124,280,79095,1,2
124,280,79187,1,0
124,280,79280,2,0,B|80:276|52:248,1,80,0|2
128,168,79648,1,8
224,228,79832,1,0
328,272,80016,6,0,B|308:312|272:328,1,80,4|0
224,228,80384,1,8
312,160,80568,1,0
392,84,80752,2,0,B|360:56|320:52,1,80
312,160,81120,5,10
420,196,81304,2,0,B|481:142|492:58,1,160,4|0
180,72,81856,2,0,B|184:116|212:144,1,80,10|0
424,292,82224,2,0,B|408:332|372:352,1,80,2|0
88,292,82592,2,0,B|104:332|140:352,1,80,10|0
180,72,82960,5,4
88,140,83145,1,2
424,140,83329,1,8
332,72,83513,1,2
316,256,83697,2,0,B|392:284|472:240,1,160,2|8
200,192,84249,2,0,B|172:268|216:348,1,160,4|0
332,72,84801,2,0,B|320:112|288:136,1,80,10|0
92,72,85169,2,0,B|56:48,4,40
92,72,85905,6,0,B|156:120,1,80,4|0
416,268,86273,2,0,B|368:332,1,80,8|0
96,268,86641,1,2
192,328,86826,1,8
396,68,87010,1,8
316,148,87194,2,0,B|348:180|388:176,1,80,2|0
88,100,87562,5,2
224,228,87746,1,8
256,44,87930,1,0
324,240,88114,1,2
124,196,88298,1,8
256,44,88482,1,8
432,136,88666,5,0
432,136,88758,1,0
432,136,88850,2,0,B|456:96|452:60,1,80,4|0
240,140,89218,1,8
400,300,89402,1,0
400,300,89494,1,0
400,300,89586,2,0,B|440:320|480:312,1,80,2|8
224,248,89954,1,8
224,248,90138,2,0,B|148:224|64:248,1,160,2|2
240,140,90691,5,8
428,172,90875,1,0
300,316,91059,1,2
336,128,91243,1,8
156,188,91427,1,8
300,316,91611,1,0
148,68,91795,6,0,B|72:88|32:172,1,160,4|8
32,170,92531,1,2
276,224,92715,1,8
188,296,92899,1,8
296,40,93083,1,2
296,40,93451,5,2
88,96,93635,1,8
392,96,93819,1,0
184,40,94003,1,2
276,224,94187,2,0,B|316:240|356:228,1,80,8|8
80,228,94556,5,0
80,228,94648,1,0
80,228,94740,2,0,B|92:272|124:292,1,80,4|0
256,116,95108,1,8
256,116,95476,2,0,B|216:104|176:124,1,80,2|8
304,312,95844,1,8
304,312,96028,2,0,B|380:344|460:324,1,160,2|0
168,192,96580,6,0,B|128:200|100:232,1,80,8|2
344,192,96948,1,0
344,192,97040,1,0
344,192,97132,2,0,B|384:184|412:152,1,80,8|8
128,68,97500,1,4
