osu file format v9

[General]
AudioFilename: IIDX .mp3
AudioLeadIn: 0
PreviewTime: 34620
Countdown: 0
SampleSet: Normal
StackLeniency: 0.7
Mode: 0
LetterboxInBreaks: 1

[Editor]
Bookmarks: 62187,70295
DistanceSpacing: 0.8
BeatDivisor: 4
GridSize: 4

[Metadata]
Title:Suwako
Artist:Suzaku VS Genbu VS ZUN
Creator:Rigeru
Version:LunAnother
Source:beatmania IIDX
Tags:touhou iidx yoshitaka wac himiko

[Difficulty]
HPDrainRate:8
CircleSize:5
OverallDifficulty:8
ApproachRate:8
SliderMultiplier:2
SliderTickRate:1

[Events]
//Background and Video events
0,0,"suwako.png"
//Break Periods
//Storyboard Layer 0 (Background)
//Storyboard Layer 1 (Fail)
//Storyboard Layer 2 (Pass)
//Storyboard Layer 3 (Foreground)
//Storyboard Sound Samples
//Background Colour Transformations
3,100,163,162,255

[TimingPoints]
5406,324.324324324324,4,1,0,100,1,0
8568,-200,4,1,0,60,0,0
9378,-100,4,1,0,60,0,0
80243,-200,4,1,0,60,0,0
86081,-100,4,1,0,60,0,0
130838,-200,4,1,0,60,0,0

[Colours]
Combo1 : 244,155,218
Combo2 : 15,240,145

[HitObjects]
256,192,5405,1,0
256,192,6054,1,0
336,120,6703,1,0
256,56,6865,1,0
176,120,7027,1,0
256,192,7189,1,0
256,192,7270,1,0
256,192,7351,1,0
256,56,8649,6,0,B|256:264,1,200
48,40,9784,1,0
144,328,10270,1,0
304,72,10757,1,0
144,328,11243,1,0
200,52,12541,6,0,B|200:100,6,50
200,124,13108,1,0
200,160,13189,1,0
200,196,13270,1,0
200,232,13351,1,0
200,268,13433,1,0
200,304,13514,1,0
200,340,13595,1,0
348,340,13838,6,0,B|392:300,3,50
404,284,14162,1,0
420,256,14243,1,0
428,228,14324,1,0
424,200,14406,1,0
416,172,14487,1,0
392,152,14568,1,0
364,144,14649,1,0
336,152,14730,6,0,B|284:148,3,50
272,176,15054,1,0
252,200,15135,1,0
228,216,15216,1,0
200,228,15297,1,0
172,232,15378,1,0
140,232,15460,1,0
112,228,15541,1,0
84,212,15622,1,0
60,192,15703,1,0
48,164,15784,1,0
44,136,15865,1,0
56,108,15946,1,0
76,84,16027,1,0
104,72,16108,2,0,B|160:100,3,50
160,124,16433,6,0,B|264:40|216:352,1,300
292,284,17081,2,0,B|136:428|160:96,1,300
240,88,17730,2,0,B|320:60|328:192|420:168,1,200
228,256,18378,1,0
420,308,18703,5,0
368,224,18865,1,0
268,216,19027,1,0
284,188,19108,1,0
292,160,19189,1,0
288,132,19270,1,0
280,104,19351,1,0
256,84,19433,1,0
228,76,19514,1,0
200,84,19595,2,0,B|148:80,3,50
148,108,19919,2,0,B|100:140,3,50
104,164,20243,5,0
104,192,20324,1,0
104,220,20405,1,0
104,252,20487,1,0
132,248,20568,1,0
152,268,20649,1,0
172,288,20730,1,0
192,308,20811,1,0
220,300,20892,5,0
248,300,20973,1,0
276,300,21054,1,0
304,300,21135,1,0
320,328,21216,1,0
348,328,21297,1,0
376,328,21378,1,0
408,328,21460,1,0
428,308,21541,2,0,B|384:240,3,50
424,248,21865,2,0,B|468:180,3,50
432,184,22189,2,0,B|388:116,3,50
376,140,22514,1,0
352,120,22595,1,0
328,100,22676,1,0
304,80,22757,1,0
292,108,22838,5,0
280,136,22919,1,0
268,164,23000,1,0
256,192,23081,1,0
244,220,23162,1,0
232,248,23243,1,0
220,276,23324,1,0
208,304,23405,1,0
176,308,23487,2,0,B|132:336,3,50
148,284,23811,2,0,B|88:256,3,50
196,224,24216,6,0,B|176:124,1,100
248,196,24541,2,0,B|272:92,1,100
304,192,24865,2,0,B|360:104,1,100
356,208,25189,2,0,B|468:172,1,100
380,118,25514,6,0,B|400:178|344:218,1,100
419,282,25838,2,0,B|403:226|351:206,1,100
256,208,26162,2,0,B|236:148|292:108,1,100
217,44,26487,2,0,B|233:100|285:120,1,100
340,200,26811,6,0,B|340:316,1,100
428,256,27135,2,0,B|292:256,1,100
332,156,27460,2,0,B|296:180|296:180|212:152,1,100
172,232,27784,1,0
260,280,27946,1,0
172,332,28108,6,0,B|172:204,1,100
264,192,28433,1,0
184,136,28595,1,0
272,84,28757,2,0,B|320:24|320:24|364:8,1,100
272,84,29081,2,0,B|352:72|352:72|384:96,1,100
392,180,29405,6,0,B|412:248|336:280,1,100
264,296,29730,2,0,B|244:228|320:196,1,100
197,180,30054,2,0,B|177:248|253:280,1,100
325,296,30378,2,0,B|345:228|269:196,1,100
360,132,30703,5,0
344,52,30865,1,0
272,16,31027,1,0
196,44,31189,1,0
164,116,31351,1,0
156,196,31514,1,0
176,272,31676,1,0
232,328,31838,1,0
312,336,32000,6,0,B|312:216,1,100
300,156,32324,2,0,B|300:288,1,100
240,304,32649,2,0,B|332:216,1,100
380,196,32973,2,0,B|288:284,1,100
216,220,33297,5,0
200,120,33460,1,0
120,180,33622,1,0
140,276,33784,1,0
140,276,33865,1,0
140,276,33946,1,0
228,324,34108,1,0
228,324,34189,1,0
228,324,34270,1,0
228,324,34433,1,0
296,252,34595,5,0
396,252,34757,1,0
396,152,34919,1,0
296,152,35081,1,0
196,152,35243,1,0
196,52,35405,1,0
96,52,35568,1,0
96,152,35730,1,0
196,152,35892,5,0
296,152,36054,1,0
296,252,36216,1,0
196,252,36378,1,0
196,152,36541,1,0
196,152,36703,1,0
296,252,36865,1,0
296,252,37027,1,0
196,252,37189,5,0
296,152,37351,1,0
296,252,37514,1,0
196,152,37676,1,0
296,152,37838,5,0
196,152,38000,1,0
196,252,38162,1,0
296,252,38324,1,0
240,336,38487,5,0
156,212,38649,1,0
240,88,38811,1,0
328,208,38973,1,0
428,208,39135,1,0
328,208,39297,1,0
328,208,39460,2,0,B|328:260,3,50
328,258,39784,5,0
328,258,39865,1,0
328,258,39946,1,0
228,260,40108,1,0
128,260,40270,1,0
128,260,40351,1,0
128,160,40514,1,0
128,160,40595,1,0
228,160,40757,1,0
228,160,40838,1,0
228,160,40919,1,0
228,60,41081,5,0
228,160,41243,1,0
228,160,41324,1,0
328,160,41487,1,0
328,160,41568,1,0
328,260,41730,1,0
328,260,41811,1,0
328,260,41892,1,0
228,260,42054,1,0
128,260,42216,1,0
128,260,42297,1,0
128,160,42460,1,0
128,160,42541,1,0
128,60,42703,5,0
128,60,42784,1,0
128,60,42865,1,0
228,60,43027,1,0
328,60,43189,1,0
328,60,43270,1,0
328,160,43433,1,0
328,160,43514,1,0
228,160,43676,1,0
228,160,43757,1,0
228,160,43838,1,0
228,260,44000,5,0
328,260,44162,1,0
328,260,44243,1,0
276,344,44405,1,0
276,344,44487,1,0
376,344,44649,1,0
428,260,44811,2,0,B|484:260,4,50
428,260,45216,2,0,B|428:204,4,50
428,160,45622,1,0
352,48,45784,1,0
272,160,45946,1,0
352,272,46108,1,0
224,272,46270,5,0
224,144,46433,1,0
352,144,46595,1,0
352,272,46757,1,0
224,272,46919,5,0
192,240,47081,1,0
160,208,47243,1,0
128,176,47405,1,0
208,128,47568,5,0
336,80,47730,1,0
384,208,47892,1,0
256,256,48054,1,0
256,256,48216,5,0
272,80,48378,1,0
368,240,48541,1,0
208,160,48703,1,0
384,128,48865,1,0
256,256,49027,5,0
256,176,49189,1,0
336,176,49351,1,0
336,256,49514,2,0,B|352:320,3,50
380,304,49838,6,0,B|428:336,3,50
440,308,50162,2,0,B|496:312,3,50
489,281,50487,1,0
489,253,50568,1,0
489,225,50649,1,0
489,197,50730,1,0
489,169,50811,1,0
489,141,50892,1,0
489,113,50973,1,0
489,85,51054,1,0
488,56,51135,2,0,B|452:16,3,50
424,24,51460,2,0,B|396:24,6,25
424,24,51784,1,0
112,204,52757,5,0
112,204,53081,1,0
256,200,54054,1,0
256,260,54378,1,0
348,260,54865,1,0
428,216,55351,1,0
428,156,55676,1,0
428,156,56324,5,0
368,156,56649,1,0
308,156,56973,1,0
308,156,57622,1,0
308,216,57946,1,0
308,276,58270,1,0
308,276,58757,1,0
228,116,59243,1,0
228,116,59568,1,0
348,116,60216,5,0
288,116,60541,1,0
288,176,60865,1,0
348,176,61189,1,0
348,116,61514,1,0
156,76,62162,6,0,B|104:176,1,100
212,160,62487,1,0
268,244,62649,1,0
324,160,62811,1,0
268,76,62973,1,0
212,160,63135,1,0
156,244,63297,1,0
104,160,63460,6,0,B|56:56,1,100
148,120,63784,2,0,B|224:148|224:148|216:208,1,100
300,104,64108,1,0
340,196,64270,1,0
260,256,64433,1,0
220,164,64595,1,0
300,104,64757,6,0,B|368:104|368:104|420:116,1,100
312,160,65081,2,0,B|380:180|380:180|424:212,1,100
304,216,65405,2,0,B|364:264|364:264|384:312,1,100
272,300,65730,1,0
176,276,65892,1,0
120,192,66054,5,0
204,68,66216,1,0
288,192,66378,1,0
204,316,66541,1,0
120,192,66703,1,0
288,192,66865,1,0
120,192,67027,1,0
288,192,67189,1,0
360,124,67351,5,0
404,148,67514,1,0
448,172,67676,1,0
420,224,67838,5,0
364,248,68000,1,0
308,272,68162,1,0
308,204,68324,5,0
308,132,68487,1,0
308,64,68649,1,0
228,64,68811,5,0
148,64,68973,1,0
68,64,69135,1,0
64,164,69297,5,0
164,164,69460,1,0
60,272,69622,1,0
164,272,69784,1,0
248,220,69946,1,0
248,220,70595,5,0
248,220,70919,1,0
248,220,71243,1,0
332,100,71892,5,0
396,236,72054,1,0
248,220,72216,1,0
428,132,72541,5,0
424,160,72622,1,0
412,188,72703,1,0
392,208,72784,1,0
368,224,72865,1,0
328,316,73027,1,0
324,288,73108,1,0
312,260,73189,1,0
292,240,73270,1,0
268,224,73351,1,0
336,148,73514,5,0
332,120,73595,1,0
320,92,73676,1,0
300,72,73757,1,0
276,56,73838,1,0
248,52,73919,1,0
220,60,74000,1,0
200,84,74081,1,0
188,112,74162,1,0
180,140,74243,1,0
180,168,74324,1,0
84,144,74487,5,0
64,164,74568,1,0
60,192,74649,1,0
64,220,74730,1,0
80,248,74811,1,0
168,200,74973,1,0
188,220,75054,1,0
192,248,75135,1,0
188,276,75216,1,0
172,304,75297,1,0
268,328,75460,5,0
288,304,75541,1,0
304,280,75622,1,0
316,252,75703,1,0
324,224,75784,1,0
328,196,75865,1,0
328,168,75946,1,0
324,140,76027,1,0
312,112,76108,1,0
292,88,76189,1,0
264,76,76270,1,0
180,128,76433,6,0,B|136:88,4,50
292,268,76919,2,0,B|332:312,4,50
116,296,77405,5,0
140,276,77487,1,0
164,256,77568,1,0
188,236,77649,1,0
212,216,77730,1,0
236,196,77811,1,0
260,176,77892,1,0
284,156,77973,1,0
308,136,78054,1,0
332,116,78135,1,0
356,96,78216,1,0
392,188,78378,6,0,B|352:228,1,50
392,188,78541,2,0,B|392:240,1,50
392,188,78703,1,0
252,132,78865,2,0,B|212:92,1,50
252,132,79027,2,0,B|200:132,1,50
252,132,79189,1,0
304,216,79351,6,0,B|344:188,3,50
360,160,79676,1,0
368,132,79757,1,0
368,104,79838,1,0
360,76,79919,1,0
344,52,80000,1,0
320,36,80081,1,0
292,28,80162,1,0
264,28,80243,2,0,B|300:136|208:168|68:116|292:256|100:272,1,325
132,328,81622,6,0,B|248:348|276:272,1,150
268,260,82270,1,0
268,168,82757,1,0
272,140,82919,2,0,B|488:8|360:164|360:164|432:188|432:188|448:156|404:248,1,400
328,288,84703,5,0
312,312,84865,2,0,B|232:344|208:240,1,150
236,228,85514,2,0,B|204:148|308:124,1,150
324,216,86162,6,0,B|364:260,7,50
364,276,86811,5,0
384,300,86892,1,0
412,308,86973,1,0
440,304,87054,1,0
468,292,87135,1,0
484,268,87216,1,0
492,240,87297,1,0
492,212,87378,1,0
484,184,87460,1,0
476,156,87541,1,0
464,128,87622,1,0
444,104,87703,1,0
420,84,87784,1,0
392,72,87865,1,0
364,68,87946,1,0
336,72,88027,5,0
308,80,88108,1,0
284,100,88189,1,0
268,124,88270,1,0
256,152,88351,1,0
248,180,88433,1,0
244,208,88514,1,0
240,236,88595,1,0
232,264,88676,1,0
216,288,88757,1,0
192,304,88838,1,0
164,312,88919,1,0
136,316,89000,1,0
108,308,89081,1,0
80,296,89162,1,0
60,272,89243,1,0
48,244,89324,5,0
44,216,89405,1,0
44,184,89487,1,0
48,156,89568,1,0
60,128,89649,1,0
80,104,89730,1,0
104,84,89811,1,0
132,72,89892,1,0
160,68,89973,1,0
188,72,90054,1,0
216,80,90135,1,0
240,96,90216,1,0
256,120,90297,1,0
268,148,90378,1,0
276,176,90460,1,0
280,204,90541,1,0
284,232,90622,5,0
288,260,90703,1,0
296,288,90784,1,0
308,316,90865,1,0
332,336,90946,1,0
360,340,91027,1,0
388,336,91108,1,0
416,324,91189,1,0
432,300,91270,1,0
444,272,91351,1,0
448,244,91433,1,0
448,216,91514,1,0
444,188,91595,1,0
436,160,91676,1,0
420,132,91757,1,0
404,108,91838,1,0
376,100,91919,5,0
348,108,92000,1,0
328,132,92081,1,0
316,160,92162,1,0
304,188,92243,1,0
292,216,92324,1,0
280,244,92405,1,0
268,272,92487,1,0
256,300,92568,1,0
240,324,92649,1,0
216,340,92730,1,0
188,324,92811,1,0
172,300,92892,1,0
160,272,92973,1,0
148,244,93054,1,0
136,216,93135,1,0
124,188,93216,5,0
112,160,93297,1,0
100,132,93378,1,0
92,104,93460,1,0
96,76,93541,1,0
116,52,93622,1,0
144,44,93703,1,0
172,56,93784,1,0
196,76,93865,1,0
216,100,93946,1,0
232,124,94027,1,0
248,148,94108,1,0
264,172,94189,1,0
280,196,94270,1,0
296,220,94351,1,0
312,244,94433,1,0
328,272,94514,5,0
344,300,94595,1,0
360,328,94676,1,0
384,348,94757,1,0
412,348,94838,1,0
440,336,94919,1,0
452,308,95000,1,0
452,280,95081,1,0
452,252,95162,1,0
452,224,95243,1,0
452,196,95324,1,0
452,168,95405,1,0
452,136,95487,1,0
452,108,95568,1,0
452,80,95649,1,0
452,52,95730,1,0
428,36,95811,5,0
400,40,95892,1,0
380,60,95973,1,0
364,84,96054,1,0
348,108,96135,1,0
332,136,96216,1,0
316,160,96297,1,0
300,184,96378,2,0,B|256:228,5,50
236,208,96865,2,0,B|236:176,12,25
236,208,97514,6,0,B|176:208,2,50
184,124,97838,2,0,B|240:96,3,50
252,80,98162,2,0,B|312:80,3,50
320,104,98487,2,0,B|368:136,3,50
360,160,98811,2,0,B|368:224,3,50
348,236,99135,2,0,B|320:280,3,50
292,280,99460,2,0,B|236:304,3,50
216,292,99784,2,0,B|156:280,3,50
152,256,100108,2,0,B|116:216,3,50
128,192,100433,5,0
148,172,100514,1,0
168,152,100595,1,0
188,132,100676,1,0
208,112,100757,2,0,B|256:96,3,50
276,120,101081,1,0
288,148,101162,1,0
300,176,101243,1,0
312,204,101324,1,0
324,232,101405,2,0,B|380:276,3,50
388,244,101730,5,0
416,236,101811,1,0
440,220,101892,1,0
456,196,101973,1,0
468,168,102054,1,0
472,140,102135,1,0
472,112,102216,1,0
468,84,102297,1,0
456,56,102378,1,0
436,36,102460,1,0
408,32,102541,1,0
380,40,102622,1,0
356,60,102703,1,0
340,88,102784,1,0
332,116,102865,1,0
332,144,102946,1,0
328,172,103027,6,0,B|264:204,3,50
260,212,103351,2,0,B|212:164,3,50
208,152,103676,2,0,B|144:184,3,50
136,192,104000,2,0,B|116:248,3,50
124,268,104324,1,0
132,296,104405,1,0
152,320,104487,1,0
180,332,104568,1,0
208,340,104649,1,0
236,344,104730,1,0
264,344,104811,1,0
292,344,104892,1,0
324,344,104973,2,0,B|384:336,3,50
380,308,105297,2,0,B|436:264,3,50
412,248,105622,6,0,B|440:172,3,50
452,180,105946,2,0,B|440:120,3,50
432,104,106270,1,0
408,88,106351,1,0
376,88,106433,1,0
348,100,106514,1,0
328,124,106595,1,0
316,152,106676,1,0
308,180,106757,1,0
304,208,106838,1,0
300,240,106919,2,0,B|300:264|300:264|300:304|300:304|300:348|300:348,1,100
300,340,107568,5,0
300,340,107892,1,0
196,280,108216,5,0
168,268,108297,1,0
144,248,108378,1,0
124,224,108460,1,0
112,196,108541,1,0
108,168,108622,1,0
108,140,108703,1,0
116,112,108784,1,0
136,88,108865,1,0
160,72,108946,1,0
188,64,109027,1,0
216,60,109108,1,0
244,68,109189,1,0
272,80,109270,1,0
296,96,109351,1,0
316,116,109433,1,0
332,140,109514,5,0
348,164,109595,1,0
360,192,109676,1,0
364,220,109757,1,0
364,248,109838,1,0
360,276,109919,1,0
348,304,110000,1,0
332,328,110081,1,0
308,344,110162,1,0
280,352,110243,1,0
252,352,110324,1,0
224,344,110405,1,0
196,328,110487,1,0
172,308,110568,1,0
156,284,110649,1,0
148,256,110730,1,0
144,228,110811,5,0
144,200,110892,1,0
148,172,110973,1,0
156,144,111054,1,0
168,116,111135,1,0
188,92,111216,1,0
216,76,111297,1,0
244,68,111378,1,0
272,64,111460,1,0
300,64,111541,1,0
328,72,111622,1,0
352,92,111703,1,0
368,116,111784,1,0
376,144,111865,1,0
380,172,111946,1,0
380,200,112027,1,0
376,228,112108,5,0
368,256,112189,1,0
352,280,112270,1,0
332,300,112351,1,0
308,316,112433,1,0
280,320,112514,1,0
252,312,112595,1,0
228,292,112676,1,0
212,264,112757,1,0
200,236,112838,1,0
196,208,112919,1,0
196,180,113000,1,0
204,152,113081,1,0
220,124,113162,1,0
244,104,113243,1,0
272,96,113324,1,0
300,100,113405,6,0,B|376:152,8,50
344,144,114216,2,0,B|344:180,2,25
400,72,114541,2,0,B|400:36,2,25
400,72,114703,2,0,B|340:72,8,50
448,160,115514,2,0,B|448:196,2,25
376,292,115838,6,0,B|340:292,2,25
400,276,116000,1,0
424,256,116081,1,0
440,232,116162,1,0
452,204,116243,1,0
452,176,116324,1,0
452,148,116405,1,0
440,120,116487,1,0
420,96,116568,1,0
392,84,116649,1,0
364,88,116730,1,0
336,100,116811,1,0
316,124,116892,1,0
304,152,116973,1,0
296,180,117054,1,0
292,208,117135,1,0
288,236,117216,1,0
280,264,117297,6,0,B|248:316,3,50
228,288,117622,2,0,B|152:280,3,50
160,256,117946,2,0,B|120:256,14,25
160,224,118595,5,0
160,164,118757,1,0
160,104,118919,1,0
216,128,119081,5,0
276,128,119243,1,0
336,128,119405,1,0
320,184,119568,5,0
356,232,119730,1,0
356,292,119892,5,0
296,292,120054,1,0
236,292,120216,1,0
260,236,120378,5,0
260,176,120541,1,0
260,116,120703,1,0
204,140,120865,5,0
144,140,121027,1,0
168,196,121189,6,0,B|168:296,1,100
120,336,121514,1,0
180,336,121676,2,0,B|232:368|308:320,1,100
308,284,122000,1,0
368,284,122162,2,0,B|404:236|352:160,1,100
412,144,122487,5,0
392,88,122649,1,0
332,80,122811,2,0,B|284:44|208:96,1,100
264,132,123135,2,0,B|212:140|200:228,1,100
260,224,123460,2,0,B|228:284|292:328,1,100
328,292,123784,6,0,B|432:236,1,100
356,240,124108,2,0,B|412:148,1,100
352,180,124433,2,0,B|348:72,1,100
316,132,124757,2,0,B|240:60,1,100
248,124,125081,6,0,B|268:196|268:196|228:240,1,100
204,180,125405,2,0,B|188:252|188:252|132:268,1,100
140,204,125730,2,0,B|88:264|88:264|60:260,1,100
72,200,126054,2,0,B|0:204|0:204|-12:176,1,100
32,140,126378,1,0
80,104,126541,1,0
128,68,126703,1,0
176,32,126865,1,0
184,92,127027,5,0
228,136,127189,1,0
272,176,127351,1,0
316,216,127514,1,0
360,256,127676,1,0
360,256,128324,1,0
360,256,128973,1,0
152,136,129622,6,0,B|172:84,3,50
152,136,129946,2,0,B|212:160,3,50
152,136,130270,2,0,B|124:208,3,50
152,136,130595,2,0,B|104:112,3,50
152,136,130919,6,0,B|176:200|176:200|252:224|252:224|108:220|252:304,1,300
