osu file format v9

[General]
AudioFilename: Himiko.mp3
AudioLeadIn: 0
PreviewTime: -1
Countdown: 1
SampleSet: Normal
StackLeniency: 0.3
Mode: 0
LetterboxInBreaks: 1

[Editor]
DistanceSpacing: 0.6
BeatDivisor: 4
GridSize: 8

[Metadata]
Title:Himiko
Artist:Suzaku VS Genbu
Creator:NatsumeRin
Version:Deep Dark Fantasy
Source:IIDX 16 EMPRESS
Tags:ha haha hahaha hahahaha

[Difficulty]
HPDrainRate:6
CircleSize:4
OverallDifficulty:7
ApproachRate:8
SliderMultiplier:1.6
SliderTickRate:1

[Events]
//Background and Video events
0,0,"BG.jpg"
//Break Periods
2,46279,55708
//Storyboard Layer 0 (Background)
//Storyboard Layer 1 (Fail)
//Storyboard Layer 2 (Pass)
//Storyboard Layer 3 (Foreground)
//Storyboard Sound Samples
//Background Colour Transformations
3,100,163,162,255

[TimingPoints]
350,324.324324324324,4,1,1,70,1,0
1647,-100,4,2,1,70,0,0
1809,-100,4,2,0,70,0,0
1971,-100,4,2,1,70,0,0
2133,-100,4,2,0,70,0,0
2295,-100,4,2,1,70,0,0
2458,-100,4,2,0,70,0,0
2620,-200,4,2,1,70,0,0
2944,-200,4,2,1,6,0,0
4241,-200,4,1,1,60,0,0
4728,-100,4,2,1,60,0,0
5539,-100,4,2,1,5,0,0
6025,-100,4,1,1,60,0,0
7322,-100,4,2,1,55,0,0
7485,-100,4,2,1,60,0,0
7809,-100,4,2,1,65,0,0
8133,-100,4,2,2,70,0,0
17214,-66.6666666666667,4,1,2,90,0,0
17377,-66.6666666666667,4,1,2,70,0,0
17539,-100,4,2,2,70,0,0
17863,-133.333333333333,4,1,2,90,0,0
18187,-133.333333333333,4,1,2,60,0,0
18512,-100,4,2,2,70,0,0
19160,-100,4,2,1,70,0,0
19809,-100,4,2,2,70,0,0
20458,-100,4,2,1,70,0,0
21106,-100,4,2,2,70,0,0
21755,-100,4,2,1,70,0,0
22404,-100,4,2,2,70,0,0
23052,-100,4,2,1,70,0,0
23701,-100,4,2,2,75,0,0
23863,-100,4,2,1,50,0,0
24025,-100,4,2,2,75,0,0
24187,-100,4,2,1,50,0,0
24349,-100,4,2,1,75,0,0
24512,-100,4,2,1,50,0,0
24674,-100,4,2,1,75,0,0
24836,-100,4,2,1,50,0,0
24998,-100,4,2,2,80,0,0
25160,-100,4,2,1,55,0,0
25322,-100,4,2,2,80,0,0
25485,-100,4,2,1,55,0,0
25647,-100,4,2,1,80,0,0
25728,-100,4,2,1,55,0,0
25971,-100,4,2,1,80,0,0
26133,-100,4,2,1,55,0,0
26295,-100,4,2,2,80,0,0
26458,-100,4,2,1,55,0,0
26620,-100,4,2,2,80,0,0
26782,-100,4,2,1,55,0,0
26944,-100,4,2,1,80,0,0
27106,-100,4,2,1,55,0,0
27268,-100,4,2,1,80,0,0
27431,-100,4,2,1,55,0,0
27593,-100,4,1,1,100,0,0
27755,-100,4,2,2,80,0,0
28079,-100,4,2,2,60,0,0
28241,-100,4,2,1,80,0,0
28728,-100,4,2,2,80,0,0
28890,-100,4,2,2,50,0,0
31485,-100,4,2,2,55,0,0
32782,-100,4,2,2,60,0,0
34079,-100,4,2,2,70,0,0
39268,-100,4,1,2,70,0,0
39349,-100,4,2,2,70,0,0
56133,-100,4,2,2,60,0,0
63917,-100,4,1,2,60,0,0
64241,-100,4,2,2,60,0,0
66512,-66.6666666666667,4,2,2,60,0,0
66836,-66.6666666666667,4,1,2,70,0,0

[Colours]
Combo1 : 255,150,0
Combo2 : 5,240,5
Combo3 : 5,5,240
Combo4 : 240,5,5

[HitObjects]
256,192,998,1,0
304,96,1647,2,0,B|352:112|360:160,1,80,2|0
315,281,1971,2,0,B|277:315|231:298,1,80,2|0
148,198,2295,2,0,B|138:148|176:117,1,80,2|0
256,192,2620,6,0,B|264:240|240:272|240:272|272:296|272:344,1,160,10|0
256,192,3349,12,2,4241
256,192,4728,5,0
256,192,5214,2,0,B|288:128|320:152|328:192|312:248|256:264|216:264|176:192|208:144|256:152|256:152|256:32,1,400,0|4
384,32,7322,1,0
392,48,7404,1,0
400,64,7485,1,0
408,80,7566,1,0
416,96,7647,1,0
424,112,7728,1,0
432,128,7809,1,0
440,144,7890,1,0
448,160,7971,1,0
456,176,8052,1,0
464,192,8133,6,0,B|488:248|464:320|392:336,1,160,4|2
384,320,8539,1,0
360,296,8620,1,2
352,264,8701,1,0
344,296,8782,1,0
320,320,8863,1,0
296,336,8944,2,0,B|256:360|200:344,1,80,0|2
112,280,9268,1,0
40,176,9431,6,0,B|88:144|160:144|208:200,1,160,4|2
208,208,9836,1,0
232,224,9917,1,2
264,232,9998,1,0
296,224,10079,1,0
320,200,10160,1,0
328,168,10241,2,0,B|336:120|384:104,1,80,0|2
456,208,10566,1,0
296,224,10728,6,0,B|272:184|280:104|328:64,1,160,4|2
344,56,11133,1,0
312,48,11214,1,2
280,56,11295,1,0
256,72,11377,1,0
240,96,11458,1,0
232,128,11539,2,0,B|224:184|168:208,1,80,0|2
72,216,11863,1,0
152,304,12025,6,0,B|208:288|280:312|312:368,1,160,4|2
400,304,12512,1,2
400,304,12593,1,0
400,304,12674,2,0,B|416:360,1,40
496,256,12917,2,0,B|512:312,1,40,0|2
512,144,13160,1,0
512,144,13322,6,0,B|464:136|432:168,1,80,4|8
280,72,13647,2,0,B|328:80|360:48,1,80,2|8
304,240,13971,2,0,B|256:232|224:264,1,80,0|8
72,168,14296,2,0,B|120:176|152:144,1,80,2|8
160,296,14620,6,0,B|208:288|232:224,1,80,4|8
336,336,14944,2,0,B|360:288|336:240,1,80,2|8
448,224,15268,2,0,B|432:176,1,40,0|2
488,88,15512,2,0,B|472:40,1,40,0|2
352,8,15755,1,0
352,8,15836,1,0
352,8,15917,6,0,B|352:64|296:120|224:120,1,160,4|2
216,112,16322,1,0
192,96,16404,1,2
176,72,16485,1,0
152,48,16566,1,0
120,40,16647,1,0
88,48,16728,1,2
64,64,16809,1,0
48,96,16890,1,0
48,128,16971,1,0
64,152,17052,1,2
88,176,17133,1,0
120,184,17214,6,0,B|120:328,1,119.999996423721,4|0
120,184,17863,6,0,B|120:328,1,119.999996423721,8|0
368,120,18512,6,0,B|416:104|456:136,1,80,4|0
432,264,18836,2,0,B|384:280|344:248,1,80,8|0
400,192,19160,1,8
400,192,19485,1,0
400,192,19809,6,0,B|437:225|430:276,1,80,4|0
307,319,20133,2,0,B|269:285|276:234,1,80,8|0
353,255,20457,1,8
353,255,20782,1,0
352,256,21106,6,0,B|341:305|294:324,1,80,4|0
195,238,21430,2,0,B|205:188|252:169,1,80,8|0
273,246,21754,1,8
273,246,22079,1,0
272,248,22404,6,0,B|223:264|183:232,1,80,4|0
209,103,22728,2,0,B|257:87|297:119,1,80,8|0
241,174,23052,1,8
241,174,23133,1,0
241,174,23214,2,0,B|160:168,1,80
72,120,23539,1,0
56,160,23620,1,0
64,200,23701,6,0,B|80:240|64:280,1,80,4|2
120,344,24025,1,8
200,312,24187,1,2
224,336,24268,1,0
248,360,24349,2,0,B|328:360,1,80,8|2
488,312,24674,2,0,B|408:312,1,80,0|2
288,200,24998,6,0,B|336:200|360:160,1,80,4|2
368,72,25322,1,8
280,16,25485,2,0,B|240:16,4,40,2|0|8|0|2
216,112,25971,1,0
144,40,26133,1,2
120,72,26214,1,0
112,112,26295,6,0,B|104:160|144:192,1,80,4|2
216,112,26620,1,8
144,40,26782,1,2
32,56,26944,2,0,B|0:96|16:152,1,80,8|2
32,224,27268,1,0
88,304,27431,1,2
104,304,27512,1,0
120,304,27593,6,0,B|232:304,1,80,8|8
392,304,27917,2,0,B|280:304,1,80,8|0
256,208,28241,1,8
256,192,28322,1,0
256,176,28404,1,8
256,160,28485,1,8
256,144,28566,1,8
256,32,28728,1,0
256,32,28809,1,0
256,32,28890,6,0,B|320:32,15,40,4|0|0|0|0|0|0|0|2|0|0|0|0|0|0|0
336,56,30187,2,0,B|384:88,15,40,4|0|0|0|0|0|0|0|2|0|0|0|0|0|0|0
400,112,31485,6,0,B|408:160,7,40,4|0|0|0|0|0|0|0
416,200,32133,2,0,B|376:248,7,40,6|0|0|0|2|0|0|0
376,280,32782,6,0,B|320:264,1,40,4|0
328,328,32944,2,0,B|296:296,1,40,8|0
264,352,33106,2,0,B|256:304,1,40,2|0
200,352,33268,2,0,B|216:312,1,40,8|0
144,320,33431,5,4
120,288,33512,1,0
128,248,33593,1,8
160,224,33674,1,0
200,232,33755,1,2
216,232,33836,1,0
232,232,33917,1,8
248,232,33998,1,0
264,232,34079,6,0,B|312:176,3,40,0|0|0|0
300,189,34404,1,2
309,175,34485,1,0
313,159,34566,1,0
312,143,34647,1,0
306,127,34728,2,0,B|348:103,3,40,0|0|2|0
355,101,35052,1,0
370,106,35133,1,0
385,106,35214,2,0,B|424:155,3,40,2|0|0|0
419,150,35539,5,0
430,160,35620,1,0
445,164,35701,1,2
460,165,35782,1,0
475,161,35863,1,0
488,151,35944,1,0
495,136,36025,1,0
497,120,36106,1,0
494,104,36187,2,0,B|470:65,3,40,2|0|0|0
462,57,36512,1,2
450,46,36593,1,0
436,38,36674,6,0,B|364:37,1,40
380,37,36836,2,0,B|320:37,1,40,0|0
324,40,36998,1,2
324,40,37079,1,0
324,40,37160,2,2,B|320:92|256:107,1,80,0|0
262,103,37404,1,0
246,102,37485,1,2
230,97,37566,1,0
217,86,37647,1,0
207,72,37728,1,0
202,56,37809,1,2
205,40,37890,1,0
213,26,37971,6,0,B|154:26,3,40,0|0|2|0
157,26,38295,1,2
141,30,38377,1,0
128,39,38458,1,0
117,51,38539,1,0
110,65,38620,1,0
106,80,38701,1,0
106,95,38782,1,2
110,110,38863,1,0
119,123,38944,1,0
131,132,39025,1,0
144,140,39106,2,0,B|133:205,5,40,2|0|8|0|0|0
129,219,39593,5,8
132,258,39674,1,0
148,294,39755,1,8
180,317,39836,1,8
219,323,39917,6,0,B|292:312,3,40,4|0|0|0
274,314,40241,1,2
288,308,40322,1,0
301,299,40404,1,0
312,287,40485,1,0
321,273,40566,1,0
328,258,40647,1,0
332,242,40728,1,2
335,226,40809,1,0
336,210,40890,6,0,B|303:156,3,40,0|0|2|0
306,162,41214,1,0
300,146,41295,1,0
301,129,41377,1,0
308,114,41458,1,0
318,101,41539,1,2
331,92,41620,1,0
346,88,41701,2,0,B|408:88,3,40
401,87,42025,5,2
416,82,42106,1,0
427,71,42187,1,0
436,57,42268,1,0
438,41,42349,1,2
432,25,42431,1,0
419,14,42512,1,0
404,8,42593,1,0
388,7,42674,6,0,B|313:7,3,40,0|0|2|0
332,7,42998,1,0
316,10,43079,1,0
302,18,43160,1,0
291,29,43241,1,0
283,42,43322,1,2
275,56,43404,1,0
265,68,43485,1,0
251,75,43566,1,0
235,78,43647,1,2
219,75,43728,1,0
204,67,43809,6,0,B|168:129,5,40,0|0|0|0|2|0
175,124,44295,1,0
184,146,44377,1,0
194,167,44458,2,0,B|216:214,5,40,0|0|2|0|0|0
222,224,44944,1,2
216,247,45025,1,0
210,270,45106,2,0,B|200:314,3,40,2|0|0|0
288,304,45431,6,0,B|272:256,1,40,0|8
368,256,45593,2,0,B|320:224,1,40,10|8
416,176,45755,2,0,B|352:176,1,40,2|8
416,88,45917,2,0,B|368:112,1,40,10|8
312,136,46079,5,4
256,216,56458,6,0,B|304:240|304:288,1,80,0|2
96,264,56782,2,0,B|144:272|176:216,1,80
200,72,57106,2,0,B|168:112|208:168,1,80,2|2
195,147,57593,5,0
280,112,57755,2,0,B|328:104|368:144,1,80,0|2
400,288,58079,2,0,B|376:248|400:200,1,80
488,72,58404,2,0,B|480:120|432:144,1,80,2|2
445,136,58890,5,0
360,192,59052,2,0,B|320:208|272:192,1,80,0|2
152,296,59376,2,0,B|200:272|200:208,1,80
152,88,59701,2,0,B|200:104|216:168,1,80,2|2
207,142,60187,5,0
240,232,60349,2,0,B|256:280|312:296,1,80,0|2
392,312,60674,1,0
472,248,60836,1,0
432,152,60998,2,0,B|472:136|512:152,2,80,2|2|0
344,200,61485,1,0
344,200,61566,1,0
344,200,61647,6,0,B|304:216|248:192,1,80,0|2
232,56,61971,2,0,B|272:40|328:64,1,80
176,240,62295,2,0,B|136:256|80:232,1,80,2|2
97,238,62782,5,0
32,152,62944,2,0,B|24:104|56:72,1,80,0|2
232,56,63268,2,0,B|240:104|208:136,1,80
80,312,63593,2,0,B|72:264|104:232,1,80,2|2
176,288,63917,1,2
176,288,64241,5,4
256,288,64890,1,0
280,312,65214,1,0
304,336,65539,1,0
424,304,66187,1,4
424,304,66349,1,4
424,304,66512,6,0,B|424:128|424:128|432:128|432:128|424:136|424:136|416:128|416:128|416:128|416:128|416:128|416:128|424:120|424:120|424:120|424:120|432:128|432:128|424:136|424:136|432:128|432:128,1,240,0|8
